  0
SECTION
  2
HEADER
  9
$ACADVER
  1
AC1009
  9
$INSBASE
 10
-161.0614769035956
 20
274.6649291707613
 30
0.0
  9
$EXTMIN
 10
-166.0614769035956
 20
239.02738758037279
 30
0.0
  9
$EXTMAX
 10
162.44562163157801
 20
660.31791154658276
 30
0.0
  9
$LIMMIN
 10
0.0
 20
0.0
  9
$LIMMAX
 10
420.0
 20
297.0
  9
$ORTHOMODE
 70
     1
  9
$REGENMODE
 70
     1
  9
$FILLMODE
 70
     1
  9
$QTEXTMODE
 70
     0
  9
$MIRRTEXT
 70
     1
  9
$DRAGMODE
 70
     2
  9
$LTSCALE
 40
1.0
  9
$OSMODE
 70
     0
  9
$ATTMODE
 70
     1
  9
$TEXTSIZE
 40
2.5
  9
$TRACEWID
 40
1.0
  9
$TEXTSTYLE
  7
STANDARD
  9
$CLAYER
  8
BEM
  9
$CELTYPE
  6
BYLAYER
  9
$CECOLOR
 62
   256
  9
$DIMSCALE
 40
1.0
  9
$DIMASZ
 40
3.5
  9
$DIMEXO
 40
0.0
  9
$DIMDLI
 40
10.0
  9
$DIMRND
 40
0.0
  9
$DIMDLE
 40
0.0
  9
$DIMEXE
 40
2.0
  9
$DIMTP
 40
0.0
  9
$DIMTM
 40
0.000000001
  9
$DIMTXT
 40
3.5
  9
$DIMCEN
 40
1.5
  9
$DIMTSZ
 40
0.0
  9
$DIMTOL
 70
     0
  9
$DIMLIM
 70
     0
  9
$DIMTIH
 70
     0
  9
$DIMTOH
 70
     0
  9
$DIMSE1
 70
     0
  9
$DIMSE2
 70
     0
  9
$DIMTAD
 70
     1
  9
$DIMZIN
 70
     8
  9
$DIMBLK
  1

  9
$DIMASO
 70
     1
  9
$DIMSHO
 70
     1
  9
$DIMPOST
  1

  9
$DIMAPOST
  1

  9
$DIMALT
 70
     0
  9
$DIMALTD
 70
     2
  9
$DIMALTF
 40
25.399999999999999
  9
$DIMLFAC
 40
1.0
  9
$DIMTOFL
 70
     1
  9
$DIMTVP
 40
0.0
  9
$DIMTIX
 70
     0
  9
$DIMSOXD
 70
     0
  9
$DIMSAH
 70
     0
  9
$DIMBLK1
  1

  9
$DIMBLK2
  1

  9
$DIMSTYLE
  2
1ZU1
  9
$DIMCLRD
 70
   256
  9
$DIMCLRE
 70
   256
  9
$DIMCLRT
 70
     7
  9
$DIMTFAC
 40
0.7
  9
$DIMGAP
 40
1.5
  9
$LUNITS
 70
     2
  9
$LUPREC
 70
     4
  9
$SKETCHINC
 40
1.0
  9
$FILLETRAD
 40
1.0
  9
$AUNITS
 70
     0
  9
$AUPREC
 70
     0
  9
$MENU
  1
.
  9
$ELEVATION
 40
0.0
  9
$PELEVATION
 40
0.0
  9
$THICKNESS
 40
0.0
  9
$LIMCHECK
 70
     0
  9
$BLIPMODE
 70
     0
  9
$CHAMFERA
 40
10.0
  9
$CHAMFERB
 40
10.0
  9
$SKPOLY
 70
     0
  9
$TDCREATE
 40
2452694.801882592
  9
$TDUPDATE
 40
2453476.4707049308
  9
$TDINDWG
 40
0.8718645139
  9
$TDUSRTIMER
 40
0.8718645139
  9
$USRTIMER
 70
     1
  9
$ANGBASE
 50
0.0
  9
$ANGDIR
 70
     0
  9
$PDMODE
 70
     0
  9
$PDSIZE
 40
0.0
  9
$PLINEWID
 40
0.0
  9
$COORDS
 70
     2
  9
$SPLFRAME
 70
     0
  9
$SPLINETYPE
 70
     6
  9
$SPLINESEGS
 70
     8
  9
$ATTDIA
 70
     0
  9
$ATTREQ
 70
     1
  9
$HANDLING
 70
     1
  9
$HANDSEED
  5
606
  9
$SURFTAB1
 70
     6
  9
$SURFTAB2
 70
     6
  9
$SURFTYPE
 70
     6
  9
$SURFU
 70
     6
  9
$SURFV
 70
     6
  9
$UCSNAME
  2

  9
$UCSORG
 10
0.0
 20
0.0
 30
0.0
  9
$UCSXDIR
 10
1.0
 20
0.0
 30
0.0
  9
$UCSYDIR
 10
0.0
 20
1.0
 30
0.0
  9
$PUCSNAME
  2

  9
$PUCSORG
 10
0.0
 20
0.0
 30
0.0
  9
$PUCSXDIR
 10
1.0
 20
0.0
 30
0.0
  9
$PUCSYDIR
 10
0.0
 20
1.0
 30
0.0
  9
$USERI1
 70
     0
  9
$USERI2
 70
     0
  9
$USERI3
 70
     0
  9
$USERI4
 70
     0
  9
$USERI5
 70
     0
  9
$USERR1
 40
3.0
  9
$USERR2
 40
1.0
  9
$USERR3
 40
1.0
  9
$USERR4
 40
0.0
  9
$USERR5
 40
0.0
  9
$WORLDVIEW
 70
     1
  9
$SHADEDGE
 70
     3
  9
$SHADEDIF
 70
    70
  9
$TILEMODE
 70
     1
  9
$MAXACTVP
 70
    64
  9
$PLIMCHECK
 70
     0
  9
$PEXTMIN
 10
0.0
 20
0.0
 30
0.0
  9
$PEXTMAX
 10
594.0
 20
420.0
 30
0.0
  9
$PLIMMIN
 10
-17.999442293925672
 20
-8.982035185577514
  9
$PLIMMAX
 10
612.00052786019251
 20
436.52692135038501
  9
$UNITMODE
 70
     0
  9
$VISRETAIN
 70
     1
  9
$PLINEGEN
 70
     0
  9
$PSLTSCALE
 70
     1
  0
ENDSEC
  0
SECTION
  2
TABLES
  0
TABLE
  2
VPORT
 70
     2
  0
VPORT
  2
*ACTIVE
 70
     0
 10
0.0
 20
0.0
 11
1.0
 21
1.0
 12
9.1788773932813683
 22
451.23620805595408
 13
0.0
 23
0.0
 14
10.0
 24
10.0
 15
10.0
 25
10.0
 16
0.0
 26
0.0
 36
1.0
 17
0.0
 27
0.0
 37
0.0
 40
473.833955812976
 41
1.6743421052631571
 42
50.0
 43
0.0
 44
0.0
 50
0.0
 51
0.0
 71
     0
 72
   100
 73
     1
 74
     3
 75
     0
 76
     0
 77
     0
 78
     2
  0
ENDTAB
  0
TABLE
  2
LTYPE
 70
     3
  0
LTYPE
  2
CONTINUOUS
 70
     0
  3
Solid line
 72
    65
 73
     0
 40
0.0
  0
LTYPE
  2
ACAD_ISO04W100
 70
     0
  3
ISO Lang gestrichelt punktiert ____ . ____ . __
 72
    65
 73
     4
 40
30.0
 49
24.0
 49
-3.0
 49
0.0
 49
-3.0
  0
LTYPE
  2
VERDECKT
 70
     0
  3
Verdeckt __ __ __ __ __ __ __ __ __ __ __ __ __
 72
    65
 73
     2
 40
9.5249999999999986
 49
6.3499999999999988
 49
-3.1749999999999989
  0
ENDTAB
  0
TABLE
  2
LAYER
 70
     5
  0
LAYER
  2
0
 70
     0
 62
     7
  6
CONTINUOUS
  0
LAYER
  2
DEFPOINTS
 70
     0
 62
     7
  6
CONTINUOUS
  0
LAYER
  2
BEM
 70
     0
 62
     3
  6
CONTINUOUS
  0
LAYER
  2
SYM1
 70
     0
 62
     6
  6
ACAD_ISO04W100
  0
LAYER
  2
VER1
 70
     0
 62
     8
  6
VERDECKT
  0
ENDTAB
  0
TABLE
  2
STYLE
 70
     2
  0
STYLE
  2
STANDARD
 70
     0
 40
0.0
 41
1.0
 50
0.0
 71
     0
 42
2.5
  3
txt
  4

  0
STYLE
  2
ROMANS
 70
     0
 40
0.0
 41
1.0
 50
0.0
 71
     0
 42
3.5
  3
C:\ACAD13\COM\FONTS\ROMANS.SHX
  4

  0
ENDTAB
  0
TABLE
  2
VIEW
 70
     0
  0
ENDTAB
  0
TABLE
  2
UCS
 70
     0
  0
ENDTAB
  0
TABLE
  2
APPID
 70
     1
  0
APPID
  2
ACAD
 70
     0
  0
ENDTAB
  0
TABLE
  2
DIMSTYLE
 70
     2
  0
DIMSTYLE
  2
ISO-25
 70
     0
  3

  4

  5

  6

  7

 40
1.0
 41
2.5
 42
0.625
 43
3.75
 44
1.25
 45
0.0
 46
0.0
 47
0.0
 48
0.0
140
2.5
141
2.5
142
0.0
143
0.03937007874016
144
1.0
145
0.0
146
1.0
147
0.625
 71
     0
 72
     0
 73
     0
 74
     0
 75
     0
 76
     0
 77
     1
 78
     8
170
     0
171
     3
172
     1
173
     0
174
     0
175
     0
176
     0
177
     0
178
     0
  0
DIMSTYLE
  2
1ZU1
 70
     0
  3

  4

  5

  6

  7

 40
1.0
 41
3.5
 42
0.0
 43
10.0
 44
2.0
 45
0.0
 46
0.0
 47
0.0
 48
0.000000001
140
3.5
141
1.5
142
0.0
143
25.399999999999999
144
1.0
145
0.0
146
0.7
147
1.5
 71
     0
 72
     0
 73
     0
 74
     0
 75
     0
 76
     0
 77
     1
 78
     8
170
     0
171
     2
172
     1
173
     0
174
     0
175
     0
176
   256
177
   256
178
     7
  0
ENDTAB
  0
ENDSEC
  0
SECTION
  2
BLOCKS
  0
BLOCK
  8
0
  2
$MODEL_SPACE
 70
     0
 10
0.0
 20
0.0
 30
0.0
  3
$MODEL_SPACE
  1

  0
ENDBLK
  5
9
  8
0
  0
BLOCK
 67
     1
  8
0
  2
$PAPER_SPACE
 70
     0
 10
0.0
 20
0.0
 30
0.0
  3
$PAPER_SPACE
  1

  0
ENDBLK
  5
E
 67
     1
  8
0
  0
BLOCK
  8
0
  2
*D0
 70
     1
 10
0.0
 20
0.0
 30
0.0
  3
*D0
  1

  0
LINE
  5
EC
  8
BEM
 10
-72.890852755979921
 20
515.88221546112516
 30
0.0
 11
-35.37549061305657
 21
551.30904044949773
 31
0.0
  0
INSERT
  5
ED
  8
BEM
  2
*U31
 10
0.0
 20
0.0
 30
0.0
  0
SOLID
  5
EE
  8
BEM
 10
-35.775995011781283
 20
551.73315600495391
 30
0.0
 11
-34.974986214331807
 21
550.88492489404155
 31
0.0
 12
-32.830797280319473
 22
553.71206684184631
 32
0.0
 13
-32.830797280319473
 23
553.71206684184631
 33
0.0
  0
POINT
  5
EF
  8
DEFPOINTS
 62
     0
 10
-32.830797280319473
 20
553.71206684184631
 30
0.0
  0
POINT
  5
F0
  8
DEFPOINTS
 62
     0
 10
-117.1692027196805
 20
474.0689084494046
 30
0.0
  0
ENDBLK
  5
F2
  8
0
  0
BLOCK
  8
0
  2
*D1
 70
     1
 10
0.0
 20
0.0
 30
0.0
  3
*D1
  1

  0
LINE
  5
DA
  8
BEM
 10
-127.4999999999999
 20
566.39048764562529
 30
0.0
 11
-127.4999999999999
 21
600.83090568545595
 31
0.0
  0
LINE
  5
DB
  8
BEM
 10
-22.499999999999918
 20
566.39048764562529
 30
0.0
 11
-22.499999999999911
 21
600.83090568545595
 31
0.0
  0
LINE
  5
DC
  8
BEM
 10
-123.9999999999999
 20
598.83090568545606
 30
0.0
 11
-25.999999999999911
 21
598.83090568545606
 31
0.0
  0
SOLID
  5
DD
  8
BEM
 10
-123.9999999999999
 20
599.41423901878943
 30
0.0
 11
-123.9999999999999
 21
598.24757235212257
 31
0.0
 12
-127.4999999999999
 22
598.83090568545606
 32
0.0
 13
-127.4999999999999
 23
598.83090568545606
 33
0.0
  0
SOLID
  5
DE
  8
BEM
 10
-25.999999999999911
 20
599.41423901878943
 30
0.0
 11
-25.999999999999911
 21
598.24757235212257
 31
0.0
 12
-22.499999999999911
 22
598.83090568545606
 32
0.0
 13
-22.499999999999911
 23
598.83090568545606
 33
0.0
  0
INSERT
  5
DF
  8
BEM
  2
*U30
 10
0.0
 20
0.0
 30
0.0
  0
POINT
  5
E0
  8
DEFPOINTS
 62
     0
 10
-127.4999999999999
 20
566.39048764562529
 30
0.0
  0
POINT
  5
E1
  8
DEFPOINTS
 62
     0
 10
-22.499999999999918
 20
566.39048764562529
 30
0.0
  0
POINT
  5
E2
  8
DEFPOINTS
 62
     0
 10
-22.499999999999911
 20
598.83090568545606
 30
0.0
  0
ENDBLK
  5
E4
  8
0
  0
BLOCK
  8
0
  2
*D2
 70
     1
 10
0.0
 20
0.0
 30
0.0
  3
*D2
  1

  0
LINE
  5
F8
  8
BEM
 10
-127.4999999999999
 20
461.3904876456254
 30
0.0
 11
-163.0614769035956
 21
461.3904876456254
 31
0.0
  0
LINE
  5
F9
  8
BEM
 10
-127.4999999999999
 20
566.39048764562529
 30
0.0
 11
-163.0614769035956
 21
566.39048764562529
 31
0.0
  0
LINE
  5
FA
  8
BEM
 10
-161.06147690359549
 20
464.89048764562551
 30
0.0
 11
-161.06147690359549
 21
562.89048764562529
 31
0.0
  0
SOLID
  5
FB
  8
BEM
 10
-161.64481023692889
 20
464.89048764562551
 30
0.0
 11
-160.4781435702622
 21
464.89048764562551
 31
0.0
 12
-161.06147690359549
 22
461.3904876456254
 32
0.0
 13
-161.06147690359549
 23
461.3904876456254
 33
0.0
  0
SOLID
  5
FC
  8
BEM
 10
-161.64481023692889
 20
562.89048764562529
 30
0.0
 11
-160.4781435702622
 21
562.89048764562529
 31
0.0
 12
-161.06147690359549
 22
566.39048764562529
 32
0.0
 13
-161.06147690359549
 23
566.39048764562529
 33
0.0
  0
INSERT
  5
FD
  8
BEM
  2
*U32
 10
0.0
 20
0.0
 30
0.0
  0
POINT
  5
FE
  8
DEFPOINTS
 62
     0
 10
-127.4999999999999
 20
461.3904876456254
 30
0.0
  0
POINT
  5
FF
  8
DEFPOINTS
 62
     0
 10
-127.4999999999999
 20
566.39048764562529
 30
0.0
  0
POINT
  5
100
  8
DEFPOINTS
 62
     0
 10
-161.06147690359549
 20
566.39048764562529
 30
0.0
  0
ENDBLK
  5
102
  8
0
  0
BLOCK
  8
0
  2
*D3
 70
     1
 10
0.0
 20
0.0
 30
0.0
  3
*D3
  1

  0
LINE
  5
224
  8
BEM
 10
-123.2499999999999
 20
461.3904876456254
 30
0.0
 11
-123.2499999999999
 21
441.35977793775339
 31
0.0
  0
LINE
  5
225
  8
BEM
 10
-122.7499999999999
 20
461.3904876456254
 30
0.0
 11
-122.7499999999999
 21
441.35977793775339
 31
0.0
  0
LINE
  5
226
  8
BEM
 10
-126.7499999999999
 20
443.35977793775328
 30
0.0
 11
-130.24999999999989
 21
443.35977793775328
 31
0.0
  0
LINE
  5
227
  8
BEM
 10
-119.2499999999999
 20
443.35977793775328
 30
0.0
 11
-32.249999999999922
 21
443.35977793775328
 31
0.0
  0
LINE
  5
228
  8
BEM
 10
-123.2499999999999
 20
443.35977793775328
 30
0.0
 11
-122.7499999999999
 21
443.35977793775328
 31
0.0
  0
SOLID
  5
229
  8
BEM
 10
-126.7499999999999
 20
443.94311127108671
 30
0.0
 11
-126.7499999999999
 21
442.77644460442002
 31
0.0
 12
-123.2499999999999
 22
443.35977793775328
 32
0.0
 13
-123.2499999999999
 23
443.35977793775328
 33
0.0
  0
SOLID
  5
22A
  8
BEM
 10
-119.2499999999999
 20
443.94311127108671
 30
0.0
 11
-119.2499999999999
 21
442.77644460442002
 31
0.0
 12
-122.7499999999999
 22
443.35977793775328
 32
0.0
 13
-122.7499999999999
 23
443.35977793775328
 33
0.0
  0
INSERT
  5
22B
  8
BEM
  2
*U35
 10
0.0
 20
0.0
 30
0.0
  0
POINT
  5
22C
  8
DEFPOINTS
 62
     0
 10
-123.2499999999999
 20
461.3904876456254
 30
0.0
  0
POINT
  5
22D
  8
DEFPOINTS
 62
     0
 10
-122.7499999999999
 20
461.3904876456254
 30
0.0
  0
POINT
  5
22E
  8
DEFPOINTS
 62
     0
 10
-122.7499999999999
 20
443.35977793775328
 30
0.0
  0
ENDBLK
  5
CC
  8
0
  0
BLOCK
  8
0
  2
*D4
 70
     1
 10
0.0
 20
0.0
 30
0.0
  3
*D4
  1

  0
LINE
  5
21C
  8
BEM
 10
-43.651627539106833
 20
579.24238059751747
 30
0.0
 11
-29.123236906184928
 21
570.41481776187436
 31
0.0
  0
LINE
  5
21D
  8
BEM
 10
-15.876763093815009
 20
562.36615752937644
 30
0.0
 11
-12.88562384586046
 21
560.54871812203805
 31
0.0
  0
INSERT
  5
21E
  8
BEM
  2
*U34
 10
0.0
 20
0.0
 30
0.0
  0
LINE
  5
21F
  8
BEM
 10
-18.867902341769511
 20
564.18359693671459
 30
0.0
 11
-26.132097658230428
 21
568.5973783545362
 31
0.0
  0
SOLID
  5
220
  8
BEM
 10
-15.57385652592529
 20
562.86468073736876
 30
0.0
 11
-16.1796696617047
 21
561.867634321384
 31
0.0
 12
-18.867902341769511
 22
564.18359693671459
 32
0.0
 13
-18.867902341769511
 23
564.18359693671459
 33
0.0
  0
SOLID
  5
221
  8
BEM
 10
-28.820330338295211
 20
570.91334096986691
 30
0.0
 11
-29.426143474074621
 21
569.91629455388215
 31
0.0
 12
-26.132097658230428
 22
568.5973783545362
 32
0.0
 13
-26.132097658230428
 23
568.5973783545362
 33
0.0
  0
POINT
  5
222
  8
DEFPOINTS
 62
     0
 10
-26.132097658230428
 20
568.5973783545362
 30
0.0
  0
POINT
  5
223
  8
DEFPOINTS
 62
     0
 10
-18.867902341769511
 20
564.18359693671459
 30
0.0
  0
ENDBLK
  5
21B
  8
0
  0
BLOCK
  8
0
  2
*D5
 70
     1
 10
0.0
 20
0.0
 30
0.0
  3
*D5
  1

  0
LINE
  5
57D
  8
BEM
 10
4.7190652979927563
 20
311.31606981289087
 30
0.0
 11
16.885856129894719
 21
314.58407786349289
 31
0.0
  0
TEXT
  8
BEM
  40
3.5
  5
603
  62
7
  72
0
  71
0
 10
0.578108
 20
309.254
 30
0.000000
  1
R1
  7
ROMANS
  0
SOLID
  5
57F
  8
BEM
 10
16.734535952660281
 20
315.1474427379211
 30
0.0
 11
17.037176307129151
 21
314.0207129890648
 31
0.0
 12
20.266045376463978
 22
315.49199892689961
 32
0.0
 13
20.266045376463978
 23
315.49199892689961
 33
0.0
  0
POINT
  5
580
  8
DEFPOINTS
 62
     0
 10
20.266045376463978
 20
315.49199892689961
 30
0.0
  0
POINT
  5
581
  8
DEFPOINTS
 62
     0
 10
19.30027702030112
 20
315.23259290878337
 30
0.0
  0
ENDBLK
  5
250
  8
0
  0
BLOCK
  8
0
  2
*D6
 70
     1
 10
0.0
 20
0.0
 30
0.0
  3
*D6
  1

  0
LINE
  5
59B
  8
BEM
 10
37.305744145626342
 20
452.70542945419339
 30
0.0
 11
29.199983431880469
 21
460.597381334592
 31
0.0
  0
TEXT
  8
BEM
  40
3.5
  5
604
  62
7
  72
0
  71
0
 10
29.8264
 20
451.513
 30
0.000000
  1
R1
  7
ROMANS
  0
SOLID
  5
59D
  8
BEM
 10
29.60691327994758
 20
461.0153357298671
 30
0.0
 11
28.793053583813389
 21
460.17942693931678
 31
0.0
 12
26.692257060229281
 22
463.03896042299459
 32
0.0
 13
26.692257060229281
 23
463.03896042299459
 33
0.0
  0
POINT
  5
59E
  8
DEFPOINTS
 62
     0
 10
26.692257060229281
 20
463.03896042299459
 30
0.0
  0
POINT
  5
59F
  8
DEFPOINTS
 62
     0
 10
27.408750309272591
 20
462.34136639773658
 30
0.0
  0
ENDBLK
  5
289
  8
0
  0
BLOCK
  8
0
  2
*D7
 70
     1
 10
0.0
 20
0.0
 30
0.0
  3
*D7
  1

  0
LINE
  5
5B4
  8
BEM
 10
-143.8190265775514
 20
302.38541399874629
 30
0.0
 11
-134.41257699278589
 21
310.16701933931807
 31
0.0
  0
TEXT
  8
BEM
  40
3.5
  5
605
  62
7
  72
0
  71
0
 10
-149.937
 20
301.138
 30
0.000000
  1
R1
  7
ROMANS
  0
SOLID
  5
5B6
  8
BEM
 10
-134.78440519926539
 20
310.61648742788952
 30
0.0
 11
-134.04074878630641
 21
309.71755125074679
 31
0.0
 12
-131.7157684613577
 22
312.39798857819528
 32
0.0
 13
-131.7157684613577
 23
312.39798857819528
 33
0.0
  0
POINT
  5
5B7
  8
DEFPOINTS
 62
     0
 10
-131.7157684613577
 20
312.39798857819528
 30
0.0
  0
POINT
  5
5B8
  8
DEFPOINTS
 62
     0
 10
-132.48628518462269
 20
311.76056879565908
 30
0.0
  0
ENDBLK
  5
2B4
  8
0
  0
BLOCK
  8
0
  2
*D8
 70
     1
 10
0.0
 20
0.0
 30
0.0
  3
*D8
  1

  0
LINE
  5
4E8
  8
BEM
 10
127.5
 20
416.39048764562523
 30
0.0
 11
162.44562163157801
 21
416.39048764562523
 31
0.0
  0
LINE
  5
4E9
  8
BEM
 10
127.5
 20
425.89048764562523
 30
0.0
 11
162.44562163157801
 21
425.89048764562523
 31
0.0
  0
LINE
  5
4EA
  8
BEM
 10
160.44562163157801
 20
412.89048764562511
 30
0.0
 11
160.44562163157801
 21
409.39048764562523
 31
0.0
  0
LINE
  5
4EB
  8
BEM
 10
160.44562163157801
 20
429.39048764562511
 30
0.0
 11
160.44562163157801
 21
443.22382097895849
 31
0.0
  0
LINE
  5
4EC
  8
BEM
 10
160.44562163157801
 20
416.39048764562523
 30
0.0
 11
160.44562163157801
 21
425.89048764562523
 31
0.0
  0
SOLID
  5
4ED
  8
BEM
 10
159.86228829824461
 20
412.89048764562511
 30
0.0
 11
161.02895496491129
 21
412.89048764562511
 31
0.0
 12
160.44562163157801
 22
416.39048764562523
 32
0.0
 13
160.44562163157801
 23
416.39048764562523
 33
0.0
  0
SOLID
  5
4EE
  8
BEM
 10
159.86228829824461
 20
429.39048764562511
 30
0.0
 11
161.02895496491129
 21
429.39048764562511
 31
0.0
 12
160.44562163157801
 22
425.89048764562523
 32
0.0
 13
160.44562163157801
 23
425.89048764562523
 33
0.0
  0
INSERT
  5
4EF
  8
BEM
  2
*U52
 10
0.0
 20
0.0
 30
0.0
  0
POINT
  5
4F0
  8
DEFPOINTS
 62
     0
 10
127.5
 20
416.39048764562523
 30
0.0
  0
POINT
  5
4F1
  8
DEFPOINTS
 62
     0
 10
127.5
 20
425.89048764562523
 30
0.0
  0
POINT
  5
4F2
  8
DEFPOINTS
 62
     0
 10
160.44562163157801
 20
425.89048764562523
 30
0.0
  0
ENDBLK
  5
2E1
  8
0
  0
BLOCK
  8
0
  2
*D9
 70
     1
 10
0.0
 20
0.0
 30
0.0
  3
*D9
  1

  0
LINE
  5
4F3
  8
BEM
 10
127.5
 20
311.3904876456254
 30
0.0
 11
162.44562163157789
 21
311.3904876456254
 31
0.0
  0
LINE
  5
4F4
  8
BEM
 10
127.5
 20
416.39048764562523
 30
0.0
 11
162.44562163157801
 21
416.39048764562523
 31
0.0
  0
LINE
  5
4F5
  8
BEM
 10
160.44562163157789
 20
314.89048764562529
 30
0.0
 11
160.44562163157801
 21
412.89048764562511
 31
0.0
  0
SOLID
  5
4F6
  8
BEM
 10
159.86228829824461
 20
314.89048764562529
 30
0.0
 11
161.02895496491129
 21
314.89048764562529
 31
0.0
 12
160.44562163157789
 22
311.3904876456254
 32
0.0
 13
160.44562163157789
 23
311.3904876456254
 33
0.0
  0
SOLID
  5
4F7
  8
BEM
 10
159.86228829824461
 20
412.89048764562511
 30
0.0
 11
161.02895496491129
 21
412.89048764562511
 31
0.0
 12
160.44562163157801
 22
416.39048764562523
 32
0.0
 13
160.44562163157801
 23
416.39048764562523
 33
0.0
  0
INSERT
  5
4F8
  8
BEM
  2
*U53
 10
0.0
 20
0.0
 30
0.0
  0
POINT
  5
4F9
  8
DEFPOINTS
 62
     0
 10
127.5
 20
311.3904876456254
 30
0.0
  0
POINT
  5
4FA
  8
DEFPOINTS
 62
     0
 10
127.5
 20
416.39048764562523
 30
0.0
  0
POINT
  5
4FB
  8
DEFPOINTS
 62
     0
 10
160.44562163157801
 20
416.39048764562523
 30
0.0
  0
ENDBLK
  5
2FB
  8
0
  0
BLOCK
  8
0
  2
*D10
 70
     1
 10
0.0
 20
0.0
 30
0.0
  3
*D10
  1

  0
LINE
  5
462
  8
BEM
 10
-0.0057305240253669
 20
432.54975205173679
 30
0.0
 11
13.81921822644747
 21
428.76620391655422
 31
0.0
  0
LINE
  5
463
  8
BEM
 10
31.18078177355272
 20
424.01477137469692
 30
0.0
 11
34.556641352156547
 21
423.09088171378028
 31
0.0
  0
INSERT
  5
464
  8
BEM
  2
*U46
 10
0.0
 20
0.0
 30
0.0
  0
LINE
  5
465
  8
BEM
 10
27.80492219494889
 20
424.93866103561362
 30
0.0
 11
17.195077805051309
 21
427.8423142556374
 31
0.0
  0
SOLID
  5
466
  8
BEM
 10
31.334763383705511
 20
424.57741463779757
 30
0.0
 11
31.026800163399951
 21
423.45212811159638
 31
0.0
 12
27.80492219494889
 22
424.93866103561362
 32
0.0
 13
27.80492219494889
 23
424.93866103561362
 33
0.0
  0
SOLID
  5
467
  8
BEM
 10
13.97319983660026
 20
429.32884717965482
 30
0.0
 11
13.665236616294701
 21
428.20356065345351
 31
0.0
 12
17.195077805051309
 22
427.8423142556374
 32
0.0
 13
17.195077805051309
 23
427.8423142556374
 33
0.0
  0
POINT
  5
468
  8
DEFPOINTS
 62
     0
 10
17.195077805051309
 20
427.8423142556374
 30
0.0
  0
POINT
  5
469
  8
DEFPOINTS
 62
     0
 10
27.80492219494889
 20
424.93866103561362
 30
0.0
  0
ENDBLK
  5
306
  8
0
  0
BLOCK
  8
0
  2
*D11
 70
     1
 10
0.0
 20
0.0
 30
0.0
  3
*D11
  1

  0
LINE
  5
46A
  8
BEM
 10
-2.0942059933323369
 20
419.90464766714177
 30
0.0
 11
15.07540847053242
 21
417.45135550759312
 31
0.0
  0
LINE
  5
46B
  8
BEM
 10
29.924591529467801
 20
415.32961978365711
 30
0.0
 11
33.389400909886056
 21
414.8345481147386
 31
0.0
  0
INSERT
  5
46C
  8
BEM
  2
*U47
 10
0.0
 20
0.0
 30
0.0
  0
LINE
  5
46D
  8
BEM
 10
26.459782149049548
 20
415.82469145257539
 30
0.0
 11
18.540217850950668
 21
416.95628383867472
 31
0.0
  0
SOLID
  5
46E
  8
BEM
 10
30.007103474287529
 20
415.90708801372682
 30
0.0
 11
29.842079584648069
 21
414.7521515535874
 31
0.0
 12
26.459782149049548
 22
415.82469145257539
 32
0.0
 13
26.459782149049548
 23
415.82469145257539
 33
0.0
  0
SOLID
  5
46F
  8
BEM
 10
15.157920415352161
 20
418.02882373766278
 30
0.0
 11
14.992896525712689
 21
416.87388727752341
 31
0.0
 12
18.540217850950668
 22
416.95628383867472
 32
0.0
 13
18.540217850950668
 23
416.95628383867472
 33
0.0
  0
POINT
  5
470
  8
DEFPOINTS
 62
     0
 10
18.540217850950668
 20
416.95628383867472
 30
0.0
  0
POINT
  5
471
  8
DEFPOINTS
 62
     0
 10
26.459782149049548
 20
415.82469145257539
 30
0.0
  0
ENDBLK
  5
311
  8
0
  0
BLOCK
  8
0
  2
*D12
 70
     1
 10
0.0
 20
0.0
 30
0.0
  3
*D12
  1

  0
LINE
  5
485
  8
BEM
 10
77.109147244019866
 20
365.88221546112487
 30
0.0
 11
114.6245093869433
 21
401.30904044949767
 31
0.0
  0
INSERT
  5
486
  8
BEM
  2
*U48
 10
0.0
 20
0.0
 30
0.0
  0
SOLID
  5
487
  8
BEM
 10
114.2240049882186
 20
401.73315600495391
 30
0.0
 11
115.02501378566809
 21
400.88492489404138
 31
0.0
 12
117.1692027196805
 22
403.71206684184608
 32
0.0
 13
117.1692027196805
 23
403.71206684184608
 33
0.0
  0
POINT
  5
488
  8
DEFPOINTS
 62
     0
 10
117.1692027196805
 20
403.71206684184608
 30
0.0
  0
POINT
  5
489
  8
DEFPOINTS
 62
     0
 10
32.830797280319423
 20
324.06890844940449
 30
0.0
  0
ENDBLK
  5
319
  8
0
  0
BLOCK
  8
0
  2
*D13
 70
     1
 10
0.0
 20
0.0
 30
0.0
  3
*D13
  1

  0
LINE
  5
4B7
  8
BEM
 10
22.500000000000082
 20
311.3904876456254
 30
0.0
 11
22.500000000000082
 21
272.93309627533648
 31
0.0
  0
LINE
  5
4B8
  8
BEM
 10
127.5000000000001
 20
311.3904876456254
 30
0.0
 11
127.5000000000001
 21
272.93309627533648
 31
0.0
  0
LINE
  5
4B9
  8
BEM
 10
26.000000000000082
 20
274.93309627533648
 30
0.0
 11
124.0000000000001
 21
274.93309627533648
 31
0.0
  0
SOLID
  5
4BA
  8
BEM
 10
26.000000000000082
 20
275.5164296086698
 30
0.0
 11
26.000000000000082
 21
274.34976294200322
 31
0.0
 12
22.500000000000082
 22
274.93309627533648
 32
0.0
 13
22.500000000000082
 23
274.93309627533648
 33
0.0
  0
SOLID
  5
4BB
  8
BEM
 10
124.0000000000001
 20
275.5164296086698
 30
0.0
 11
124.0000000000001
 21
274.34976294200322
 31
0.0
 12
127.5000000000001
 22
274.93309627533648
 32
0.0
 13
127.5000000000001
 23
274.93309627533648
 33
0.0
  0
INSERT
  5
4BC
  8
BEM
  2
*U50
 10
0.0
 20
0.0
 30
0.0
  0
POINT
  5
4BD
  8
DEFPOINTS
 62
     0
 10
22.500000000000082
 20
311.3904876456254
 30
0.0
  0
POINT
  5
4BE
  8
DEFPOINTS
 62
     0
 10
127.5000000000001
 20
311.3904876456254
 30
0.0
  0
POINT
  5
4BF
  8
DEFPOINTS
 62
     0
 10
127.5000000000001
 20
274.93309627533648
 30
0.0
  0
ENDBLK
  5
325
  8
0
  0
BLOCK
  8
0
  2
*D14
 70
     1
 10
0.0
 20
0.0
 30
0.0
  3
*D14
  1

  0
LINE
  5
336
  8
BEM
 10
112.77138157831
 20
579.71774389919915
 30
0.0
 11
121.93873777691491
 21
571.42262064129227
 31
0.0
  0
LINE
  5
337
  8
BEM
 10
133.06126222308561
 20
561.35835464995785
 30
0.0
 11
135.65651792719211
 21
559.01002591864653
 31
0.0
  0
INSERT
  5
338
  8
BEM
  2
*U36
 10
0.0
 20
0.0
 30
0.0
  0
LINE
  5
339
  8
BEM
 10
130.4660065189791
 20
563.70668338126916
 30
0.0
 11
124.5339934810214
 21
569.07429190998084
 31
0.0
  0
SOLID
  5
33A
  8
BEM
 10
133.45265034497081
 20
561.79089726730899
 30
0.0
 11
132.66987410120029
 21
560.92581203260659
 31
0.0
 12
130.4660065189791
 22
563.70668338126916
 32
0.0
 13
130.4660065189791
 23
563.70668338126916
 33
0.0
  0
SOLID
  5
33B
  8
BEM
 10
122.33012589880011
 20
571.85516325864342
 30
0.0
 11
121.54734965502961
 21
570.99007802394124
 31
0.0
 12
124.5339934810214
 22
569.07429190998084
 32
0.0
 13
124.5339934810214
 23
569.07429190998084
 33
0.0
  0
POINT
  5
33C
  8
DEFPOINTS
 62
     0
 10
124.5339934810214
 20
569.07429190998084
 30
0.0
  0
POINT
  5
33D
  8
DEFPOINTS
 62
     0
 10
130.4660065189791
 20
563.70668338126916
 30
0.0
  0
ENDBLK
  5
33F
  8
0
  0
BLOCK
  8
0
  2
*D15
 70
     1
 10
0.0
 20
0.0
 30
0.0
  3
*D15
  1

  0
LINE
  5
341
  8
BEM
 10
29.400014613543931
 20
549.73237878503517
 30
0.0
 11
35.326382749113812
 21
535.42486045652663
 31
0.0
  0
LINE
  5
342
  8
BEM
 10
39.158108860589721
 20
559.49047303208147
 30
0.0
 11
53.465627189098711
 21
553.56410489651137
 31
0.0
  0
ARC
  5
343
  8
BEM
 10
22.50000000000006
 20
566.39048764562517
 30
0.0
 40
31.516953346642492
 50
298.86604732538552
 51
331.13395267461482
  0
SOLID
  5
344
  8
BEM
 10
37.968047084346807
 20
538.26378861925923
 30
0.0
 11
37.462422987794213
 21
539.31519500315483
 31
0.0
 12
34.561015884383671
 22
537.27261952154902
 32
0.0
 13
34.561015884383671
 23
537.27261952154902
 33
0.0
  0
SOLID
  5
345
  8
BEM
 10
49.575292642470487
 20
551.4280646578311
 30
0.0
 11
50.626699026366111
 21
550.92244056127845
 31
0.0
 12
51.617868124076118
 22
554.32947176124162
 32
0.0
 13
51.617868124076118
 23
554.32947176124162
 33
0.0
  0
INSERT
  5
346
  8
BEM
  2
*U37
 10
0.0
 20
0.0
 30
0.0
  0
POINT
  5
347
  8
DEFPOINTS
 62
     0
 10
41.686305557303342
 20
541.38640743226335
 30
0.0
  0
POINT
  5
348
  8
DEFPOINTS
 62
     0
 10
24.030733729460451
 20
562.69496951558006
 30
0.0
  0
POINT
  5
349
  8
DEFPOINTS
 62
     0
 10
39.158108860589721
 20
559.49047303208147
 30
0.0
  0
POINT
  5
34A
  8
DEFPOINTS
 62
     0
 10
26.19551813004523
 20
564.85975391616489
 30
0.0
  0
POINT
  5
34B
  8
DEFPOINTS
 62
     0
 10
29.400014613543931
 20
549.73237878503517
 30
0.0
  0
ENDBLK
  5
34D
  8
0
  0
BLOCK
  8
0
  2
*D16
 70
     1
 10
0.0
 20
0.0
 30
0.0
  3
*D16
  1

  0
LINE
  5
34F
  8
BEM
 10
82.947133131145264
 20
518.45459085818027
 30
0.0
 11
122.26051549340271
 21
541.03258618995346
 31
0.0
  0
INSERT
  5
350
  8
BEM
  2
*U38
 10
0.0
 20
0.0
 30
0.0
  0
SOLID
  5
351
  8
BEM
 10
121.9700037273652
 20
541.53843269984702
 30
0.0
 11
122.5510272594403
 21
540.52673968005979
 31
0.0
 12
125.2955945527642
 22
542.77565678617896
 32
0.0
 13
125.2955945527642
 23
542.77565678617896
 33
0.0
  0
POINT
  5
352
  8
DEFPOINTS
 62
     0
 10
125.2955945527642
 20
542.77565678617896
 30
0.0
  0
POINT
  5
353
  8
DEFPOINTS
 62
     0
 10
24.70440544723613
 20
485.00531850507201
 30
0.0
  0
ENDBLK
  5
355
  8
0
  0
BLOCK
  8
0
  2
*D17
 70
     1
 10
0.0
 20
0.0
 30
0.0
  3
*D17
  1

  0
LINE
  5
385
  8
BEM
 10
22.49999999999995
 20
566.39048764562494
 30
0.0
 11
22.499999999999961
 21
600.83090568545595
 31
0.0
  0
LINE
  5
386
  8
BEM
 10
127.5000000000001
 20
566.39048764562517
 30
0.0
 11
127.5000000000001
 21
600.83090568545595
 31
0.0
  0
LINE
  5
387
  8
BEM
 10
25.999999999999961
 20
598.83090568545606
 30
0.0
 11
124.0000000000001
 21
598.83090568545606
 31
0.0
  0
SOLID
  5
388
  8
BEM
 10
25.999999999999961
 20
599.41423901878943
 30
0.0
 11
25.999999999999961
 21
598.24757235212257
 31
0.0
 12
22.499999999999961
 22
598.83090568545606
 32
0.0
 13
22.499999999999961
 23
598.83090568545606
 33
0.0
  0
SOLID
  5
389
  8
BEM
 10
124.0000000000001
 20
599.41423901878943
 30
0.0
 11
124.0000000000001
 21
598.24757235212257
 31
0.0
 12
127.5000000000001
 22
598.83090568545606
 32
0.0
 13
127.5000000000001
 23
598.83090568545606
 33
0.0
  0
INSERT
  5
38A
  8
BEM
  2
*U39
 10
0.0
 20
0.0
 30
0.0
  0
POINT
  5
38B
  8
DEFPOINTS
 62
     0
 10
22.49999999999995
 20
566.39048764562494
 30
0.0
  0
POINT
  5
38C
  8
DEFPOINTS
 62
     0
 10
127.5000000000001
 20
566.39048764562517
 30
0.0
  0
POINT
  5
38D
  8
DEFPOINTS
 62
     0
 10
127.5000000000001
 20
598.83090568545606
 30
0.0
  0
ENDBLK
  5
361
  8
0
  0
BLOCK
  8
0
  2
*D18
 70
     1
 10
0.0
 20
0.0
 30
0.0
  3
*D18
  1

  0
LINE
  5
4D2
  8
BEM
 10
127.5000000000002
 20
461.39048764562523
 30
0.0
 11
162.44562163157801
 21
461.39048764562511
 31
0.0
  0
LINE
  5
4D3
  8
BEM
 10
127.5000000000001
 20
566.39048764562517
 30
0.0
 11
162.44562163157801
 21
566.39048764562517
 31
0.0
  0
LINE
  5
4D4
  8
BEM
 10
160.44562163157801
 20
464.89048764562511
 30
0.0
 11
160.44562163157801
 21
562.89048764562506
 31
0.0
  0
SOLID
  5
4D5
  8
BEM
 10
159.86228829824461
 20
464.89048764562511
 30
0.0
 11
161.02895496491129
 21
464.89048764562511
 31
0.0
 12
160.44562163157801
 22
461.39048764562511
 32
0.0
 13
160.44562163157801
 23
461.39048764562511
 33
0.0
  0
SOLID
  5
4D6
  8
BEM
 10
159.86228829824461
 20
562.89048764562506
 30
0.0
 11
161.02895496491129
 21
562.89048764562506
 31
0.0
 12
160.44562163157801
 22
566.39048764562517
 32
0.0
 13
160.44562163157801
 23
566.39048764562517
 33
0.0
  0
INSERT
  5
4D7
  8
BEM
  2
*U51
 10
0.0
 20
0.0
 30
0.0
  0
POINT
  5
4D8
  8
DEFPOINTS
 62
     0
 10
127.5000000000002
 20
461.39048764562523
 30
0.0
  0
POINT
  5
4D9
  8
DEFPOINTS
 62
     0
 10
127.5000000000001
 20
566.39048764562517
 30
0.0
  0
POINT
  5
4DA
  8
DEFPOINTS
 62
     0
 10
160.44562163157801
 20
566.39048764562517
 30
0.0
  0
ENDBLK
  5
36D
  8
0
  0
BLOCK
  8
0
  2
*D19
 70
     1
 10
0.0
 20
0.0
 30
0.0
  3
*D19
  1

  0
LINE
  5
49C
  8
BEM
 10
-127.4999999999999
 20
311.39048764562551
 30
0.0
 11
-163.0614769035956
 21
311.39048764562563
 31
0.0
  0
LINE
  5
49D
  8
BEM
 10
-127.4999999999999
 20
416.39048764562529
 30
0.0
 11
-163.0614769035956
 21
416.3904876456254
 31
0.0
  0
LINE
  5
49E
  8
BEM
 10
-161.0614769035956
 20
314.89048764562563
 30
0.0
 11
-161.06147690359549
 21
412.8904876456254
 31
0.0
  0
SOLID
  5
49F
  8
BEM
 10
-161.64481023692889
 20
314.89048764562563
 30
0.0
 11
-160.4781435702622
 21
314.89048764562563
 31
0.0
 12
-161.0614769035956
 22
311.39048764562563
 32
0.0
 13
-161.0614769035956
 23
311.39048764562563
 33
0.0
  0
SOLID
  5
4A0
  8
BEM
 10
-161.64481023692889
 20
412.8904876456254
 30
0.0
 11
-160.4781435702622
 21
412.8904876456254
 31
0.0
 12
-161.06147690359549
 22
416.3904876456254
 32
0.0
 13
-161.06147690359549
 23
416.3904876456254
 33
0.0
  0
INSERT
  5
4A1
  8
BEM
  2
*U49
 10
0.0
 20
0.0
 30
0.0
  0
POINT
  5
4A2
  8
DEFPOINTS
 62
     0
 10
-127.4999999999999
 20
311.39048764562551
 30
0.0
  0
POINT
  5
4A3
  8
DEFPOINTS
 62
     0
 10
-127.4999999999999
 20
416.39048764562529
 30
0.0
  0
POINT
  5
4A4
  8
DEFPOINTS
 62
     0
 10
-161.06147690359549
 20
416.3904876456254
 30
0.0
  0
ENDBLK
  5
39E
  8
0
  0
BLOCK
  8
0
  2
*D20
 70
     1
 10
0.0
 20
0.0
 30
0.0
  3
*D20
  1

  0
LINE
  5
3A0
  8
BEM
 10
-140.77401385018089
 20
432.72184895581711
 30
0.0
 11
-131.44068051684749
 21
432.72184895581711
 31
0.0
  0
LINE
  5
3A1
  8
BEM
 10
-131.44068051684749
 20
432.72184895581711
 30
0.0
 11
-126.6726975573166
 21
428.85509425729902
 31
0.0
  0
LINE
  5
3A2
  8
BEM
 10
-112.6922740597411
 20
417.51720385262342
 30
0.0
 11
-109.9738583796569
 21
415.31261405171432
 31
0.0
  0
INSERT
  5
3A3
  8
BEM
  2
*U40
 10
0.0
 20
0.0
 30
0.0
  0
LINE
  5
3A4
  8
BEM
 10
-115.4106897398252
 20
419.72179365353247
 30
0.0
 11
-123.9542818772325
 21
426.6505044563898
 31
0.0
  0
SOLID
  5
3A5
  8
BEM
 10
-112.3248424262562
 20
417.97027313263737
 30
0.0
 11
-113.05970569322589
 21
417.0641345726093
 31
0.0
 12
-115.4106897398252
 22
419.72179365353247
 32
0.0
 13
-115.4106897398252
 23
419.72179365353247
 33
0.0
  0
SOLID
  5
3A6
  8
BEM
 10
-126.3052659238317
 20
429.30816353731302
 30
0.0
 11
-127.04012919080149
 21
428.40202497728501
 31
0.0
 12
-123.9542818772325
 22
426.6505044563898
 32
0.0
 13
-123.9542818772325
 23
426.6505044563898
 33
0.0
  0
POINT
  5
3A7
  8
DEFPOINTS
 62
     0
 10
-123.9542818772325
 20
426.6505044563898
 30
0.0
  0
POINT
  5
3A8
  8
DEFPOINTS
 62
     0
 10
-115.4106897398252
 20
419.72179365353247
 30
0.0
  0
ENDBLK
  5
3AA
  8
0
  0
BLOCK
  8
0
  2
*D21
 70
     1
 10
0.0
 20
0.0
 30
0.0
  3
*D21
  1

  0
LINE
  5
3AC
  8
BEM
 10
-143.8009597307184
 20
424.60033101833108
 30
0.0
 11
-136.8009597307184
 21
424.60033101833108
 31
0.0
  0
LINE
  5
3AD
  8
BEM
 10
-136.8009597307184
 20
424.60033101833108
 30
0.0
 11
-133.12284980442911
 21
421.3537083818843
 31
0.0
  0
LINE
  5
3AE
  8
BEM
 10
-121.87715019557081
 20
411.4272669093661
 30
0.0
 11
-119.25315362017049
 21
409.11109723244527
 31
0.0
  0
INSERT
  5
3AF
  8
BEM
  2
*U41
 10
0.0
 20
0.0
 30
0.0
  0
LINE
  5
3B0
  8
BEM
 10
-124.501146770971
 20
413.74343658628709
 30
0.0
 11
-130.49885322902881
 21
419.03753870496342
 31
0.0
  0
SOLID
  5
3B1
  8
BEM
 10
-121.491121916084
 20
411.86459967193292
 30
0.0
 11
-122.2631784750576
 21
410.98993414679938
 31
0.0
 12
-124.501146770971
 22
413.74343658628709
 32
0.0
 13
-124.501146770971
 23
413.74343658628709
 33
0.0
  0
SOLID
  5
3B2
  8
BEM
 10
-132.73682152494229
 20
421.79104114445113
 30
0.0
 11
-133.5088780839159
 21
420.91637561931748
 31
0.0
 12
-130.49885322902881
 22
419.03753870496342
 32
0.0
 13
-130.49885322902881
 23
419.03753870496342
 33
0.0
  0
POINT
  5
3B3
  8
DEFPOINTS
 62
     0
 10
-130.49885322902881
 20
419.03753870496342
 30
0.0
  0
POINT
  5
3B4
  8
DEFPOINTS
 62
     0
 10
-124.501146770971
 20
413.74343658628709
 30
0.0
  0
ENDBLK
  5
3B6
  8
0
  0
BLOCK
  8
0
  2
*D22
 70
     1
 10
0.0
 20
0.0
 30
0.0
  3
*D22
  1

  0
LINE
  5
3E8
  8
BEM
 10
-72.890852755979964
 20
365.8822154611251
 30
0.0
 11
-35.375490613056598
 21
401.30904044949767
 31
0.0
  0
INSERT
  5
3E9
  8
BEM
  2
*U44
 10
0.0
 20
0.0
 30
0.0
  0
SOLID
  5
3EA
  8
BEM
 10
-35.775995011781333
 20
401.73315600495368
 30
0.0
 11
-34.974986214331857
 21
400.88492489404138
 31
0.0
 12
-32.830797280319501
 22
403.71206684184608
 32
0.0
 13
-32.830797280319501
 23
403.71206684184608
 33
0.0
  0
POINT
  5
3EB
  8
DEFPOINTS
 62
     0
 10
-32.830797280319501
 20
403.71206684184608
 30
0.0
  0
POINT
  5
3EC
  8
DEFPOINTS
 62
     0
 10
-117.1692027196805
 20
324.06890844940438
 30
0.0
  0
ENDBLK
  5
3BE
  8
0
  0
BLOCK
  8
0
  2
*D23
 70
     1
 10
0.0
 20
0.0
 30
0.0
  3
*D23
  1

  0
LINE
  5
3C0
  8
BEM
 10
-127.5
 20
311.39048764562563
 30
0.0
 11
-127.5
 21
272.93309627533648
 31
0.0
  0
LINE
  5
3C1
  8
BEM
 10
-22.500000000000099
 20
311.39048764562529
 30
0.0
 11
-22.500000000000099
 21
272.93309627533648
 31
0.0
  0
LINE
  5
3C2
  8
BEM
 10
-124.0
 20
274.93309627533648
 30
0.0
 11
-26.000000000000099
 21
274.93309627533648
 31
0.0
  0
SOLID
  5
3C3
  8
BEM
 10
-124.0
 20
275.5164296086698
 30
0.0
 11
-124.0
 21
274.34976294200322
 31
0.0
 12
-127.5
 22
274.93309627533648
 32
0.0
 13
-127.5
 23
274.93309627533648
 33
0.0
  0
SOLID
  5
3C4
  8
BEM
 10
-26.000000000000099
 20
275.5164296086698
 30
0.0
 11
-26.000000000000099
 21
274.34976294200322
 31
0.0
 12
-22.500000000000099
 22
274.93309627533648
 32
0.0
 13
-22.500000000000099
 23
274.93309627533648
 33
0.0
  0
INSERT
  5
3C5
  8
BEM
  2
*U42
 10
0.0
 20
0.0
 30
0.0
  0
POINT
  5
3C6
  8
DEFPOINTS
 62
     0
 10
-127.5
 20
311.39048764562563
 30
0.0
  0
POINT
  5
3C7
  8
DEFPOINTS
 62
     0
 10
-22.500000000000099
 20
311.39048764562529
 30
0.0
  0
POINT
  5
3C8
  8
DEFPOINTS
 62
     0
 10
-22.500000000000099
 20
274.93309627533648
 30
0.0
  0
ENDBLK
  5
3CA
  8
0
  0
BLOCK
  8
0
  2
*D24
 70
     1
 10
0.0
 20
0.0
 30
0.0
  3
*D24
  1

  0
ARC
  5
3CC
  8
BEM
 10
-74.999999999999829
 20
363.89048764562529
 30
0.0
 40
42.868340143334059
 50
298.63370814336878
 51
307.99999999999989
  0
LINE
  5
3CD
  8
BEM
 10
-54.457135238871729
 20
326.26489404166227
 30
0.0
 11
-60.308476575027747
 21
323.07017198610941
 31
0.0
  0
ARC
  5
3CE
  8
BEM
 10
-74.999999999999829
 20
363.89048764562529
 30
0.0
 40
42.868340143334059
 50
298.64153322626112
 51
303.3207666131305
  0
ARC
  5
3CF
  8
BEM
 10
-74.999999999999829
 20
363.89048764562529
 30
0.0
 40
42.868340143334059
 50
319.67923338686933
 51
324.3584667737386
  0
ARC
  5
3D0
  8
BEM
 10
-74.999999999999829
 20
363.89048764562529
 30
0.0
 40
42.868340143334059
 50
307.99999999999989
 51
314.99999999999989
  0
SOLID
  5
3D1
  8
BEM
 10
-51.791389735807833
 20
328.54329679482453
 30
0.0
 11
-51.111246911769342
 21
327.59539550775918
 31
0.0
 12
-48.607614462592693
 22
330.1097746234073
 32
0.0
 13
-48.607614462592693
 23
330.1097746234073
 33
0.0
  0
SOLID
  5
3D2
  8
BEM
 10
-41.886752628724018
 20
335.7565386527213
 30
0.0
 11
-42.744699843949228
 21
336.54713190275459
 31
0.0
 12
-44.687505986436889
 22
333.57799363206232
 32
0.0
 13
-44.687505986436889
 23
333.57799363206232
 33
0.0
  0
INSERT
  5
3D3
  8
BEM
  2
*U43
 10
0.0
 20
0.0
 30
0.0
  0
POINT
  5
3D4
  8
DEFPOINTS
 62
     0
 10
-45.946754134598841
 20
332.369010977659
 30
0.0
  0
POINT
  5
3D5
  8
DEFPOINTS
 62
     0
 10
-22.50000000000011
 20
311.39048764562529
 30
0.0
  0
POINT
  5
3D6
  8
DEFPOINTS
 62
     0
 10
-74.999999999999829
 20
363.89048764562529
 30
0.0
  0
POINT
  5
3D7
  8
DEFPOINTS
 62
     0
 10
-29.28946756760087
 20
305.38367415568558
 30
0.0
  0
POINT
  5
3D8
  8
DEFPOINTS
 62
     0
 10
-74.999999999999829
 20
363.89048764562529
 30
0.0
  0
ENDBLK
  5
3DA
  8
0
  0
BLOCK
  8
0
  2
*D25
 70
     1
 10
0.0
 20
0.0
 30
0.0
  3
*D25
  1

  0
LINE
  5
3ED
  8
BEM
 10
-83.989204849907111
 20
364.9438027850511
 30
0.0
 11
-145.2654800496374
 21
372.123884831591
 31
0.0
  0
INSERT
  5
3EE
  8
BEM
  2
*U45
 10
0.0
 20
0.0
 30
0.0
  0
SOLID
  5
3EF
  8
BEM
 10
-145.19759210358771
 20
372.7032543203967
 30
0.0
 11
-145.33336799568721
 21
371.54451534278542
 31
0.0
 12
-148.74169698247141
 22
372.53121250788928
 32
0.0
 13
-148.74169698247141
 23
372.53121250788928
 33
0.0
  0
POINT
  5
3F0
  8
DEFPOINTS
 62
     0
 10
-148.74169698247141
 20
372.53121250788928
 30
0.0
  0
POINT
  5
3F1
  8
DEFPOINTS
 62
     0
 10
-1.2583030175283481
 20
355.24976278336158
 30
0.0
  0
ENDBLK
  5
3E2
  8
0
  0
BLOCK
  8
0
  2
*U26
 70
     1
 10
0.0
 20
0.0
 30
0.0
  3
*U26
  1

  0
TEXT
  5
518
  8
BEM
 62
     7
 10
-89.690533072233777
 20
655.31791154658276
 30
0.0
 40
5.0
  1
Empfohlene Lochbilder für Axiallüfter 119 mm
  0
TEXT
  5
519
  8
BEM
 62
     7
 10
-92.607199738900448
 20
646.98457821324951
 30
0.0
 40
5.0
  1
Recommended hole layouts vor Axialfan 119 mm
  0
ENDBLK
  5
51B
  8
0
  0
BLOCK
  8
0
  2
*U27
 70
     1
 10
0.0
 20
0.0
 30
0.0
  3
*U27
  1

  0
TEXT
  5
538
  8
BEM
 62
     7
 10
-96.249999999999915
 20
249.0273875803727
 30
0.0
 40
5.0
  1
Lochbild 3
  0
TEXT
  5
539
  8
BEM
 62
     7
 10
-104.1666666666665
 20
240.69405424703939
 30
0.0
 40
5.0
  1
Hole layout 3
  0
ENDBLK
  5
53B
  8
0
  0
BLOCK
  8
0
  2
*U28
 70
     1
 10
0.0
 20
0.0
 30
0.0
  3
*U28
  1

  0
TEXT
  5
53D
  8
BEM
 62
     7
 10
53.750000000000071
 20
249.0273875803727
 30
0.0
 40
5.0
  1
Lochbild 4
  0
TEXT
  5
53E
  8
BEM
 62
     7
 10
45.833333333333407
 20
240.69405424703939
 30
0.0
 40
5.0
  1
Hole layout 4
  0
ENDBLK
  5
540
  8
0
  0
BLOCK
  8
0
  2
*U29
 70
     1
 10
0.0
 20
0.0
 30
0.0
  3
*U29
  1

  0
TEXT
  5
542
  8
BEM
 62
     7
 10
-95.416666666666572
 20
625.67277274239996
 30
0.0
 40
5.0
  1
Lochbild 1
  0
TEXT
  5
543
  8
BEM
 62
     7
 10
-103.3333333333332
 20
617.33943940906659
 30
0.0
 40
5.0
  1
Hole layout 1
  0
ENDBLK
  5
545
  8
0
  0
BLOCK
  8
0
  2
*U30
 70
     1
 10
0.0
 20
0.0
 30
0.0
  3
*U30
  1

  0
TEXT
  5
547
  8
BEM
 62
     7
 10
-80.249999999999886
 20
600.33090568545595
 30
0.0
 40
3.5
  1
105
  7
ROMANS
  0
ENDBLK
  5
549
  8
0
  0
BLOCK
  8
0
  2
*U31
 70
     1
 10
0.0
 20
0.0
 30
0.0
  3
*U31
  1

  0
TEXT
  5
554
  8
BEM
 62
     7
 10
-73.072490098931127
 20
517.77380711546186
 30
0.0
 40
3.5
  1
\U+2205116
 50
43.359911000946511
  7
ROMANS
  0
ENDBLK
  5
556
  8
0
  0
BLOCK
  8
0
  2
*U32
 70
     1
 10
0.0
 20
0.0
 30
0.0
  3
*U32
  1

  0
TEXT
  5
558
  8
BEM
 62
     7
 10
-162.5614769035956
 20
508.6404876456254
 30
0.0
 40
3.5
  1
105
 50
90.0
  7
ROMANS
  0
ENDBLK
  5
55A
  8
0
  0
BLOCK
  8
0
  2
*U33
 70
     1
 10
0.0
 20
0.0
 30
0.0
  3
*U33
  1

  0
TEXT
  5
55C
  8
BEM
 62
     7
 10
53.750000000000071
 20
625.67277274239996
 30
0.0
 40
5.0
  1
Lochbild 2
  0
TEXT
  5
55D
  8
BEM
 62
     7
 10
45.833333333333407
 20
617.33943940906659
 30
0.0
 40
5.0
  1
Hole layout 2
  0
ENDBLK
  5
55F
  8
0
  0
BLOCK
  8
0
  2
*U34
 70
     1
 10
0.0
 20
0.0
 30
0.0
  3
*U34
  1

  0
TEXT
  5
561
  8
BEM
 62
     7
 10
-41.875678519977043
 20
579.91848428229014
 30
0.0
 40
3.5
  1
\U+22058.5
 50
328.71680985795672
  7
ROMANS
  0
ENDBLK
  5
563
  8
0
  0
BLOCK
  8
0
  2
*U35
 70
     1
 10
0.0
 20
0.0
 30
0.0
  3
*U35
  1

  0
TEXT
  5
565
  8
BEM
 62
     7
 10
-114.9166666666665
 20
446.35977793775339
 30
0.0
 40
3.5
  1
Fase / Chamfer 0.5
  7
ROMANS
  0
TEXT
  5
566
  8
BEM
 62
     7
 10
-58.416666666666593
 20
446.35977793775339
 30
0.0
 40
3.5
  1
x45° (4x)
  7
ROMANS
  0
ENDBLK
  5
568
  8
0
  0
BLOCK
  8
0
  2
*U36
 70
     1
 10
0.0
 20
0.0
 30
0.0
  3
*U36
  1

  0
TEXT
  5
5BA
  8
BEM
 62
     7
 10
114.6428934121456
 20
580.04722010004571
 30
0.0
 40
3.5
  1
\U+22058
 50
317.85948896228268
  7
ROMANS
  0
ENDBLK
  5
5BC
  8
0
  0
BLOCK
  8
0
  2
*U37
 70
     1
 10
0.0
 20
0.0
 30
0.0
  3
*U37
  1

  0
TEXT
  5
5BE
  8
BEM
 62
     7
 10
40.89676413722497
 20
542.33686925890811
 30
0.0
 40
3.5
  1
45°
 50
44.999999999999872
  7
ROMANS
  0
ENDBLK
  5
5C0
  8
0
  0
BLOCK
  8
0
  2
*U38
 70
     1
 10
0.0
 20
0.0
 30
0.0
  3
*U38
  1

  0
TEXT
  5
5C2
  8
BEM
 62
     7
 10
83.211795895407192
 20
520.33636255855322
 30
0.0
 40
3.5
  1
\U+2205116
 50
29.86910173937699
  7
ROMANS
  0
ENDBLK
  5
5C4
  8
0
  0
BLOCK
  8
0
  2
*U39
 70
     1
 10
0.0
 20
0.0
 30
0.0
  3
*U39
  1

  0
TEXT
  5
5C6
  8
BEM
 62
     7
 10
69.750000000000043
 20
600.33090568545595
 30
0.0
 40
3.5
  1
105
  7
ROMANS
  0
ENDBLK
  5
5C8
  8
0
  0
BLOCK
  8
0
  2
*U40
 70
     1
 10
0.0
 20
0.0
 30
0.0
  3
*U40
  1

  0
TEXT
  5
5CA
  8
BEM
 62
     7
 10
-141.10734718351421
 20
434.22184895581699
 30
0.0
 40
3.5
  1
\U+2205
  7
ROMANS
  0
TEXT
  5
5CB
  8
BEM
 62
     7
 10
-137.94068051684761
 20
434.22184895581699
 30
0.0
 40
3.5
  1
11
  7
ROMANS
  0
ENDBLK
  5
5CD
  8
0
  0
BLOCK
  8
0
  2
*U41
 70
     1
 10
0.0
 20
0.0
 30
0.0
  3
*U41
  1

  0
TEXT
  5
5CF
  8
BEM
 62
     7
 10
-144.1342930640518
 20
426.10033101833102
 30
0.0
 40
3.5
  1
\U+2205
  7
ROMANS
  0
TEXT
  5
5D0
  8
BEM
 62
     7
 10
-140.96762639738509
 20
426.10033101833102
 30
0.0
 40
3.5
  1
8
  7
ROMANS
  0
ENDBLK
  5
5D2
  8
0
  0
BLOCK
  8
0
  2
*U42
 70
     1
 10
0.0
 20
0.0
 30
0.0
  3
*U42
  1

  0
TEXT
  5
5D4
  8
BEM
 62
     7
 10
-80.250000000000057
 20
276.4330962753366
 30
0.0
 40
3.5
  1
105
  7
ROMANS
  0
ENDBLK
  5
5D6
  8
0
  0
BLOCK
  8
0
  2
*U43
 70
     1
 10
0.0
 20
0.0
 30
0.0
  3
*U43
  1

  0
TEXT
  5
5D8
  8
BEM
 62
     7
 10
-60.149587837103738
 20
324.86593209507748
 30
0.0
 40
3.5
  1
7°
 50
28.633708143368811
  7
ROMANS
  0
ENDBLK
  5
5DA
  8
0
  0
BLOCK
  8
0
  2
*U44
 70
     1
 10
0.0
 20
0.0
 30
0.0
  3
*U44
  1

  0
TEXT
  5
5DC
  8
BEM
 62
     7
 10
-73.07249009893124
 20
367.77380711546192
 30
0.0
 40
3.5
  1
\U+2205116
 50
43.35991100094656
  7
ROMANS
  0
ENDBLK
  5
5DE
  8
0
  0
BLOCK
  8
0
  2
*U45
 70
     1
 10
0.0
 20
0.0
 30
0.0
  3
*U45
  1

  0
TEXT
  5
5E0
  8
BEM
 62
     7
 10
-105.8306764203943
 20
369.01335199186889
 30
0.0
 40
3.5
  1
\U+2205148.49
 50
353.31681056601832
  7
ROMANS
  0
ENDBLK
  5
5E2
  8
0
  0
BLOCK
  8
0
  2
*U46
 70
     1
 10
0.0
 20
0.0
 30
0.0
  3
*U46
  1

  0
TEXT
  5
5E4
  8
BEM
 62
     7
 10
1.5155087139973451
 20
433.68858579368998
 30
0.0
 40
3.5
  1
\U+220511
 50
344.69433159735479
  7
ROMANS
  0
ENDBLK
  5
5E6
  8
0
  0
BLOCK
  8
0
  2
*U47
 70
     1
 10
0.0
 20
0.0
 30
0.0
  3
*U47
  1

  0
TEXT
  5
5E8
  8
BEM
 62
     7
 10
-0.7270959607993075
 20
421.22454208339587
 30
0.0
 40
3.5
  1
\U+22058
 50
351.86829489808309
  7
ROMANS
  0
ENDBLK
  5
5EA
  8
0
  0
BLOCK
  8
0
  2
*U48
 70
     1
 10
0.0
 20
0.0
 30
0.0
  3
*U48
  1

  0
TEXT
  5
5EC
  8
BEM
 62
     7
 10
76.927509901068575
 20
367.77380711546169
 30
0.0
 40
3.5
  1
\U+2205116
 50
43.359911000946511
  7
ROMANS
  0
ENDBLK
  5
5EE
  8
0
  0
BLOCK
  8
0
  2
*U49
 70
     1
 10
0.0
 20
0.0
 30
0.0
  3
*U49
  1

  0
TEXT
  5
5F0
  8
BEM
 62
     7
 10
-162.5614769035956
 20
358.64048764562551
 30
0.0
 40
3.5
  1
105
 50
90.0
  7
ROMANS
  0
ENDBLK
  5
5F2
  8
0
  0
BLOCK
  8
0
  2
*U50
 70
     1
 10
0.0
 20
0.0
 30
0.0
  3
*U50
  1

  0
TEXT
  5
5F4
  8
BEM
 62
     7
 10
69.750000000000085
 20
276.4330962753366
 30
0.0
 40
3.5
  1
105
  7
ROMANS
  0
ENDBLK
  5
5F6
  8
0
  0
BLOCK
  8
0
  2
*U51
 70
     1
 10
0.0
 20
0.0
 30
0.0
  3
*U51
  1

  0
TEXT
  5
5F8
  8
BEM
 62
     7
 10
158.94562163157789
 20
508.64048764562511
 30
0.0
 40
3.5
  1
105
 50
90.0
  7
ROMANS
  0
ENDBLK
  5
5FA
  8
0
  0
BLOCK
  8
0
  2
*U52
 70
     1
 10
0.0
 20
0.0
 30
0.0
  3
*U52
  1

  0
TEXT
  5
5FC
  8
BEM
 62
     7
 10
158.94562163157789
 20
433.89048764562523
 30
0.0
 40
3.5
  1
9.5
 50
90.0
  7
ROMANS
  0
ENDBLK
  5
5FE
  8
0
  0
BLOCK
  8
0
  2
*U53
 70
     1
 10
0.0
 20
0.0
 30
0.0
  3
*U53
  1

  0
TEXT
  5
600
  8
BEM
 62
     7
 10
158.94562163157789
 20
358.64048764562529
 30
0.0
 40
3.5
  1
105
 50
90.0
  7
ROMANS
  0
ENDBLK
  5
602
  8
0
  0
ENDSEC
  0
SECTION
  2
ENTITIES
  0
INSERT
  5
27
  8
BEM
  2
*U26
 10
0.0
 20
0.0
 30
0.0
  0
DIMENSION
  5
28
  8
BEM
  2
*D13
 10
127.5000000000001
 20
274.93309627533648
 30
0.0
 11
75.000000000000085
 21
278.18309627533648
 31
0.0
 70
     0
 13
22.500000000000082
 23
311.3904876456254
 33
0.0
 14
127.5000000000001
 24
311.3904876456254
 34
0.0
  0
LINE
  5
36
  8
SYM1
 10
-14.0000014853932
 20
363.8904876456254
 30
0.0
 11
-135.9999985146066
 21
363.8904876456254
 31
0.0
  0
LINE
  5
39
  8
SYM1
 10
135.9999985146068
 20
363.8904876456254
 30
0.0
 11
14.000001485393341
 21
363.8904876456254
 31
0.0
  0
DIMENSION
  5
3A
  8
BEM
  2
*D25
 10
-1.2583030175283481
 20
355.24976278336158
 30
0.0
 11
-95.576594626020295
 21
366.30156170604528
 31
0.0
 70
   131
 15
-148.74169698247141
 25
372.53121250788928
 35
0.0
 40
0.0
1001
ACAD
1000
DSTYLE
1002
{
1070
   288
1070
     1
1002
}
  0
CIRCLE
  5
45
  8
SYM1
 10
-74.999999999999915
 20
363.8904876456254
 30
0.0
 40
74.246212024587422
  0
DIMENSION
  5
46
  8
BEM
  2
*D24
 10
-74.999999999999815
 20
363.89048764562529
 30
0.0
 11
-58.940232909031813
 21
327.52006191526192
 31
0.0
 70
     2
 13
-74.999999999999815
 23
363.89048764562529
 33
0.0
 14
-29.289467567600841
 24
305.38367415568558
 34
0.0
 15
-22.500000000000099
 25
311.39048764562529
 35
0.0
 16
-45.946754134598841
 26
332.369010977659
 36
0.0
  0
LINE
  5
59
  8
BEM
 10
-74.999999999999815
 20
363.89048764562529
 30
0.0
 11
-29.289467567600841
 21
305.38367415568558
 31
0.0
  0
LINE
  5
5A
  8
BEM
 10
-22.50000000000011
 20
311.39048764562529
 30
0.0
 11
-74.999999999999815
 21
363.89048764562529
 31
0.0
  0
DIMENSION
  5
5B
  8
BEM
  2
*D23
 10
-22.500000000000099
 20
274.93309627533648
 30
0.0
 11
-75.000000000000057
 21
278.18309627533648
 31
0.0
 70
     0
 13
-127.5
 23
311.39048764562563
 33
0.0
 14
-22.500000000000099
 24
311.39048764562529
 34
0.0
  0
POLYLINE
  5
68
  8
VER1
 66
     1
 10
0.0
 20
0.0
 30
0.0
 70
     1
  0
VERTEX
  5
51C
  8
VER1
 10
-132.99999999999989
 20
387.17674969001541
 30
0.0
  0
VERTEX
  5
51D
  8
VER1
 10
-132.99999999999989
 20
340.60422560123538
 30
0.0
 42
0.204590056334762
  0
VERTEX
  5
51E
  8
VER1
 10
-98.286262044389929
 20
305.8904876456254
 30
0.0
  0
VERTEX
  5
51F
  8
VER1
 10
-51.713737955609901
 20
305.8904876456254
 30
0.0
 42
0.2045900563347621
  0
VERTEX
  5
520
  8
VER1
 10
-16.999999999999911
 20
340.60422560123538
 30
0.0
  0
VERTEX
  5
521
  8
VER1
 10
-16.999999999999911
 20
387.17674969001541
 30
0.0
 42
0.2045900563347621
  0
VERTEX
  5
522
  8
VER1
 10
-51.713737955609901
 20
421.8904876456254
 30
0.0
  0
VERTEX
  5
523
  8
VER1
 10
-98.286262044389929
 20
421.8904876456254
 30
0.0
 42
0.2045900563347621
  0
SEQEND
  5
524
  8
VER1
  0
DIMENSION
  5
6B
  8
BEM
  2
*D22
 10
-117.1692027196805
 20
324.06890844940438
 30
0.0
 11
-67.377350535049572
 21
371.08877264454668
 31
0.0
 70
   131
 15
-32.830797280319501
 25
403.71206684184608
 35
0.0
 40
0.0
1001
ACAD
1000
DSTYLE
1002
{
1070
   288
1070
     1
1002
}
  0
CIRCLE
  5
76
  8
0
 10
-74.999999999999915
 20
363.8904876456254
 30
0.0
 40
57.99999851460673
  0
CIRCLE
  5
77
  8
0
 10
75.000000000000057
 20
363.8904876456254
 30
0.0
 40
57.99999851460673
  0
DIMENSION
  5
78
  8
BEM
  2
*D12
 10
32.830797280319423
 20
324.06890844940449
 30
0.0
 11
82.622649464950257
 21
371.08877264454662
 31
0.0
 70
   131
 15
117.1692027196805
 25
403.71206684184608
 35
0.0
 40
0.0
1001
ACAD
1000
DSTYLE
1002
{
1070
   288
1070
     1
1002
}
  0
POLYLINE
  5
83
  8
VER1
 66
     1
 10
0.0
 20
0.0
 30
0.0
 70
     1
  0
VERTEX
  5
525
  8
VER1
 10
17.000000000000082
 20
387.17674969001541
 30
0.0
  0
VERTEX
  5
526
  8
VER1
 10
17.000000000000082
 20
340.60422560123538
 30
0.0
 42
0.204590056334762
  0
VERTEX
  5
527
  8
VER1
 10
51.713737955610071
 20
305.8904876456254
 30
0.0
  0
VERTEX
  5
528
  8
VER1
 10
98.286262044390114
 20
305.8904876456254
 30
0.0
 42
0.2045900563347621
  0
VERTEX
  5
529
  8
VER1
 10
133.00000000000011
 20
340.60422560123538
 30
0.0
  0
VERTEX
  5
52A
  8
VER1
 10
133.00000000000011
 20
387.17674969001541
 30
0.0
 42
0.2045900563347621
  0
VERTEX
  5
52B
  8
VER1
 10
98.286262044390114
 20
421.8904876456254
 30
0.0
  0
VERTEX
  5
52C
  8
VER1
 10
51.713737955610071
 20
421.8904876456254
 30
0.0
 42
0.2045900563347621
  0
SEQEND
  5
52D
  8
VER1
  0
DIMENSION
  5
86
  8
BEM
  2
*D18
 10
160.44562163157801
 20
566.39048764562517
 30
0.0
 11
157.19562163157789
 21
513.89048764562506
 31
0.0
 70
     0
 13
127.5000000000002
 23
461.39048764562523
 33
0.0
 14
127.5000000000001
 24
566.39048764562517
 34
0.0
 50
90.0
  0
LINE
  5
93
  8
SYM1
 10
75.000000000000128
 20
574.89048616023183
 30
0.0
 11
75.000000000000114
 21
452.89048913101828
 31
0.0
  0
LINE
  5
94
  8
SYM1
 10
-74.999999999999915
 20
424.89048616023211
 30
0.0
 11
-74.999999999999943
 21
302.89048913101868
 31
0.0
  0
POLYLINE
  5
95
  8
VER1
 66
     1
 10
0.0
 20
0.0
 30
0.0
 70
     1
  0
VERTEX
  5
52E
  8
VER1
 10
17.000000000000171
 20
537.1767496900153
 30
0.0
  0
VERTEX
  5
52F
  8
VER1
 10
17.000000000000171
 20
490.60422560123521
 30
0.0
 42
0.204590056334762
  0
VERTEX
  5
530
  8
VER1
 10
51.713737955610164
 20
455.89048764562523
 30
0.0
  0
VERTEX
  5
531
  8
VER1
 10
98.286262044390185
 20
455.89048764562523
 30
0.0
 42
0.2045900563347621
  0
VERTEX
  5
532
  8
VER1
 10
133.00000000000011
 20
490.60422560123521
 30
0.0
  0
VERTEX
  5
533
  8
VER1
 10
133.00000000000011
 20
537.1767496900153
 30
0.0
 42
0.2045900563347621
  0
VERTEX
  5
534
  8
VER1
 10
98.286262044390185
 20
571.89048764562517
 30
0.0
  0
VERTEX
  5
535
  8
VER1
 10
51.713737955610164
 20
571.89048764562517
 30
0.0
 42
0.2045900563347621
  0
SEQEND
  5
536
  8
VER1
  0
INSERT
  5
96
  8
BEM
  2
*U27
 10
0.0
 20
0.0
 30
0.0
  0
DIMENSION
  5
97
  8
BEM
  2
*D17
 10
127.5000000000001
 20
598.83090568545606
 30
0.0
 11
75.000000000000043
 21
602.08090568545595
 31
0.0
 70
     0
 13
22.49999999999995
 23
566.39048764562494
 33
0.0
 14
127.5000000000001
 24
566.39048764562517
 34
0.0
  0
INSERT
  5
BA
  8
BEM
  2
*U28
 10
0.0
 20
0.0
 30
0.0
  0
INSERT
  5
BB
  8
BEM
  2
*U29
 10
0.0
 20
0.0
 30
0.0
  0
DIMENSION
  5
BC
  8
BEM
  2
*D3
 10
-122.7499999999999
 20
443.35977793775328
 30
0.0
 11
-73.999999999999901
 21
447.52644460442002
 31
0.0
 70
     0
  1
Fase / Chamfer <>x45° (4x)
 13
-123.2499999999999
 23
461.3904876456254
 33
0.0
 14
-122.7499999999999
 24
461.3904876456254
 34
0.0
1001
ACAD
1000
DSTYLE
1002
{
1070
     3
1000
<>\C7;\H3.5;
1070
    47
1040
0.0
1070
    48
1040
0.0
1070
    71
1070
     0
1070
    72
1070
     0
1070
    74
1070
     0
1002
}
  0
DIMENSION
  5
CD
  8
BEM
  2
*D16
 10
24.70440544723613
 20
485.00531850507201
 30
0.0
 11
89.523137759761596
 21
522.23124381666901
 31
0.0
 70
   131
 15
125.2955945527642
 25
542.77565678617896
 35
0.0
 40
0.0
1001
ACAD
1000
DSTYLE
1002
{
1070
   288
1070
     1
1002
}
  0
DIMENSION
  5
D6
  8
BEM
  2
*D1
 10
-22.499999999999911
 20
598.83090568545606
 30
0.0
 11
-74.999999999999901
 21
602.08090568545595
 31
0.0
 13
-127.4999999999999
 23
566.39048764562529
 33
0.0
 14
-22.499999999999918
 24
566.39048764562529
 34
0.0
  0
LINE
  5
E5
  8
SYM1
 10
135.9999985146068
 20
513.89048764562494
 30
0.0
 11
14.000001485393399
 21
513.89048764562494
 31
0.0
  0
LINE
  5
E6
  8
SYM1
 10
-14.00000148539317
 20
513.8904876456254
 30
0.0
 11
-135.9999985146066
 21
513.8904876456254
 31
0.0
  0
POLYLINE
  5
E7
  8
VER1
 66
     1
 10
0.0
 20
0.0
 30
0.0
 70
     1
  0
VERTEX
  5
54A
  8
VER1
 10
-132.99999999999989
 20
537.17674969001541
 30
0.0
  0
VERTEX
  5
54B
  8
VER1
 10
-132.99999999999989
 20
490.60422560123533
 30
0.0
 42
0.204590056334762
  0
VERTEX
  5
54C
  8
VER1
 10
-98.2862620443899
 20
455.8904876456254
 30
0.0
  0
VERTEX
  5
54D
  8
VER1
 10
-51.713737955609872
 20
455.8904876456254
 30
0.0
 42
0.2045900563347621
  0
VERTEX
  5
54E
  8
VER1
 10
-16.999999999999879
 20
490.60422560123533
 30
0.0
  0
VERTEX
  5
54F
  8
VER1
 10
-16.999999999999879
 20
537.17674969001541
 30
0.0
 42
0.2045900563347621
  0
VERTEX
  5
550
  8
VER1
 10
-51.713737955609872
 20
571.8904876456254
 30
0.0
  0
VERTEX
  5
551
  8
VER1
 10
-98.2862620443899
 20
571.8904876456254
 30
0.0
 42
0.2045900563347621
  0
SEQEND
  5
552
  8
VER1
  0
DIMENSION
  5
E8
  8
BEM
  2
*D0
 10
-117.1692027196805
 20
474.0689084494046
 30
0.0
 11
-67.377350535049473
 21
521.08877264454691
 31
0.0
 70
   131
 15
-32.830797280319473
 25
553.71206684184631
 35
0.0
 40
0.0
1001
ACAD
1000
DSTYLE
1002
{
1070
   288
1070
     1
1002
}
  0
CIRCLE
  5
F3
  8
0
 10
-74.999999999999901
 20
513.8904876456254
 30
0.0
 40
57.99999851460673
  0
DIMENSION
  5
F4
  8
BEM
  2
*D2
 10
-161.06147690359549
 20
566.39048764562529
 30
0.0
 11
-164.3114769035956
 21
513.8904876456254
 31
0.0
 13
-127.4999999999999
 23
461.3904876456254
 33
0.0
 14
-127.4999999999999
 24
566.39048764562529
 34
0.0
 50
90.0
  0
DIMENSION
  5
103
  8
BEM
  2
*D15
 10
29.400014613543881
 20
549.73237878503517
 30
0.0
 11
42.48775439489475
 21
546.40273325073065
 31
0.0
 70
     2
 13
39.158108860589742
 23
559.49047303208147
 33
0.0
 14
26.195518130045219
 24
564.85975391616489
 34
0.0
 15
24.030733729460461
 25
562.69496951558006
 35
0.0
 16
41.686305557303342
 26
541.38640743226335
 36
0.0
  0
CIRCLE
  5
112
  8
0
 10
-127.4999999999999
 20
461.3904876456254
 30
0.0
 40
4.75
  0
CIRCLE
  5
113
  8
0
 10
-127.4999999999999
 20
461.3904876456254
 30
0.0
 40
4.25
  0
CIRCLE
  5
114
  8
0
 10
-127.4999999999999
 20
566.39048764562529
 30
0.0
 40
4.75
  0
CIRCLE
  5
115
  8
0
 10
-127.4999999999999
 20
566.39048764562529
 30
0.0
 40
4.25
  0
LINE
  5
116
  8
SYM1
 10
75.000000000000057
 20
424.89048616023211
 30
0.0
 11
75.000000000000057
 21
302.89048913101868
 31
0.0
  0
LINE
  5
117
  8
SYM1
 10
-74.999999999999901
 20
574.89048616023206
 30
0.0
 11
-74.999999999999915
 21
452.89048913101868
 31
0.0
  0
DIMENSION
  5
123
  8
BEM
  2
*D21
 10
-124.501146770971
 20
413.74343658628709
 30
0.0
 11
-141.0509597307184
 21
424.60033101833108
 31
0.0
 70
   131
  1
<>
 15
-130.49885322902881
 25
419.03753870496342
 35
0.0
 40
0.0
1001
ACAD
1000
DSTYLE
1002
{
1070
     3
1000
%%c<>\C7;\H3.5;
1070
    47
1040
0.0
1070
    48
1040
0.0
1070
    71
1070
     0
1070
    72
1070
     0
1070
    74
1070
     1
1070
   288
1070
     1
1002
}
  0
DIMENSION
  5
130
  8
BEM
  2
*D20
 10
-115.4106897398252
 20
419.72179365353247
 30
0.0
 11
-136.85734718351421
 21
432.72184895581711
 31
0.0
 70
   131
  1
<>
 15
-123.9542818772325
 25
426.6505044563898
 35
0.0
 40
0.0
1001
ACAD
1000
DSTYLE
1002
{
1070
     3
1000
%%c<>\C7;\H3.5;
1070
    47
1040
0.0
1070
    48
1040
0.0
1070
    71
1070
     0
1070
    72
1070
     0
1070
    74
1070
     1
1070
   288
1070
     1
1002
}
  0
DIMENSION
  5
13D
  8
BEM
  2
*D14
 10
130.4660065189791
 20
563.70668338126916
 30
0.0
 11
115.922763504725
 21
576.86620186832101
 31
0.0
 70
   131
 15
124.5339934810214
 25
569.07429190998084
 35
0.0
 40
0.0
1001
ACAD
1000
DSTYLE
1002
{
1070
   288
1070
     1
1002
}
  0
CIRCLE
  5
149
  8
0
 10
-22.499999999999918
 20
461.3904876456254
 30
0.0
 40
4.75
  0
CIRCLE
  5
14A
  8
0
 10
-22.499999999999918
 20
461.3904876456254
 30
0.0
 40
4.25
  0
DIMENSION
  5
14D
  8
BEM
  2
*D11
 10
26.459782149049548
 20
415.82469145257539
 30
0.0
 11
2.113062540032693
 21
419.3034892120267
 31
0.0
 70
   131
 15
18.540217850950668
 25
416.95628383867472
 35
0.0
 40
0.0
1001
ACAD
1000
DSTYLE
1002
{
1070
   288
1070
     1
1002
}
  0
DIMENSION
  5
159
  8
BEM
  2
*D10
 10
27.80492219494889
 20
424.93866103561362
 30
0.0
 11
6.0767116041889153
 21
434.25464956616452
 31
0.0
 70
     3
 15
17.195077805051309
 25
427.8423142556374
 35
0.0
 40
0.0
1001
ACAD
1000
DSTYLE
1002
{
1070
   288
1070
     1
1002
}
  0
DIMENSION
  5
165
  8
BEM
  2
*D4
 10
-18.867902341769511
 20
564.18359693671459
 30
0.0
 11
-36.195379539809039
 21
578.51480532789435
 31
0.0
 70
     3
 15
-26.132097658230428
 25
568.5973783545362
 35
0.0
 40
0.0
1001
ACAD
1000
DSTYLE
1002
{
1070
   288
1070
     1
1002
}
  0
CIRCLE
  5
173
  8
0
 10
-22.499999999999918
 20
566.39048764562529
 30
0.0
 40
4.75
  0
CIRCLE
  5
174
  8
0
 10
-22.499999999999918
 20
566.39048764562529
 30
0.0
 40
4.25
  0
INSERT
  5
176
  8
BEM
  2
*U33
 10
0.0
 20
0.0
 30
0.0
  0
DIMENSION
  5
178
  8
BEM
  2
*D19
 10
-161.06147690359549
 20
416.3904876456254
 30
0.0
 11
-164.3114769035956
 21
363.89048764562551
 31
0.0
 70
     0
 13
-127.4999999999999
 23
311.39048764562551
 33
0.0
 14
-127.4999999999999
 24
416.39048764562529
 34
0.0
 50
90.0
  0
DIMENSION
  5
185
  8
BEM
  2
*D9
 10
160.44562163157801
 20
416.39048764562523
 30
0.0
 11
157.19562163157789
 21
363.89048764562529
 31
0.0
 70
     0
 13
127.5
 23
311.3904876456254
 33
0.0
 14
127.5
 24
416.39048764562523
 34
0.0
 50
90.0
  0
DIMENSION
  5
1A3
  8
BEM
  2
*D8
 10
160.44562163157801
 20
425.89048764562523
 30
0.0
 11
157.19562163157789
 21
438.05715431229191
 31
0.0
 70
     0
 13
127.5
 23
416.39048764562523
 33
0.0
 14
127.5
 24
425.89048764562523
 34
0.0
 50
90.0
  0
POLYLINE
  5
23C
  8
0
 66
     1
 10
0.0
 20
0.0
 30
0.0
 70
     1
  0
VERTEX
  5
569
  8
0
 10
25.059778383759241
 20
419.46417185615172
 30
0.0
 42
-0.5245818073032471
  0
VERTEX
  5
56A
  8
0
 10
25.207457905899219
 20
421.10303825291288
 30
0.0
 42
3.7996710383927339
  0
VERTEX
  5
56B
  8
0
 10
19.792542094100948
 20
421.10303825291288
 30
0.0
 42
-0.5245818073032476
  0
VERTEX
  5
56C
  8
0
 10
19.94022161624093
 20
419.46417185615172
 30
0.0
 42
2.7633971188311501
  0
SEQEND
  5
56D
  8
0
  0
POLYLINE
  5
245
  8
0
 66
     1
 10
0.0
 20
0.0
 30
0.0
 70
     1
  0
VERTEX
  5
56E
  8
0
 10
130.05977838375921
 20
419.46417185615172
 30
0.0
 42
-0.5245818073032471
  0
VERTEX
  5
56F
  8
0
 10
130.20745790589919
 20
421.10303825291288
 30
0.0
 42
3.7996710383927339
  0
VERTEX
  5
570
  8
0
 10
124.7925420941009
 20
421.10303825291288
 30
0.0
 42
-0.5245818073032476
  0
VERTEX
  5
571
  8
0
 10
124.9402216162409
 20
419.46417185615172
 30
0.0
 42
2.7633971188311501
  0
SEQEND
  5
572
  8
0
  0
POLYLINE
  5
246
  8
0
 66
     1
 10
0.0
 20
0.0
 30
0.0
 70
     1
  0
VERTEX
  5
573
  8
0
 10
25.059778383759241
 20
314.46417185615178
 30
0.0
 42
-0.5245818073032471
  0
VERTEX
  5
574
  8
0
 10
25.207457905899219
 20
316.10303825291288
 30
0.0
 42
3.7996710383927339
  0
VERTEX
  5
575
  8
0
 10
19.792542094100948
 20
316.10303825291288
 30
0.0
 42
-0.5245818073032476
  0
VERTEX
  5
576
  8
0
 10
19.94022161624093
 20
314.46417185615178
 30
0.0
 42
2.7633971188311501
  0
SEQEND
  5
577
  8
0
  0
POLYLINE
  5
247
  8
0
 66
     1
 10
0.0
 20
0.0
 30
0.0
 70
     1
  0
VERTEX
  5
578
  8
0
 10
130.05977838375921
 20
314.46417185615178
 30
0.0
 42
-0.5245818073032471
  0
VERTEX
  5
579
  8
0
 10
130.20745790589919
 20
316.10303825291288
 30
0.0
 42
3.7996710383927339
  0
VERTEX
  5
57A
  8
0
 10
124.7925420941009
 20
316.10303825291288
 30
0.0
 42
-0.5245818073032476
  0
VERTEX
  5
57B
  8
0
 10
124.9402216162409
 20
314.46417185615178
 30
0.0
 42
2.7633971188311501
  0
SEQEND
  5
57C
  8
0
  0
DIMENSION
  5
248
  8
BEM
  2
*D5
 10
19.30027702030112
 20
315.23259290878337
 30
0.0
 11
8.4211773299495718
 21
312.31045954900293
 31
0.0
 70
   132
 15
20.266045376463978
 25
315.49199892689961
 35
0.0
 40
0.0
1001
ACAD
1000
DSTYLE
1002
{
1070
   287
1070
     4
1070
   279
1070
     1
1070
   288
1070
     1
1002
}
  0
POLYLINE
  5
280
  8
0
 66
     1
 10
0.0
 20
0.0
 30
0.0
 70
     1
  0
VERTEX
  5
582
  8
0
 10
125.6252417153774
 20
465.91655452253252
 30
0.0
  0
VERTEX
  5
583
  8
0
 10
120.5999853864564
 20
478.04859650621472
 30
0.0
 42
0.3459642539485257
  0
VERTEX
  5
584
  8
0
 10
120.59998538645659
 20
549.73237878503585
 30
0.0
  0
VERTEX
  5
585
  8
0
 10
125.6252417153773
 20
561.86442076871765
 30
0.0
 42
-0.3563939586926212
  0
VERTEX
  5
586
  8
0
 10
126.73929699831091
 20
562.46348739820723
 30
0.0
 42
3.2670835034688648
  0
VERTEX
  5
587
  8
0
 10
123.57299975258221
 20
565.62978464393598
 30
0.0
 42
-0.3563939586925903
  0
VERTEX
  5
588
  8
0
 10
122.97393312309271
 20
564.51572936100251
 30
0.0
  0
VERTEX
  5
589
  8
0
 10
110.84189113941061
 20
559.49047303208147
 30
0.0
 42
0.3459642539485245
  0
VERTEX
  5
58A
  8
0
 10
39.158108860589742
 20
559.49047303208147
 30
0.0
  0
VERTEX
  5
58B
  8
0
 10
27.026066876907489
 20
564.51572936100251
 30
0.0
 42
-0.3563939586925926
  0
VERTEX
  5
58C
  8
0
 10
26.427000247418061
 20
565.62978464393598
 30
0.0
 42
3.2670835034687902
  0
VERTEX
  5
58D
  8
0
 10
23.26070300168924
 20
562.46348739820712
 30
0.0
 42
-0.3563939586925928
  0
VERTEX
  5
58E
  8
0
 10
24.3747582846228
 20
561.86442076871765
 30
0.0
  0
VERTEX
  5
58F
  8
0
 10
29.400014613543881
 20
549.73237878503517
 30
0.0
 42
0.3459642539485242
  0
VERTEX
  5
590
  8
0
 10
29.40001461354381
 20
478.04859650621478
 30
0.0
  0
VERTEX
  5
591
  8
0
 10
24.37475828462285
 20
465.91655452253258
 30
0.0
 42
-0.3563939586926076
  0
VERTEX
  5
592
  8
0
 10
23.260703001689251
 20
465.31748789304322
 30
0.0
 42
3.2670835034688261
  0
VERTEX
  5
593
  8
0
 10
26.427000247418061
 20
462.15119064731431
 30
0.0
 42
-0.3563939586926041
  0
VERTEX
  5
594
  8
0
 10
27.026066876907489
 20
463.26524593024777
 30
0.0
  0
VERTEX
  5
595
  8
0
 10
39.15810886058982
 20
468.29050225916887
 30
0.0
 42
0.3459642539485228
  0
VERTEX
  5
596
  8
0
 10
110.84189113941029
 20
468.29050225916887
 30
0.0
  0
VERTEX
  5
597
  8
0
 10
122.97393312309281
 20
463.26524593024777
 30
0.0
 42
-0.3563939586925978
  0
VERTEX
  5
598
  8
0
 10
123.57299975258221
 20
462.15119064731431
 30
0.0
 42
3.2670835034688599
  0
VERTEX
  5
599
  8
0
 10
126.739296998311
 20
465.31748789304311
 30
0.0
 42
-0.3563939586925952
  0
SEQEND
  5
59A
  8
0
  0
DIMENSION
  5
281
  8
BEM
  2
*D6
 10
27.408750309272591
 20
462.34136639773658
 30
0.0
 11
34.559186690960793
 21
455.37953988434867
 31
0.0
 70
   132
 15
26.692257060229281
 25
463.03896042299459
 35
0.0
 40
0.0
1001
ACAD
1000
DSTYLE
1002
{
1070
   287
1070
     4
1070
   279
1070
     1
1070
   288
1070
     1
1002
}
  0
POLYLINE
  5
297
  8
0
 66
     1
 10
0.0
 20
0.0
 30
0.0
 70
     1
  0
VERTEX
  5
5A0
  8
0
 10
-123.50462422580399
 20
416.19820550144948
 30
0.0
 42
-0.4838375398450091
  0
VERTEX
  5
5A1
  8
0
 10
-122.2295883053541
 20
417.11123745312233
 30
0.0
 42
3.4345326961389269
  0
VERTEX
  5
5A2
  8
0
 10
-126.14232093957131
 20
421.53377718491242
 30
0.0
 42
-0.483837539845002
  0
VERTEX
  5
5A3
  8
0
 10
-127.20393507997299
 20
420.37951579332372
 30
0.0
 42
2.4592976226898
  0
SEQEND
  5
5A4
  8
0
  0
POLYLINE
  5
2A9
  8
0
 66
     1
 10
0.0
 20
0.0
 30
0.0
 70
     1
  0
VERTEX
  5
5A5
  8
0
 10
-127.3077178558239
 20
315.38586341982131
 30
0.0
 42
-0.4838375398450091
  0
VERTEX
  5
5A6
  8
0
 10
-128.22074980749679
 20
316.66089934027121
 30
0.0
 42
3.4345326961389269
  0
VERTEX
  5
5A7
  8
0
 10
-132.64328953928691
 20
312.74816670605401
 30
0.0
 42
-0.483837539845002
  0
VERTEX
  5
5A8
  8
0
 10
-131.48902814769821
 20
311.68655256565239
 30
0.0
 42
2.4592976226898
  0
SEQEND
  5
5A9
  8
0
  0
POLYLINE
  5
2AA
  8
0
 66
     1
 10
0.0
 20
0.0
 30
0.0
 70
     1
  0
VERTEX
  5
5AA
  8
0
 10
-26.495375774195821
 20
311.58276978980132
 30
0.0
 42
-0.4838375398450091
  0
VERTEX
  5
5AB
  8
0
 10
-27.77041169464573
 20
310.66973783812841
 30
0.0
 42
3.4345326961389269
  0
VERTEX
  5
5AC
  8
0
 10
-23.857679060428548
 20
306.24719810633837
 30
0.0
 42
-0.483837539845002
  0
VERTEX
  5
5AD
  8
0
 10
-22.796064920026861
 20
307.40145949792708
 30
0.0
 42
2.4592976226898
  0
SEQEND
  5
5AE
  8
0
  0
POLYLINE
  5
2AB
  8
0
 66
     1
 10
0.0
 20
0.0
 30
0.0
 70
     1
  0
VERTEX
  5
5AF
  8
0
 10
-22.692282144175859
 20
412.39511187142949
 30
0.0
 42
-0.4838375398450091
  0
VERTEX
  5
5B0
  8
0
 10
-21.77925019250301
 20
411.12007595097958
 30
0.0
 42
3.4345326961389269
  0
VERTEX
  5
5B1
  8
0
 10
-17.356710460712922
 20
415.03280858519679
 30
0.0
 42
-0.483837539845002
  0
VERTEX
  5
5B2
  8
0
 10
-18.510971852301619
 20
416.09442272559841
 30
0.0
 42
2.4592976226898
  0
SEQEND
  5
5B3
  8
0
  0
DIMENSION
  5
2AC
  8
BEM
  2
*D7
 10
-132.48628518462269
 20
311.76056879565908
 30
0.0
 11
-140.86537913836821
 21
304.82885649846889
 31
0.0
 70
   132
 15
-131.7157684613577
 25
312.39798857819528
 35
0.0
 40
0.0
1001
ACAD
1000
DSTYLE
1002
{
1070
   287
1070
     4
1070
   279
1070
     1
1070
   288
1070
     1
1002
}
  0
ENDSEC
  0
EOF
