  0
SECTION
  2
HEADER
  9
$ACADVER
  1
AC1015
  9
$ACADMAINTVER
 70
    20
  9
$DWGCODEPAGE
  3
ANSI_1252
  9
$INSBASE
 10
0.0
 20
0.0
 30
0.0
  9
$EXTMIN
 10
-54.43333333333339
 20
102.3515213731618
 30
0.0
  9
$EXTMAX
 10
58.03206002728505
 20
198.8416195831688
 30
0.0
  9
$LIMMIN
 10
0.0
 20
0.0
  9
$LIMMAX
 10
420.0
 20
297.0
  9
$ORTHOMODE
 70
     1
  9
$REGENMODE
 70
     1
  9
$FILLMODE
 70
     1
  9
$QTEXTMODE
 70
     0
  9
$MIRRTEXT
 70
     1
  9
$LTSCALE
 40
0.5
  9
$ATTMODE
 70
     1
  9
$TEXTSIZE
 40
2.5
  9
$TRACEWID
 40
1.0
  9
$TEXTSTYLE
  7
Standard
  9
$CLAYER
  8
0
  9
$CELTYPE
  6
ByLayer
  9
$CECOLOR
 62
   256
  9
$CELTSCALE
 40
1.0
  9
$DISPSILH
 70
     0
  9
$DIMSCALE
 40
1.0
  9
$DIMASZ
 40
3.5
  9
$DIMEXO
 40
0.0
  9
$DIMDLI
 40
10.0
  9
$DIMRND
 40
0.0
  9
$DIMDLE
 40
0.0
  9
$DIMEXE
 40
2.0
  9
$DIMTP
 40
0.0
  9
$DIMTM
 40
0.000000001
  9
$DIMTXT
 40
3.5
  9
$DIMCEN
 40
1.5
  9
$DIMTSZ
 40
0.0
  9
$DIMTOL
 70
     0
  9
$DIMLIM
 70
     0
  9
$DIMTIH
 70
     0
  9
$DIMTOH
 70
     0
  9
$DIMSE1
 70
     0
  9
$DIMSE2
 70
     0
  9
$DIMTAD
 70
     1
  9
$DIMZIN
 70
     8
  9
$DIMBLK
  1

  9
$DIMASO
 70
     1
  9
$DIMSHO
 70
     1
  9
$DIMPOST
  1

  9
$DIMAPOST
  1

  9
$DIMALT
 70
     0
  9
$DIMALTD
 70
     2
  9
$DIMALTF
 40
25.4
  9
$DIMLFAC
 40
1.0
  9
$DIMTOFL
 70
     1
  9
$DIMTVP
 40
0.0
  9
$DIMTIX
 70
     0
  9
$DIMSOXD
 70
     0
  9
$DIMSAH
 70
     0
  9
$DIMBLK1
  1

  9
$DIMBLK2
  1

  9
$DIMSTYLE
  2
1zu1
  9
$DIMCLRD
 70
   256
  9
$DIMCLRE
 70
   256
  9
$DIMCLRT
 70
     7
  9
$DIMTFAC
 40
0.7
  9
$DIMGAP
 40
1.5
  9
$DIMJUST
 70
     0
  9
$DIMSD1
 70
     0
  9
$DIMSD2
 70
     0
  9
$DIMTOLJ
 70
     1
  9
$DIMTZIN
 70
     8
  9
$DIMALTZ
 70
     0
  9
$DIMALTTZ
 70
     0
  9
$DIMUPT
 70
     0
  9
$DIMDEC
 70
     2
  9
$DIMTDEC
 70
     2
  9
$DIMALTU
 70
     2
  9
$DIMALTTD
 70
     2
  9
$DIMTXSTY
  7
ROMANS
  9
$DIMAUNIT
 70
     0
  9
$DIMADEC
 70
     2
  9
$DIMALTRND
 40
0.0
  9
$DIMAZIN
 70
     2
  9
$DIMDSEP
 70
    46
  9
$DIMATFIT
 70
     3
  9
$DIMFRAC
 70
     0
  9
$DIMLDRBLK
  1

  9
$DIMLUNIT
 70
     2
  9
$DIMLWD
 70
    -1
  9
$DIMLWE
 70
    -1
  9
$DIMTMOVE
 70
     0
  9
$LUNITS
 70
     2
  9
$LUPREC
 70
     4
  9
$SKETCHINC
 40
1.0
  9
$FILLETRAD
 40
0.25
  9
$AUNITS
 70
     0
  9
$AUPREC
 70
     0
  9
$MENU
  1
.
  9
$ELEVATION
 40
0.0
  9
$PELEVATION
 40
0.0
  9
$THICKNESS
 40
0.0
  9
$LIMCHECK
 70
     0
  9
$CHAMFERA
 40
10.0
  9
$CHAMFERB
 40
10.0
  9
$CHAMFERC
 40
20.0
  9
$CHAMFERD
 40
0.0
  9
$SKPOLY
 70
     0
  9
$TDCREATE
 40
2452694.760215926
  9
$TDUCREATE
 40
2452694.718549260
  9
$TDUPDATE
 40
2456960.639322095
  9
$TDUUPDATE
 40
2456960.597655428
  9
$TDINDWG
 40
11.5277972801
  9
$TDUSRTIMER
 40
11.5277970949
  9
$USRTIMER
 70
     1
  9
$ANGBASE
 50
0.0
  9
$ANGDIR
 70
     0
  9
$PDMODE
 70
     0
  9
$PDSIZE
 40
0.0
  9
$PLINEWID
 40
0.0
  9
$SPLFRAME
 70
     0
  9
$SPLINETYPE
 70
     6
  9
$SPLINESEGS
 70
     8
  9
$HANDSEED
  5
AE
  9
$SURFTAB1
 70
     6
  9
$SURFTAB2
 70
     6
  9
$SURFTYPE
 70
     6
  9
$SURFU
 70
     6
  9
$SURFV
 70
     6
  9
$UCSBASE
  2

  9
$UCSNAME
  2

  9
$UCSORG
 10
0.0
 20
0.0
 30
0.0
  9
$UCSXDIR
 10
1.0
 20
0.0
 30
0.0
  9
$UCSYDIR
 10
0.0
 20
1.0
 30
0.0
  9
$UCSORTHOREF
  2

  9
$UCSORTHOVIEW
 70
     0
  9
$UCSORGTOP
 10
0.0
 20
0.0
 30
0.0
  9
$UCSORGBOTTOM
 10
0.0
 20
0.0
 30
0.0
  9
$UCSORGLEFT
 10
0.0
 20
0.0
 30
0.0
  9
$UCSORGRIGHT
 10
0.0
 20
0.0
 30
0.0
  9
$UCSORGFRONT
 10
0.0
 20
0.0
 30
0.0
  9
$UCSORGBACK
 10
0.0
 20
0.0
 30
0.0
  9
$PUCSBASE
  2

  9
$PUCSNAME
  2

  9
$PUCSORG
 10
0.0
 20
0.0
 30
0.0
  9
$PUCSXDIR
 10
1.0
 20
0.0
 30
0.0
  9
$PUCSYDIR
 10
0.0
 20
1.0
 30
0.0
  9
$PUCSORTHOREF
  2

  9
$PUCSORTHOVIEW
 70
     0
  9
$PUCSORGTOP
 10
0.0
 20
0.0
 30
0.0
  9
$PUCSORGBOTTOM
 10
0.0
 20
0.0
 30
0.0
  9
$PUCSORGLEFT
 10
0.0
 20
0.0
 30
0.0
  9
$PUCSORGRIGHT
 10
0.0
 20
0.0
 30
0.0
  9
$PUCSORGFRONT
 10
0.0
 20
0.0
 30
0.0
  9
$PUCSORGBACK
 10
0.0
 20
0.0
 30
0.0
  9
$USERI1
 70
     0
  9
$USERI2
 70
     0
  9
$USERI3
 70
     0
  9
$USERI4
 70
     0
  9
$USERI5
 70
     0
  9
$USERR1
 40
3.0
  9
$USERR2
 40
1.0
  9
$USERR3
 40
1.0
  9
$USERR4
 40
0.0
  9
$USERR5
 40
0.0
  9
$WORLDVIEW
 70
     1
  9
$SHADEDGE
 70
     3
  9
$SHADEDIF
 70
    70
  9
$TILEMODE
 70
     1
  9
$MAXACTVP
 70
    64
  9
$PINSBASE
 10
0.0
 20
0.0
 30
0.0
  9
$PLIMCHECK
 70
     0
  9
$PEXTMIN
 10
0.0
 20
0.0
 30
0.0
  9
$PEXTMAX
 10
420.0
 20
297.0
 30
0.0
  9
$PLIMMIN
 10
-12.74318078855802
 20
-6.351582024086956
  9
$PLIMMAX
 10
432.7567981061398
 20
308.6868943834866
  9
$UNITMODE
 70
     0
  9
$VISRETAIN
 70
     1
  9
$PLINEGEN
 70
     0
  9
$PSLTSCALE
 70
     1
  9
$TREEDEPTH
 70
  3020
  9
$CMLSTYLE
  2
Standard
  9
$CMLJUST
 70
     0
  9
$CMLSCALE
 40
20.0
  9
$PROXYGRAPHICS
 70
     1
  9
$MEASUREMENT
 70
     1
  9
$CELWEIGHT
370
    -1
  9
$ENDCAPS
280
     0
  9
$JOINSTYLE
280
     0
  9
$LWDISPLAY
290
     0
  9
$INSUNITS
 70
     4
  9
$HYPERLINKBASE
  1

  9
$STYLESHEET
  1

  9
$XEDIT
290
     1
  9
$CEPSNTYPE
380
     0
  9
$PSTYLEMODE
290
     1
  9
$FINGERPRINTGUID
  2
{E6FFC3F2-70B4-4732-BDD3-06AAED10F260}
  9
$VERSIONGUID
  2
{19D49BF0-4E49-42FF-A6A4-4E2DA5D93F22}
  9
$EXTNAMES
290
     1
  9
$PSVPSCALE
 40
0.0
  9
$OLESTARTUP
290
     0
  0
ENDSEC
  0
SECTION
  2
CLASSES
  0
CLASS
  1
ACDBDICTIONARYWDFLT
  2
AcDbDictionaryWithDefault
  3
ObjectDBX Classes
 90
        0
280
     0
281
     0
  0
CLASS
  1
DICTIONARYVAR
  2
AcDbDictionaryVar
  3
ObjectDBX Classes
 90
        0
280
     0
281
     0
  0
CLASS
  1
DIMASSOC
  2
AcDbDimAssoc
  3
"AcDbDimAssoc|Product Desc:     AcDim ARX App For Dimension|Company:          Autodesk, Inc.|WEB Address:      www.autodesk.com"
 90
        0
280
     0
281
     0
  0
CLASS
  1
ACDBPLACEHOLDER
  2
AcDbPlaceHolder
  3
ObjectDBX Classes
 90
        0
280
     0
281
     0
  0
CLASS
  1
LAYOUT
  2
AcDbLayout
  3
ObjectDBX Classes
 90
        0
280
     0
281
     0
  0
ENDSEC
  0
SECTION
  2
TABLES
  0
TABLE
  2
VPORT
  5
19
330
0
100
AcDbSymbolTable
 70
     2
  0
VPORT
  5
A5
330
19
100
AcDbSymbolTableRecord
100
AcDbViewportTableRecord
  2
*Active
 70
     0
 10
0.0
 20
0.0
 11
1.0
 21
1.0
 12
27.75412852673287
 22
157.9876659348681
 13
0.0
 23
0.0
 14
10.0
 24
10.0
 15
10.0
 25
10.0
 16
0.0
 26
0.0
 36
1.0
 17
0.0
 27
0.0
 37
0.0
 40
97.44690972115382
 41
2.031903190319031
 42
50.0
 43
0.0
 44
0.0
 50
0.0
 51
0.0
 71
     0
 72
   100
 73
     1
 74
     3
 75
     0
 76
     0
 77
     0
 78
     2
281
     0
 65
     1
110
0.0
120
0.0
130
0.0
111
1.0
121
0.0
131
0.0
112
0.0
122
1.0
132
0.0
 79
     0
146
0.0
  0
ENDTAB
  0
TABLE
  2
LTYPE
  5
14
330
0
100
AcDbSymbolTable
 70
     3
  0
LTYPE
  5
15
330
14
100
AcDbSymbolTableRecord
100
AcDbLinetypeTableRecord
  2
ByBlock
 70
     0
  3

 72
    65
 73
     0
 40
0.0
  0
LTYPE
  5
16
330
14
100
AcDbSymbolTableRecord
100
AcDbLinetypeTableRecord
  2
ByLayer
 70
     0
  3

 72
    65
 73
     0
 40
0.0
  0
LTYPE
  5
8
330
14
100
AcDbSymbolTableRecord
100
AcDbLinetypeTableRecord
  2
Continuous
 70
     0
  3
Solid line
 72
    65
 73
     0
 40
0.0
  0
LTYPE
  5
37
330
14
100
AcDbSymbolTableRecord
100
AcDbLinetypeTableRecord
  2
ACAD_ISO04W100
 70
     0
  3
ISO Lang gestrichelt punktiert ____ . ____ . __
 72
    65
 73
     4
 40
30.0
 49
24.0
 74
     0
 49
-3.0
 74
     0
 49
0.0
 74
     0
 49
-3.0
 74
     0
  0
LTYPE
  5
2A
330
14
100
AcDbSymbolTableRecord
100
AcDbLinetypeTableRecord
  2
VERDECKT
 70
     0
  3
Verdeckt __ __ __ __ __ __ __ __ __ __ __ __ __
 72
    65
 73
     2
 40
9.524999999999996
 49
6.349999999999998
 74
     0
 49
-3.174999999999998
 74
     0
  0
ENDTAB
  0
TABLE
  2
LAYER
  5
10
330
0
100
AcDbSymbolTable
 70
     5
  0
LAYER
  5
4
330
10
100
AcDbSymbolTableRecord
100
AcDbLayerTableRecord
  2
0
 70
     0
 62
     7
  6
Continuous
370
    -3
390
5
  0
LAYER
  5
42
330
10
100
AcDbSymbolTableRecord
100
AcDbLayerTableRecord
  2
Defpoints
 70
     0
 62
     7
  6
Continuous
290
     0
370
    -3
390
5
  0
LAYER
  5
33
330
10
100
AcDbSymbolTableRecord
100
AcDbLayerTableRecord
  2
BEM
 70
     0
 62
     3
  6
Continuous
370
    -3
390
5
  0
LAYER
  5
29
330
10
100
AcDbSymbolTableRecord
100
AcDbLayerTableRecord
  2
ver1
 70
     0
 62
     8
  6
VERDECKT
370
    -3
390
5
  0
LAYER
  5
36
330
10
100
AcDbSymbolTableRecord
100
AcDbLayerTableRecord
  2
sym1
 70
     0
 62
     6
  6
ACAD_ISO04W100
370
    -3
390
5
  0
ENDTAB
  0
TABLE
  2
STYLE
  5
11
330
0
100
AcDbSymbolTable
 70
     3
  0
STYLE
  5
12
330
11
100
AcDbSymbolTableRecord
100
AcDbTextStyleTableRecord
  2
Standard
 70
     0
 40
0.0
 41
1.0
 50
0.0
 71
     0
 42
2.5
  3
txt
  4

  0
STYLE
  5
1F
330
11
100
AcDbSymbolTableRecord
100
AcDbTextStyleTableRecord
  2
ROMANS
 70
     0
 40
0.0
 41
1.0
 50
0.0
 71
     0
 42
3.5
  3
C:\ACAD13\COM\FONTS\ROMANS.SHX
  4

  0
STYLE
  5
34
330
11
100
AcDbSymbolTableRecord
100
AcDbTextStyleTableRecord
  2
Arial
 70
     0
 40
0.0
 41
1.0
 50
0.0
 71
     0
 42
2.5
  3
ARIAL.TTF
  4

1001
ACAD
1000
Arial
1071
       34
  0
ENDTAB
  0
TABLE
  2
VIEW
  5
17
330
0
100
AcDbSymbolTable
 70
     0
  0
ENDTAB
  0
TABLE
  2
UCS
  5
18
330
0
100
AcDbSymbolTable
 70
     0
  0
ENDTAB
  0
TABLE
  2
APPID
  5
1B
330
0
100
AcDbSymbolTable
 70
     2
  0
APPID
  5
1C
330
1B
100
AcDbSymbolTableRecord
100
AcDbRegAppTableRecord
  2
ACAD
 70
     0
  0
APPID
  5
9F
330
1B
100
AcDbSymbolTableRecord
100
AcDbRegAppTableRecord
  2
DCO15
 70
     0
  0
ENDTAB
  0
TABLE
  2
DIMSTYLE
  5
1D
330
0
100
AcDbSymbolTable
 70
     2
100
AcDbDimStyleTable
 71
     2
340
1E
340
20
  0
DIMSTYLE
105
20
330
1D
100
AcDbSymbolTableRecord
100
AcDbDimStyleTableRecord
  2
ISO-25
 70
     0
 41
2.5
 42
0.625
 43
3.75
 44
1.25
 73
     0
 74
     0
 77
     1
 78
     8
140
2.5
141
2.5
143
0.03937007874016
147
0.625
171
     3
172
     1
271
     2
272
     2
274
     3
278
    44
283
     0
284
     8
340
12
  0
DIMSTYLE
105
1E
102
{ACAD_REACTORS
330
48
330
53
330
38
330
73
102
}
330
1D
100
AcDbSymbolTableRecord
100
AcDbDimStyleTableRecord
  2
1zu1
 70
     0
 41
3.5
 42
0.0
 43
10.0
 44
2.0
 48
0.000000001
 73
     0
 74
     0
 77
     1
 78
     8
 79
     2
140
3.5
141
1.5
146
0.7
147
1.5
172
     1
176
   256
177
   256
178
     7
179
     2
271
     2
272
     2
284
     8
340
1F
371
    -1
372
    -1
  0
ENDTAB
  0
TABLE
  2
BLOCK_RECORD
  5
1
330
0
100
AcDbSymbolTable
 70
     6
  0
BLOCK_RECORD
  5
2
330
1
100
AcDbSymbolTableRecord
100
AcDbBlockTableRecord
  2
*Model_Space
340
A
  0
BLOCK_RECORD
  5
C
330
1
100
AcDbSymbolTableRecord
100
AcDbBlockTableRecord
  2
*Paper_Space
340
F
  0
BLOCK_RECORD
  5
65
330
1
100
AcDbSymbolTableRecord
100
AcDbBlockTableRecord
  2
*D0
340
0
  0
BLOCK_RECORD
  5
56
330
1
100
AcDbSymbolTableRecord
100
AcDbBlockTableRecord
  2
*D1
340
0
  0
BLOCK_RECORD
  5
39
330
1
100
AcDbSymbolTableRecord
100
AcDbBlockTableRecord
  2
*D2
340
0
  0
BLOCK_RECORD
  5
4B
330
1
100
AcDbSymbolTableRecord
100
AcDbBlockTableRecord
  2
*D3
340
0
  0
BLOCK_RECORD
  5
76
330
1
100
AcDbSymbolTableRecord
100
AcDbBlockTableRecord
  2
*D4
340
0
  0
BLOCK_RECORD
  5
88
330
1
100
AcDbSymbolTableRecord
100
AcDbBlockTableRecord
  2
*D5
340
0
  0
ENDTAB
  0
ENDSEC
  0
SECTION
  2
BLOCKS
  0
BLOCK
  5
3
330
2
100
AcDbEntity
  8
0
100
AcDbBlockBegin
  2
*Model_Space
 70
     0
 10
0.0
 20
0.0
 30
0.0
  3
*Model_Space
  1

  0
ENDBLK
  5
9
330
2
100
AcDbEntity
  8
0
100
AcDbBlockEnd
  0
BLOCK
  5
D
330
C
100
AcDbEntity
 67
     1
  8
0
100
AcDbBlockBegin
  2
*Paper_Space
 70
     0
 10
0.0
 20
0.0
 30
0.0
  3
*Paper_Space
  1

  0
ENDBLK
  5
E
330
C
100
AcDbEntity
 67
     1
  8
0
100
AcDbBlockEnd
  0
BLOCK
  5
66
330
65
100
AcDbEntity
  8
0
100
AcDbBlockBegin
  2
*D0
 70
     1
 10
0.0
 20
0.0
 30
0.0
  3
*D0
  1

  0
LINE
  5
67
330
65
100
AcDbEntity
  8
BEM
100
AcDbLine
 10
39.39999999999992
 20
122.5
 30
0.0
 11
39.39999999999992
 21
102.3515213731618
 31
0.0
  0
LINE
  5
68
330
65
100
AcDbEntity
  8
BEM
100
AcDbLine
 10
39.64999999999991
 20
122.5
 30
0.0
 11
39.64999999999991
 21
102.3515213731618
 31
0.0
  0
LINE
  5
69
330
65
100
AcDbEntity
  8
BEM
100
AcDbLine
 10
43.1499999999999
 20
104.3515213731618
 30
0.0
 11
46.64999999999991
 21
104.3515213731618
 31
0.0
  0
LINE
  5
6A
330
65
100
AcDbEntity
  8
BEM
100
AcDbLine
 10
35.89999999999991
 20
104.3515213731618
 30
0.0
 11
-54.43333333333339
 21
104.3515213731618
 31
0.0
  0
LINE
  5
6B
330
65
100
AcDbEntity
  8
BEM
100
AcDbLine
 10
39.64999999999991
 20
104.3515213731618
 30
0.0
 11
39.39999999999992
 21
104.3515213731618
 31
0.0
  0
SOLID
  5
6C
330
65
100
AcDbEntity
  8
BEM
100
AcDbTrace
 10
43.1499999999999
 20
104.9348547064952
 30
0.0
 11
43.1499999999999
 21
103.7681880398285
 31
0.0
 12
39.64999999999991
 22
104.3515213731618
 32
0.0
 13
39.64999999999991
 23
104.3515213731618
 33
0.0
  0
SOLID
  5
6D
330
65
100
AcDbEntity
  8
BEM
100
AcDbTrace
 10
35.89999999999991
 20
104.9348547064952
 30
0.0
 11
35.89999999999991
 21
103.7681880398285
 31
0.0
 12
39.39999999999992
 22
104.3515213731618
 32
0.0
 13
39.39999999999992
 23
104.3515213731618
 33
0.0
  0
MTEXT
  5
6E
330
65
100
AcDbEntity
  8
BEM
 62
     7
100
AcDbMText
 10
-11.01666666666674
 20
108.5181880398285
 30
0.0
 40
3.5
 41
0.0
 71
     5
 72
     1
  1
\A1;Fase / Chamfer 0.25\C7;\H3.5;x45° (4x)
  7
ROMANS
 73
     1
 44
1.0
1001
ACAD
1000
MTEXTBEGIN
1070
    73
1070
     1
1070
    44
1040
1.0
1070
    74
1070
     0
1000
MTEXTEND
  0
POINT
  5
6F
330
65
100
AcDbEntity
  8
Defpoints
 62
     0
100
AcDbPoint
 10
39.39999999999992
 20
122.5
 30
0.0
  0
POINT
  5
70
330
65
100
AcDbEntity
  8
Defpoints
 62
     0
100
AcDbPoint
 10
39.64999999999991
 20
122.5
 30
0.0
  0
POINT
  5
71
330
65
100
AcDbEntity
  8
Defpoints
 62
     0
100
AcDbPoint
 10
39.64999999999991
 20
104.3515213731618
 30
0.0
  0
ENDBLK
  5
72
330
65
100
AcDbEntity
  8
0
100
AcDbBlockEnd
  0
BLOCK
  5
57
330
56
100
AcDbEntity
  8
0
100
AcDbBlockBegin
  2
*D1
 70
     1
 10
0.0
 20
0.0
 30
0.0
  3
*D1
  1

  0
LINE
  5
58
330
56
100
AcDbEntity
  8
BEM
100
AcDbLine
 10
19.80462909417835
 20
150.3309606755152
 30
0.0
 11
31.80462909417837
 21
150.3309606755152
 31
0.0
  0
LINE
  5
59
330
56
100
AcDbEntity
  8
BEM
100
AcDbLine
 10
31.80462909417837
 20
150.3309606755152
 30
0.0
 11
34.32382659033677
 21
146.8671412241589
 31
0.0
  0
LINE
  5
5A
330
56
100
AcDbEntity
  8
BEM
100
AcDbLine
 10
40.67617340966303
 20
138.132858775841
 30
0.0
 11
42.73480432333357
 21
135.3023042787009
 31
0.0
  0
MTEXT
  5
5B
330
56
100
AcDbEntity
  8
BEM
 62
     7
100
AcDbMText
 10
25.05462909417837
 20
153.5809606755152
 30
0.0
 40
3.5
 41
0.0
 71
     5
 72
     1
  1
\A1;%%c3.8\C7;\H3.5;
  7
ROMANS
 73
     1
 44
1.0
1001
ACAD
1000
MTEXTBEGIN
1070
    73
1070
     1
1070
    44
1040
1.0
1070
    74
1070
     0
1000
MTEXTEND
  0
LINE
  5
5C
330
56
100
AcDbEntity
  8
BEM
100
AcDbLine
 10
38.6175424959925
 20
140.9634132729811
 30
0.0
 11
36.38245750400731
 21
144.0365867270189
 31
0.0
  0
SOLID
  5
5D
330
56
100
AcDbEntity
  8
BEM
100
AcDbTrace
 10
41.14793249251971
 20
138.4759639281194
 30
0.0
 11
40.20441432680637
 21
137.7897536235626
 31
0.0
 12
38.6175424959925
 22
140.9634132729811
 32
0.0
 13
38.6175424959925
 23
140.9634132729811
 33
0.0
  0
SOLID
  5
5E
330
56
100
AcDbEntity
  8
BEM
100
AcDbTrace
 10
34.79558567319345
 20
147.2102463764374
 30
0.0
 11
33.8520675074801
 21
146.5240360718806
 31
0.0
 12
36.38245750400731
 22
144.0365867270189
 32
0.0
 13
36.38245750400731
 23
144.0365867270189
 33
0.0
  0
POINT
  5
5F
330
56
100
AcDbEntity
  8
Defpoints
 62
     0
100
AcDbPoint
 10
36.38245750400731
 20
144.0365867270189
 30
0.0
  0
POINT
  5
60
330
56
100
AcDbEntity
  8
Defpoints
 62
     0
100
AcDbPoint
 10
38.6175424959925
 20
140.9634132729811
 30
0.0
  0
ENDBLK
  5
61
330
56
100
AcDbEntity
  8
0
100
AcDbBlockEnd
  0
BLOCK
  5
3A
330
39
100
AcDbEntity
  8
0
100
AcDbBlockBegin
  2
*D2
 70
     1
 10
0.0
 20
0.0
 30
0.0
  3
*D2
  1

  0
LINE
  5
3B
330
39
100
AcDbEntity
  8
BEM
100
AcDbLine
 10
17.49999999999991
 20
122.5
 30
0.0
 11
-2.696309163774458
 21
122.5
 31
0.0
  0
LINE
  5
3C
330
39
100
AcDbEntity
  8
BEM
100
AcDbLine
 10
17.49999999999991
 20
142.5
 30
0.0
 11
-2.696309163774455
 21
142.5
 31
0.0
  0
LINE
  5
3D
330
39
100
AcDbEntity
  8
BEM
100
AcDbLine
 10
-0.6963091637744602
 20
126.0
 30
0.0
 11
-0.6963091637744573
 21
139.0
 31
0.0
  0
SOLID
  5
3E
330
39
100
AcDbEntity
  8
BEM
100
AcDbTrace
 10
-1.279642497107792
 20
126.0
 30
0.0
 11
-0.1129758304411269
 21
126.0
 31
0.0
 12
-0.696309163774461
 22
122.5
 32
0.0
 13
-0.696309163774461
 23
122.5
 33
0.0
  0
SOLID
  5
3F
330
39
100
AcDbEntity
  8
BEM
100
AcDbTrace
 10
-1.27964249710779
 20
139.0
 30
0.0
 11
-0.112975830441124
 21
139.0
 31
0.0
 12
-0.6963091637744565
 22
142.5
 32
0.0
 13
-0.6963091637744565
 23
142.5
 33
0.0
  0
MTEXT
  5
40
330
39
100
AcDbEntity
  8
BEM
 62
     7
100
AcDbMText
 10
-3.946309163774478
 20
132.5
 30
0.0
 40
3.5
 41
0.0
 71
     5
 72
     1
  1
\A1;20
  7
ROMANS
 11
0.0000000000000001
 21
1.0
 31
0.0
 73
     1
 44
1.0
1001
ACAD
1000
MTEXTBEGIN
1070
    73
1070
     1
1070
    44
1040
1.0
1070
    74
1070
     0
1000
MTEXTEND
  0
POINT
  5
41
330
39
100
AcDbEntity
  8
Defpoints
 62
     0
100
AcDbPoint
 10
17.49999999999991
 20
122.5
 30
0.0
  0
POINT
  5
43
330
39
100
AcDbEntity
  8
Defpoints
 62
     0
100
AcDbPoint
 10
17.49999999999991
 20
142.5
 30
0.0
  0
POINT
  5
44
330
39
100
AcDbEntity
  8
Defpoints
 62
     0
100
AcDbPoint
 10
-0.6963091637744565
 20
142.5
 30
0.0
  0
ENDBLK
  5
45
330
39
100
AcDbEntity
  8
0
100
AcDbBlockEnd
  0
BLOCK
  5
4C
330
4B
100
AcDbEntity
  8
0
100
AcDbBlockBegin
  2
*D3
 70
     1
 10
0.0
 20
0.0
 30
0.0
  3
*D3
  1

  0
LINE
  5
4D
330
4B
100
AcDbEntity
  8
BEM
100
AcDbLine
 10
21.34721926884694
 20
129.1618434317197
 30
0.0
 11
34.9712337449714
 21
136.5534758329117
 31
0.0
  0
MTEXT
  5
4E
330
4B
100
AcDbEntity
  8
BEM
 62
     7
100
AcDbMText
 10
25.07117291741939
 20
134.8797686868524
 30
0.0
 40
3.5
 41
0.0
 71
     5
 72
     1
  1
\A1;\U+220524
  7
ROMANS
 11
0.8789686758789972
 21
0.4768795097543221
 31
0.0
 73
     1
 44
1.0
1001
ACAD
1000
MTEXTBEGIN
1070
    73
1070
     1
1070
    44
1040
1.0
1070
    74
1070
     0
1000
MTEXTEND
  0
SOLID
  5
4F
330
4B
100
AcDbEntity
  8
BEM
100
AcDbTrace
 10
34.69305403094806
 20
137.0662075605078
 30
0.0
 11
35.24941345899475
 21
136.0407441053157
 31
0.0
 12
38.04762411054788
 22
138.2225541170518
 32
0.0
 13
38.04762411054788
 23
138.2225541170518
 33
0.0
  0
POINT
  5
50
330
4B
100
AcDbEntity
  8
Defpoints
 62
     0
100
AcDbPoint
 10
38.04762411054788
 20
138.2225541170518
 30
0.0
  0
POINT
  5
51
330
4B
100
AcDbEntity
  8
Defpoints
 62
     0
100
AcDbPoint
 10
16.95237588945196
 20
126.7774458829481
 30
0.0
  0
ENDBLK
  5
52
330
4B
100
AcDbEntity
  8
0
100
AcDbBlockEnd
  0
BLOCK
  5
77
330
76
100
AcDbEntity
  8
0
100
AcDbBlockBegin
  2
*D4
 70
     1
 10
0.0
 20
0.0
 30
0.0
  3
*D4
  1

  0
LINE
  5
78
330
76
100
AcDbEntity
  8
BEM
100
AcDbLine
 10
37.49999999999992
 20
142.5
 30
0.0
 11
37.49999999999992
 21
165.3070587707818
 31
0.0
  0
LINE
  5
79
330
76
100
AcDbEntity
  8
BEM
100
AcDbLine
 10
17.49999999999991
 20
142.5
 30
0.0
 11
17.49999999999991
 21
165.3070587707818
 31
0.0
  0
LINE
  5
7A
330
76
100
AcDbEntity
  8
BEM
100
AcDbLine
 10
33.99999999999991
 20
163.3070587707818
 30
0.0
 11
20.99999999999992
 21
163.3070587707818
 31
0.0
  0
SOLID
  5
7B
330
76
100
AcDbEntity
  8
BEM
100
AcDbTrace
 10
33.99999999999991
 20
163.8903921041152
 30
0.0
 11
33.99999999999991
 21
162.7237254374485
 31
0.0
 12
37.49999999999992
 22
163.3070587707818
 32
0.0
 13
37.49999999999992
 23
163.3070587707818
 33
0.0
  0
SOLID
  5
7C
330
76
100
AcDbEntity
  8
BEM
100
AcDbTrace
 10
20.99999999999992
 20
163.8903921041152
 30
0.0
 11
20.99999999999992
 21
162.7237254374485
 31
0.0
 12
17.49999999999991
 22
163.3070587707818
 32
0.0
 13
17.49999999999991
 23
163.3070587707818
 33
0.0
  0
MTEXT
  5
7D
330
76
100
AcDbEntity
  8
BEM
 62
     7
100
AcDbMText
 10
27.49999999999993
 20
166.5570587707818
 30
0.0
 40
3.5
 41
0.0
 71
     5
 72
     1
  1
\A1;20
  7
ROMANS
 73
     1
 44
1.0
1001
ACAD
1000
MTEXTBEGIN
1070
    73
1070
     1
1070
    44
1040
1.0
1070
    74
1070
     0
1000
MTEXTEND
  0
POINT
  5
7E
330
76
100
AcDbEntity
  8
Defpoints
 62
     0
100
AcDbPoint
 10
37.49999999999992
 20
142.5
 30
0.0
  0
POINT
  5
7F
330
76
100
AcDbEntity
  8
Defpoints
 62
     0
100
AcDbPoint
 10
17.49999999999991
 20
142.5
 30
0.0
  0
POINT
  5
80
330
76
100
AcDbEntity
  8
Defpoints
 62
     0
100
AcDbPoint
 10
17.49999999999991
 20
163.3070587707818
 30
0.0
  0
ENDBLK
  5
81
330
76
100
AcDbEntity
  8
0
100
AcDbBlockEnd
  0
BLOCK
  5
92
330
88
100
AcDbEntity
  8
0
100
AcDbBlockBegin
  2
*D5
 70
     1
 10
0.0
 20
0.0
 30
0.0
  3
*D5
  1

  0
LINE
  5
94
330
88
100
AcDbEntity
  8
BEM
100
AcDbLine
 10
19.80462909417828
 20
150.3309606755152
 30
0.0
 11
31.80462909417828
 21
150.3309606755152
 31
0.0
  0
LINE
  5
95
330
88
100
AcDbEntity
  8
BEM
100
AcDbLine
 10
31.80462909417828
 20
150.3309606755152
 30
0.0
 11
34.61791672086113
 21
146.462776295996
 31
0.0
  0
LINE
  5
96
330
88
100
AcDbEntity
  8
BEM
100
AcDbLine
 10
40.38208327913869
 20
138.5372237040038
 30
0.0
 11
42.44071419280925
 21
135.7066692068638
 31
0.0
  0
MTEXT
  5
97
330
88
100
AcDbEntity
  8
BEM
 62
     7
100
AcDbMText
 10
25.05462909417827
 20
153.5809606755152
 30
0.0
 40
3.5
 41
0.0
 71
     5
 72
     1
  1
\A1;%%c2.8\C7;\H3.5;
  7
ROMANS
 73
     1
 44
1.0
1001
ACAD
1000
MTEXTBEGIN
1070
    73
1070
     1
1070
    44
1040
1.0
1070
    74
1070
     0
1000
MTEXTEND
  0
LINE
  5
98
330
88
100
AcDbEntity
  8
BEM
100
AcDbLine
 10
38.32345236546813
 20
141.3677782011439
 30
0.0
 11
36.67654763453169
 21
143.632221798856
 31
0.0
  0
SOLID
  5
99
330
88
100
AcDbEntity
  8
BEM
100
AcDbTrace
 10
40.85384236199535
 20
138.8803288562823
 30
0.0
 11
39.91032419628201
 21
138.1941185517254
 31
0.0
 12
38.32345236546813
 22
141.3677782011439
 32
0.0
 13
38.32345236546813
 23
141.3677782011439
 33
0.0
  0
SOLID
  5
9A
330
88
100
AcDbEntity
  8
BEM
100
AcDbTrace
 10
35.08967580371779
 20
146.8058814482745
 30
0.0
 11
34.14615763800445
 21
146.1196711437176
 31
0.0
 12
36.67654763453169
 22
143.632221798856
 32
0.0
 13
36.67654763453169
 23
143.632221798856
 33
0.0
  0
POINT
  5
9B
330
88
100
AcDbEntity
  8
Defpoints
 62
     0
100
AcDbPoint
 10
36.67654763453169
 20
143.632221798856
 30
0.0
  0
POINT
  5
9C
330
88
100
AcDbEntity
  8
Defpoints
 62
     0
100
AcDbPoint
 10
38.32345236546813
 20
141.3677782011439
 30
0.0
  0
ENDBLK
  5
93
330
88
100
AcDbEntity
  8
0
100
AcDbBlockEnd
  0
ENDSEC
  0
SECTION
  2
ENTITIES
  0
LWPOLYLINE
  5
28
330
2
100
AcDbEntity
  8
ver1
100
AcDbPolyline
 90
        8
 70
     1
 43
0.0
 10
23.9999999999999
 20
144.5
 42
0.2561964152545499
 10
15.49999999999993
 20
136.0
 10
15.49999999999993
 20
128.9999999999999
 42
0.2561964152545485
 10
23.99999999999987
 20
120.5
 10
30.99999999999997
 20
120.5
 42
0.2561964152545517
 10
39.49999999999994
 20
129.0
 10
39.49999999999992
 20
135.9999999999999
 42
0.2561964152545517
 10
30.99999999999994
 20
144.5
  0
LWPOLYLINE
  5
2B
330
2
100
AcDbEntity
  8
ver1
100
AcDbPolyline
 90
        8
 70
     1
 43
0.0
 10
15.49999999999993
 20
126.8223304703363
 10
21.82233047033625
 20
120.5
 10
33.17766952966361
 20
120.5
 10
39.49999999999992
 20
126.8223304703363
 10
39.49999999999993
 20
138.1776695296636
 10
33.17766952966358
 20
144.5
 10
21.82233047033625
 20
144.5
 10
15.49999999999992
 20
138.1776695296637
  0
CIRCLE
  5
2D
330
2
100
AcDbEntity
  8
0
100
AcDbCircle
 10
17.49999999999991
 20
142.5
 30
0.0
 40
1.399999999999999
  0
CIRCLE
  5
2E
330
2
100
AcDbEntity
  8
0
100
AcDbCircle
 10
17.49999999999991
 20
122.5
 30
0.0
 40
1.399999999999999
  0
CIRCLE
  5
31
330
2
100
AcDbEntity
  8
0
100
AcDbCircle
 10
37.49999999999992
 20
122.5
 30
0.0
 40
1.399999999999999
  0
MTEXT
  5
32
330
2
100
AcDbEntity
  8
BEM
100
AcDbMText
 10
27.49999999999993
 20
182.6297050765749
 30
0.0
 40
5.0
 41
69.43909999999999
 71
     8
 72
     5
  1
{\C7;Lochbild SLM-25\PHole layout SLM-25}
  7
Arial
 73
     1
 44
1.0
1001
ACAD
1000
MTEXTBEGIN
1070
    73
1070
     1
1070
    44
1040
1.0
1070
    74
1070
     0
1000
MTEXTEND
  0
LINE
  5
35
330
2
100
AcDbEntity
  8
sym1
100
AcDbLine
 10
27.49999999999993
 20
148.5
 30
0.0
 11
27.49999999999993
 21
116.5
 31
0.0
  0
DIMENSION
  5
38
330
2
100
AcDbEntity
  8
BEM
100
AcDbDimension
  2
*D2
 10
-0.6963091637744565
 20
142.5
 30
0.0
 11
-3.946309163774478
 21
132.5
 31
0.0
 71
     5
 42
20.0
  3
1zu1
100
AcDbAlignedDimension
 13
17.49999999999991
 23
122.5
 33
0.0
 14
17.49999999999991
 24
142.5
 34
0.0
 50
90.0
100
AcDbRotatedDimension
  0
CIRCLE
  5
46
102
{ACAD_REACTORS
330
4A
102
}
330
2
100
AcDbEntity
  8
0
100
AcDbCircle
 10
27.49999999999993
 20
132.5
 30
0.0
 40
12.0
  0
CIRCLE
  5
47
102
{ACAD_REACTORS
330
55
330
75
102
}
330
2
100
AcDbEntity
  8
0
100
AcDbCircle
 10
37.49999999999992
 20
142.5
 30
0.0
 40
1.399999999999999
  0
DIMENSION
  5
48
102
{ACAD_XDICTIONARY
360
49
102
}
102
{ACAD_REACTORS
330
4A
102
}
330
2
100
AcDbEntity
  8
BEM
100
AcDbDimension
  2
*D3
 10
16.95237588945196
 20
126.7774458829481
 30
0.0
 11
26.62103132412094
 21
132.0231204902456
 31
0.0
 70
   131
 71
     5
 42
24.0
  3
1zu1
100
AcDbDiametricDimension
 15
38.04762411054788
 25
138.2225541170518
 35
0.0
 40
0.0
1001
ACAD
1000
DSTYLE
1002
{
1070
   288
1070
     1
1002
}
  0
DIMENSION
  5
53
102
{ACAD_XDICTIONARY
360
54
102
}
102
{ACAD_REACTORS
330
55
102
}
330
2
100
AcDbEntity
  8
BEM
100
AcDbDimension
  2
*D5
 10
38.32345236546813
 20
141.3677782011439
 30
0.0
 11
25.05462909417827
 21
150.3309606755152
 31
0.0
 70
   163
  1
<>
 71
     5
 42
2.799999999999982
  3
1zu1
100
AcDbDiametricDimension
 15
36.67654763453169
 25
143.632221798856
 35
0.0
 40
0.0
1001
ACAD
1000
DSTYLE
1002
{
1070
     3
1000
%%c<>\C7;\H3.5;
1070
    47
1040
0.0
1070
    48
1040
0.0
1070
    71
1070
     0
1070
    72
1070
     0
1070
    74
1070
     1
1070
   288
1070
     1
1002
}
  0
LINE
  5
62
330
2
100
AcDbEntity
  8
sym1
100
AcDbLine
 10
43.4999999999999
 20
132.5
 30
0.0
 11
11.49999999999991
 21
132.5
 31
0.0
  0
DIMENSION
  5
73
102
{ACAD_XDICTIONARY
360
74
102
}
102
{ACAD_REACTORS
330
75
102
}
330
2
100
AcDbEntity
  8
BEM
100
AcDbDimension
  2
*D4
 10
17.49999999999991
 20
163.3070587707818
 30
0.0
 11
27.49999999999993
 21
166.5570587707818
 31
0.0
 71
     5
 42
20.0
  3
1zu1
100
AcDbAlignedDimension
 13
37.49999999999992
 23
142.5
 33
0.0
 14
17.49999999999991
 24
142.5
 34
0.0
100
AcDbRotatedDimension
  0
ENDSEC
  0
SECTION
  2
OBJECTS
  0
DICTIONARY
  5
7
330
0
100
AcDbDictionary
281
     1
  3
ACAD_COLOR
350
26
  3
ACAD_GROUP
350
22
  3
ACAD_LAYOUT
350
B
  3
ACAD_MATERIAL
350
25
  3
ACAD_MLINESTYLE
350
23
  3
ACAD_PLOTSETTINGS
350
24
  3
ACAD_PLOTSTYLENAME
350
6
  3
ACDBHEADERROUNDTRIPXREC
350
A7
  3
AcDbVariableDictionary
350
A1
  3
ASE_INDEX_DICTIONARY
350
9E
  3
DWGPROPS
350
A6
  0
DICTIONARY
  5
49
330
48
100
AcDbDictionary
280
     1
281
     1
  3
ACAD_DIMASSOC
360
4A
  0
DICTIONARY
  5
54
330
53
100
AcDbDictionary
280
     1
281
     1
  3
ACAD_DIMASSOC
360
55
  0
DICTIONARY
  5
74
330
73
100
AcDbDictionary
280
     1
281
     1
  3
ACAD_DIMASSOC
360
75
  0
DICTIONARY
  5
26
102
{ACAD_REACTORS
330
7
102
}
330
7
100
AcDbDictionary
281
     1
  0
DICTIONARY
  5
22
102
{ACAD_REACTORS
330
7
102
}
330
7
100
AcDbDictionary
281
     1
  0
DICTIONARY
  5
B
102
{ACAD_REACTORS
330
7
102
}
330
7
100
AcDbDictionary
281
     1
  3
DIN-A3
350
F
  3
Model
350
A
  0
DICTIONARY
  5
25
102
{ACAD_REACTORS
330
7
102
}
330
7
100
AcDbDictionary
281
     1
  0
DICTIONARY
  5
23
102
{ACAD_REACTORS
330
7
102
}
330
7
100
AcDbDictionary
281
     1
  3
Standard
350
27
  0
DICTIONARY
  5
24
102
{ACAD_REACTORS
330
7
102
}
330
7
100
AcDbDictionary
281
     1
  0
ACDBDICTIONARYWDFLT
  5
6
102
{ACAD_REACTORS
330
7
102
}
330
7
100
AcDbDictionary
281
     1
  3
Normal
350
5
100
AcDbDictionaryWithDefault
340
5
  0
DICTIONARY
  5
A7
102
{ACAD_REACTORS
330
7
102
}
330
7
100
AcDbDictionary
281
     1
  3
COLORDICT
350
A9
  3
MATERIALDICT
350
A8
  0
DICTIONARY
  5
A1
102
{ACAD_REACTORS
330
7
102
}
330
7
100
AcDbDictionary
281
     1
  3
DIMASSOC
350
A3
  3
HIDETEXT
350
A2
  3
PROJECTNAME
350
A4
  0
DICTIONARY
  5
9E
102
{ACAD_REACTORS
330
7
102
}
330
7
100
AcDbDictionary
281
     1
  3
ASEBlockHierarchyIndexRecord
350
A0
1001
DCO15
1040
1828001733.429
  0
XRECORD
  5
A6
102
{ACAD_REACTORS
330
7
102
}
330
7
100
AcDbXrecord
280
     1
  1
DWGPROPS COOKIE
  2

  3

  4

  6

  7

  8

  9

300
=
301
=
302
=
303
=
304
=
305
=
306
=
307
=
308
=
309
=
 40
11.52779709490741
 41
2452694.760215926
 42
2456960.639322095
  1

 90
        0
  0
DIMASSOC
  5
4A
102
{ACAD_REACTORS
330
49
102
}
330
49
100
AcDbDimAssoc
330
48
 90
        2
 70
     0
 71
     0
  1
AcDbOsnapPointRef
 72
     3
331
46
 73
     2
 91
        0
 40
0.0
 10
37.49999999999992
 20
112.5
 30
0.0
 75
     0
  0
DIMASSOC
  5
55
102
{ACAD_REACTORS
330
54
102
}
330
54
100
AcDbDimAssoc
330
53
 90
        2
 70
     0
 71
     0
  1
AcDbOsnapPointRef
 72
     3
331
47
 73
     2
 91
        0
 40
0.0
 10
53.49999999999992
 20
128.5
 30
0.0
 75
     0
  0
DIMASSOC
  5
75
102
{ACAD_REACTORS
330
74
102
}
330
74
100
AcDbDimAssoc
330
73
 90
        1
 70
     0
 71
     0
  1
AcDbOsnapPointRef
 72
     3
331
47
 73
     2
 91
        0
 40
0.0
 10
53.49999999999992
 20
128.5
 30
0.0
 75
     0
  0
LAYOUT
  5
F
102
{ACAD_XDICTIONARY
360
AC
102
}
102
{ACAD_REACTORS
330
B
102
}
330
B
100
AcDbPlotSettings
  1

  2
HP LaserJet 5000 N PCL 6
  4
A4
  6

 40
4.233333110809326
 41
4.233341693878172
 42
7.789321899414062
 43
4.23333740234375
 44
209.9733276367186
 45
296.9259948730469
 46
0.0
 47
4.259999999999998
 48
0.0
 49
0.0
140
420.0
141
297.0
142
1.0
143
1.50037378534397
 70
   692
 72
     1
 73
     1
 74
     4
  7
mittel-pdf.ctb
 75
     0
147
0.6665005812339913
148
0.0
149
0.0
100
AcDbLayout
  1
DIN-A3
 70
     1
 71
     1
 10
-12.74318078855802
 20
-6.351582024086956
 11
432.7567981061398
 21
308.6868943834866
 12
0.0
 22
0.0
 32
0.0
 14
0.0
 24
0.0
 34
0.0
 15
420.0
 25
297.0
 35
0.0
146
0.0
 13
0.0
 23
0.0
 33
0.0
 16
1.0
 26
0.0
 36
0.0
 17
0.0
 27
1.0
 37
0.0
 76
     0
330
C
  0
LAYOUT
  5
A
102
{ACAD_XDICTIONARY
360
AA
102
}
102
{ACAD_REACTORS
330
B
102
}
330
B
100
AcDbPlotSettings
  1

  2
HP LaserJet 5000 N PCL 6
  4
A4
  6

 40
4.233333110809326
 41
4.233341693878172
 42
7.789321899414062
 43
4.23333740234375
 44
209.9733276367186
 45
296.9259948730469
 46
0.0
 47
0.0
 48
0.0
 49
0.0
140
0.0
141
0.0
142
1.0
143
1.0
 70
 11952
 72
     1
 73
     1
 74
     0
  7
mittel.ctb
 75
     0
147
1.0
148
73.55786430362087
149
47.31986355289773
100
AcDbLayout
  1
Model
 70
     1
 71
     0
 10
0.0
 20
0.0
 11
12.0
 21
9.0
 12
0.0
 22
0.0
 32
0.0
 14
0.0
 24
0.0
 34
0.0
 15
0.0
 25
0.0
 35
0.0
146
0.0
 13
0.0
 23
0.0
 33
0.0
 16
1.0
 26
0.0
 36
0.0
 17
0.0
 27
1.0
 37
0.0
 76
     0
330
2
  0
MLINESTYLE
  5
27
102
{ACAD_REACTORS
330
23
102
}
330
23
100
AcDbMlineStyle
  2
STANDARD
 70
     0
  3

 62
   256
 51
90.0
 52
90.0
 71
     2
 49
0.5
 62
   256
  6
BYLAYER
 49
-0.5
 62
   256
  6
BYLAYER
  0
ACDBPLACEHOLDER
  5
5
102
{ACAD_REACTORS
330
6
102
}
330
6
  0
XRECORD
  5
A9
102
{ACAD_REACTORS
330
A7
102
}
330
A7
100
AcDbXrecord
280
     1
340
26
  0
XRECORD
  5
A8
102
{ACAD_REACTORS
330
A7
102
}
330
A7
100
AcDbXrecord
280
     1
340
25
  0
DICTIONARYVAR
  5
A3
102
{ACAD_REACTORS
330
A1
102
}
330
A1
100
DictionaryVariables
280
     0
  1
2
  0
DICTIONARYVAR
  5
A2
102
{ACAD_REACTORS
330
A1
102
}
330
A1
100
DictionaryVariables
280
     0
  1
1
  0
DICTIONARYVAR
  5
A4
102
{ACAD_REACTORS
330
A1
102
}
330
A1
100
DictionaryVariables
280
     0
  1

  0
XRECORD
  5
A0
102
{ACAD_REACTORS
330
9E
102
}
330
9E
100
AcDbXrecord
280
     1
  0
DICTIONARY
  5
AC
330
F
100
AcDbDictionary
280
     1
281
     1
  3
ACAD_XREC_ROUNDTRIP
360
AD
  0
DICTIONARY
  5
AA
330
A
100
AcDbDictionary
280
     1
281
     1
  3
ACAD_XREC_ROUNDTRIP
360
AB
  0
XRECORD
  5
AD
102
{ACAD_REACTORS
330
AC
102
}
330
AC
100
AcDbXrecord
280
     1
102
SHADEPLOT
 70
     0
102
SHADEPLOTRESLEVEL
 70
     2
102
SHADEPLOTCUSTOMDPI
 70
   300
  0
XRECORD
  5
AB
102
{ACAD_REACTORS
330
AA
102
}
330
AA
100
AcDbXrecord
280
     1
102
SHADEPLOT
 70
     0
102
SHADEPLOTRESLEVEL
 70
     2
102
SHADEPLOTCUSTOMDPI
 70
   300
  0
ENDSEC
  0
EOF
