  0
SECTION
  2
HEADER
  9
$ACADVER
  1
AC1015
  9
$ACADMAINTVER
 70
    20
  9
$DWGCODEPAGE
  3
ANSI_1252
  9
$INSBASE
 10
0.5431296442935718
 20
10.68795317483176
 30
0.0
  9
$EXTMIN
 10
-54.4333333333334
 20
-13.43819265933151
 30
0.0
  9
$EXTMAX
 10
141.8137230141014
 20
228.4867583873517
 30
0.0
  9
$LIMMIN
 10
0.0
 20
0.0
  9
$LIMMAX
 10
420.0
 20
297.0
  9
$ORTHOMODE
 70
     1
  9
$REGENMODE
 70
     1
  9
$FILLMODE
 70
     1
  9
$QTEXTMODE
 70
     0
  9
$MIRRTEXT
 70
     1
  9
$LTSCALE
 40
0.5
  9
$ATTMODE
 70
     1
  9
$TEXTSIZE
 40
2.5
  9
$TRACEWID
 40
1.0
  9
$TEXTSTYLE
  7
Standard
  9
$CLAYER
  8
0
  9
$CELTYPE
  6
ByLayer
  9
$CECOLOR
 62
   256
  9
$CELTSCALE
 40
1.0
  9
$DISPSILH
 70
     0
  9
$DIMSCALE
 40
1.0
  9
$DIMASZ
 40
3.5
  9
$DIMEXO
 40
0.0
  9
$DIMDLI
 40
10.0
  9
$DIMRND
 40
0.0
  9
$DIMDLE
 40
0.0
  9
$DIMEXE
 40
2.0
  9
$DIMTP
 40
0.0
  9
$DIMTM
 40
0.000000001
  9
$DIMTXT
 40
3.5
  9
$DIMCEN
 40
1.5
  9
$DIMTSZ
 40
0.0
  9
$DIMTOL
 70
     0
  9
$DIMLIM
 70
     0
  9
$DIMTIH
 70
     0
  9
$DIMTOH
 70
     0
  9
$DIMSE1
 70
     0
  9
$DIMSE2
 70
     0
  9
$DIMTAD
 70
     1
  9
$DIMZIN
 70
     8
  9
$DIMBLK
  1

  9
$DIMASO
 70
     1
  9
$DIMSHO
 70
     1
  9
$DIMPOST
  1

  9
$DIMAPOST
  1

  9
$DIMALT
 70
     0
  9
$DIMALTD
 70
     2
  9
$DIMALTF
 40
25.4
  9
$DIMLFAC
 40
1.0
  9
$DIMTOFL
 70
     1
  9
$DIMTVP
 40
0.0
  9
$DIMTIX
 70
     0
  9
$DIMSOXD
 70
     0
  9
$DIMSAH
 70
     0
  9
$DIMBLK1
  1

  9
$DIMBLK2
  1

  9
$DIMSTYLE
  2
1zu1
  9
$DIMCLRD
 70
   256
  9
$DIMCLRE
 70
   256
  9
$DIMCLRT
 70
     7
  9
$DIMTFAC
 40
0.7
  9
$DIMGAP
 40
1.5
  9
$DIMJUST
 70
     0
  9
$DIMSD1
 70
     0
  9
$DIMSD2
 70
     0
  9
$DIMTOLJ
 70
     1
  9
$DIMTZIN
 70
     8
  9
$DIMALTZ
 70
     0
  9
$DIMALTTZ
 70
     0
  9
$DIMUPT
 70
     0
  9
$DIMDEC
 70
     2
  9
$DIMTDEC
 70
     2
  9
$DIMALTU
 70
     2
  9
$DIMALTTD
 70
     2
  9
$DIMTXSTY
  7
ROMANS
  9
$DIMAUNIT
 70
     0
  9
$DIMADEC
 70
     2
  9
$DIMALTRND
 40
0.0
  9
$DIMAZIN
 70
     2
  9
$DIMDSEP
 70
    46
  9
$DIMATFIT
 70
     3
  9
$DIMFRAC
 70
     0
  9
$DIMLDRBLK
  1

  9
$DIMLUNIT
 70
     2
  9
$DIMLWD
 70
    -1
  9
$DIMLWE
 70
    -1
  9
$DIMTMOVE
 70
     0
  9
$LUNITS
 70
     2
  9
$LUPREC
 70
     4
  9
$SKETCHINC
 40
1.0
  9
$FILLETRAD
 40
0.25
  9
$AUNITS
 70
     0
  9
$AUPREC
 70
     0
  9
$MENU
  1
.
  9
$ELEVATION
 40
0.0
  9
$PELEVATION
 40
0.0
  9
$THICKNESS
 40
0.0
  9
$LIMCHECK
 70
     0
  9
$CHAMFERA
 40
10.0
  9
$CHAMFERB
 40
10.0
  9
$CHAMFERC
 40
20.0
  9
$CHAMFERD
 40
0.0
  9
$SKPOLY
 70
     0
  9
$TDCREATE
 40
2452694.801882592
  9
$TDUCREATE
 40
2452694.718549260
  9
$TDUPDATE
 40
2456903.595503090
  9
$TDUUPDATE
 40
2456903.512169757
  9
$TDINDWG
 40
10.5458231713
  9
$TDUSRTIMER
 40
10.5458231713
  9
$USRTIMER
 70
     1
  9
$ANGBASE
 50
0.0
  9
$ANGDIR
 70
     0
  9
$PDMODE
 70
     0
  9
$PDSIZE
 40
0.0
  9
$PLINEWID
 40
0.0
  9
$SPLFRAME
 70
     0
  9
$SPLINETYPE
 70
     6
  9
$SPLINESEGS
 70
     8
  9
$HANDSEED
  5
1295
  9
$SURFTAB1
 70
     6
  9
$SURFTAB2
 70
     6
  9
$SURFTYPE
 70
     6
  9
$SURFU
 70
     6
  9
$SURFV
 70
     6
  9
$UCSBASE
  2

  9
$UCSNAME
  2

  9
$UCSORG
 10
0.0
 20
0.0
 30
0.0
  9
$UCSXDIR
 10
1.0
 20
0.0
 30
0.0
  9
$UCSYDIR
 10
0.0
 20
1.0
 30
0.0
  9
$UCSORTHOREF
  2

  9
$UCSORTHOVIEW
 70
     0
  9
$UCSORGTOP
 10
0.0
 20
0.0
 30
0.0
  9
$UCSORGBOTTOM
 10
0.0
 20
0.0
 30
0.0
  9
$UCSORGLEFT
 10
0.0
 20
0.0
 30
0.0
  9
$UCSORGRIGHT
 10
0.0
 20
0.0
 30
0.0
  9
$UCSORGFRONT
 10
0.0
 20
0.0
 30
0.0
  9
$UCSORGBACK
 10
0.0
 20
0.0
 30
0.0
  9
$PUCSBASE
  2

  9
$PUCSNAME
  2

  9
$PUCSORG
 10
0.0
 20
0.0
 30
0.0
  9
$PUCSXDIR
 10
1.0
 20
0.0
 30
0.0
  9
$PUCSYDIR
 10
0.0
 20
1.0
 30
0.0
  9
$PUCSORTHOREF
  2

  9
$PUCSORTHOVIEW
 70
     0
  9
$PUCSORGTOP
 10
0.0
 20
0.0
 30
0.0
  9
$PUCSORGBOTTOM
 10
0.0
 20
0.0
 30
0.0
  9
$PUCSORGLEFT
 10
0.0
 20
0.0
 30
0.0
  9
$PUCSORGRIGHT
 10
0.0
 20
0.0
 30
0.0
  9
$PUCSORGFRONT
 10
0.0
 20
0.0
 30
0.0
  9
$PUCSORGBACK
 10
0.0
 20
0.0
 30
0.0
  9
$USERI1
 70
     0
  9
$USERI2
 70
     0
  9
$USERI3
 70
     0
  9
$USERI4
 70
     0
  9
$USERI5
 70
     0
  9
$USERR1
 40
3.0
  9
$USERR2
 40
1.0
  9
$USERR3
 40
1.0
  9
$USERR4
 40
0.0
  9
$USERR5
 40
0.0
  9
$WORLDVIEW
 70
     1
  9
$SHADEDGE
 70
     3
  9
$SHADEDIF
 70
    70
  9
$TILEMODE
 70
     1
  9
$MAXACTVP
 70
    64
  9
$PINSBASE
 10
0.0
 20
0.0
 30
0.0
  9
$PLIMCHECK
 70
     0
  9
$PEXTMIN
 10
0.0
 20
0.0
 30
0.0
  9
$PEXTMAX
 10
420.0
 20
297.0
 30
0.0
  9
$PLIMMIN
 10
-12.74318078855802
 20
-6.351582024086956
  9
$PLIMMAX
 10
432.7567981061398
 20
308.6868943834866
  9
$UNITMODE
 70
     0
  9
$VISRETAIN
 70
     1
  9
$PLINEGEN
 70
     0
  9
$PSLTSCALE
 70
     1
  9
$TREEDEPTH
 70
  3020
  9
$CMLSTYLE
  2
Standard
  9
$CMLJUST
 70
     0
  9
$CMLSCALE
 40
20.0
  9
$PROXYGRAPHICS
 70
     1
  9
$MEASUREMENT
 70
     1
  9
$CELWEIGHT
370
    -1
  9
$ENDCAPS
280
     0
  9
$JOINSTYLE
280
     0
  9
$LWDISPLAY
290
     0
  9
$INSUNITS
 70
     4
  9
$HYPERLINKBASE
  1

  9
$STYLESHEET
  1
mittel.ctb
  9
$XEDIT
290
     1
  9
$CEPSNTYPE
380
     0
  9
$PSTYLEMODE
290
     1
  9
$FINGERPRINTGUID
  2
{E6FFC3F2-70B4-4732-BDD3-06AAED10F260}
  9
$VERSIONGUID
  2
{3616853D-15F2-43CF-ACAD-11B85CD9396B}
  9
$EXTNAMES
290
     1
  9
$PSVPSCALE
 40
0.0
  9
$OLESTARTUP
290
     0
  0
ENDSEC
  0
SECTION
  2
CLASSES
  0
CLASS
  1
ACDBDICTIONARYWDFLT
  2
AcDbDictionaryWithDefault
  3
ObjectDBX Classes
 90
        0
280
     0
281
     0
  0
CLASS
  1
ACDBPLACEHOLDER
  2
AcDbPlaceHolder
  3
ObjectDBX Classes
 90
        0
280
     0
281
     0
  0
CLASS
  1
LAYOUT
  2
AcDbLayout
  3
ObjectDBX Classes
 90
        0
280
     0
281
     0
  0
CLASS
  1
DICTIONARYVAR
  2
AcDbDictionaryVar
  3
ObjectDBX Classes
 90
        0
280
     0
281
     0
  0
CLASS
  1
DIMASSOC
  2
AcDbDimAssoc
  3
"AcDbDimAssoc|Product Desc:     AcDim ARX App For Dimension|Company:          Autodesk, Inc.|WEB Address:      www.autodesk.com"
 90
        0
280
     0
281
     0
  0
ENDSEC
  0
SECTION
  2
TABLES
  0
TABLE
  2
VPORT
  5
19
330
0
100
AcDbSymbolTable
 70
     8
  0
VPORT
  5
128D
330
19
100
AcDbSymbolTableRecord
100
AcDbViewportTableRecord
  2
*Active
 70
     0
 10
0.0
 20
0.0
 11
1.0
 21
1.0
 12
59.43482590346869
 22
105.0713913302128
 13
0.0
 23
0.0
 14
10.0
 24
10.0
 15
10.0
 25
10.0
 16
0.0
 26
0.0
 36
1.0
 17
0.0
 27
0.0
 37
0.0
 40
263.1355724629493
 41
2.031903190319031
 42
50.0
 43
0.0
 44
0.0
 50
0.0
 51
0.0
 71
     0
 72
   100
 73
     1
 74
     3
 75
     0
 76
     0
 77
     0
 78
     2
281
     0
 65
     1
110
0.0
120
0.0
130
0.0
111
1.0
121
0.0
131
0.0
112
0.0
122
1.0
132
0.0
 79
     0
146
0.0
  0
ENDTAB
  0
TABLE
  2
LTYPE
  5
14
330
0
100
AcDbSymbolTable
 70
     3
  0
LTYPE
  5
15
330
14
100
AcDbSymbolTableRecord
100
AcDbLinetypeTableRecord
  2
ByBlock
 70
     0
  3

 72
    65
 73
     0
 40
0.0
  0
LTYPE
  5
16
330
14
100
AcDbSymbolTableRecord
100
AcDbLinetypeTableRecord
  2
ByLayer
 70
     0
  3

 72
    65
 73
     0
 40
0.0
  0
LTYPE
  5
8
330
14
100
AcDbSymbolTableRecord
100
AcDbLinetypeTableRecord
  2
Continuous
 70
     0
  3
Solid line
 72
    65
 73
     0
 40
0.0
  0
LTYPE
  5
67
330
14
100
AcDbSymbolTableRecord
100
AcDbLinetypeTableRecord
  2
ACAD_ISO04W100
 70
     0
  3
ISO Lang gestrichelt punktiert ____ . ____ . __
 72
    65
 73
     4
 40
30.0
 49
24.0
 74
     0
 49
-3.0
 74
     0
 49
0.0
 74
     0
 49
-3.0
 74
     0
  0
LTYPE
  5
81
330
14
100
AcDbSymbolTableRecord
100
AcDbLinetypeTableRecord
  2
VERDECKT
 70
     0
  3
Verdeckt __ __ __ __ __ __ __ __ __ __ __ __ __
 72
    65
 73
     2
 40
9.524999999999998
 49
6.349999999999999
 74
     0
 49
-3.174999999999999
 74
     0
  0
ENDTAB
  0
TABLE
  2
LAYER
  5
10
330
0
100
AcDbSymbolTable
 70
     5
  0
LAYER
  5
4
330
10
100
AcDbSymbolTableRecord
100
AcDbLayerTableRecord
  2
0
 70
     0
 62
     7
  6
Continuous
370
    -3
390
5
  0
LAYER
  5
30
330
10
100
AcDbSymbolTableRecord
100
AcDbLayerTableRecord
  2
Defpoints
 70
     0
 62
     7
  6
Continuous
290
     0
370
    -3
390
5
  0
LAYER
  5
25
330
10
100
AcDbSymbolTableRecord
100
AcDbLayerTableRecord
  2
BEM
 70
     0
 62
     3
  6
Continuous
370
    -3
390
5
  0
LAYER
  5
80
330
10
100
AcDbSymbolTableRecord
100
AcDbLayerTableRecord
  2
ver1
 70
     0
 62
     8
  6
VERDECKT
370
    -3
390
5
  0
LAYER
  5
66
330
10
100
AcDbSymbolTableRecord
100
AcDbLayerTableRecord
  2
sym1
 70
     0
 62
     6
  6
ACAD_ISO04W100
370
    -3
390
5
  0
ENDTAB
  0
TABLE
  2
STYLE
  5
11
330
0
100
AcDbSymbolTable
 70
     3
  0
STYLE
  5
12
330
11
100
AcDbSymbolTableRecord
100
AcDbTextStyleTableRecord
  2
Standard
 70
     0
 40
0.0
 41
1.0
 50
0.0
 71
     0
 42
2.5
  3
txt
  4

  0
STYLE
  5
1F
330
11
100
AcDbSymbolTableRecord
100
AcDbTextStyleTableRecord
  2
ROMANS
 70
     0
 40
0.0
 41
1.0
 50
0.0
 71
     0
 42
3.5
  3
C:\ACAD13\COM\FONTS\ROMANS.SHX
  4

  0
STYLE
  5
D1A
330
11
100
AcDbSymbolTableRecord
100
AcDbTextStyleTableRecord
  2
Arial
 70
     0
 40
0.0
 41
1.0
 50
0.0
 71
     0
 42
2.5
  3
ARIAL.TTF
  4

1001
ACAD
1000
Arial
1071
       34
  0
ENDTAB
  0
TABLE
  2
VIEW
  5
17
330
0
100
AcDbSymbolTable
 70
     0
  0
ENDTAB
  0
TABLE
  2
UCS
  5
18
330
0
100
AcDbSymbolTable
 70
     0
  0
ENDTAB
  0
TABLE
  2
APPID
  5
1B
330
0
100
AcDbSymbolTable
 70
     1
  0
APPID
  5
1C
330
1B
100
AcDbSymbolTableRecord
100
AcDbRegAppTableRecord
  2
ACAD
 70
     0
  0
ENDTAB
  0
TABLE
  2
DIMSTYLE
  5
1D
330
0
100
AcDbSymbolTable
 70
     2
100
AcDbDimStyleTable
 71
     2
340
1E
340
20
  0
DIMSTYLE
105
20
330
1D
100
AcDbSymbolTableRecord
100
AcDbDimStyleTableRecord
  2
ISO-25
 70
     0
 41
2.5
 42
0.625
 43
3.75
 44
1.25
 73
     0
 74
     0
 77
     1
 78
     8
140
2.5
141
2.5
143
0.03937007874016
147
0.625
171
     3
172
     1
271
     2
272
     2
274
     3
278
    44
283
     0
284
     8
340
12
  0
DIMSTYLE
105
1E
102
{ACAD_REACTORS
330
93
330
84
330
C1
330
12C
330
FD
330
179
330
16A
330
B1
330
D9
330
35
330
27
330
51
330
D23
330
D54
330
DCE
330
E0A
330
F28
330
F59
330
FD2
330
FFA
330
1117
330
1101
330
1148
330
115D
102
}
330
1D
100
AcDbSymbolTableRecord
100
AcDbDimStyleTableRecord
  2
1zu1
 70
     0
 41
3.5
 42
0.0
 43
10.0
 44
2.0
 48
0.000000001
 73
     0
 74
     0
 77
     1
 78
     8
 79
     2
140
3.5
141
1.5
146
0.7
147
1.5
172
     1
176
   256
177
   256
178
     7
179
     2
271
     2
272
     2
284
     8
340
1F
371
    -1
372
    -1
  0
ENDTAB
  0
TABLE
  2
BLOCK_RECORD
  5
1
330
0
100
AcDbSymbolTable
 70
    27
  0
BLOCK_RECORD
  5
2
330
1
100
AcDbSymbolTableRecord
100
AcDbBlockTableRecord
  2
*Model_Space
340
A
  0
BLOCK_RECORD
  5
C
330
1
100
AcDbSymbolTableRecord
100
AcDbBlockTableRecord
  2
*Paper_Space
340
F
  0
BLOCK_RECORD
  5
1D2
330
1
100
AcDbSymbolTableRecord
100
AcDbBlockTableRecord
  2
*D0
340
0
  0
BLOCK_RECORD
  5
1E0
330
1
100
AcDbSymbolTableRecord
100
AcDbBlockTableRecord
  2
*D1
340
0
  0
BLOCK_RECORD
  5
218
330
1
100
AcDbSymbolTableRecord
100
AcDbBlockTableRecord
  2
*D2
340
0
  0
BLOCK_RECORD
  5
224
330
1
100
AcDbSymbolTableRecord
100
AcDbBlockTableRecord
  2
*D3
340
0
  0
BLOCK_RECORD
  5
258
330
1
100
AcDbSymbolTableRecord
100
AcDbBlockTableRecord
  2
*D4
340
0
  0
BLOCK_RECORD
  5
296
330
1
100
AcDbSymbolTableRecord
100
AcDbBlockTableRecord
  2
*D5
340
0
  0
BLOCK_RECORD
  5
2A2
330
1
100
AcDbSymbolTableRecord
100
AcDbBlockTableRecord
  2
*D6
340
0
  0
BLOCK_RECORD
  5
30E
330
1
100
AcDbSymbolTableRecord
100
AcDbBlockTableRecord
  2
*D7
340
0
  0
BLOCK_RECORD
  5
332
330
1
100
AcDbSymbolTableRecord
100
AcDbBlockTableRecord
  2
*D8
340
0
  0
BLOCK_RECORD
  5
477
330
1
100
AcDbSymbolTableRecord
100
AcDbBlockTableRecord
  2
*D9
340
0
  0
BLOCK_RECORD
  5
4A9
330
1
100
AcDbSymbolTableRecord
100
AcDbBlockTableRecord
  2
*D10
340
0
  0
BLOCK_RECORD
  5
4C8
330
1
100
AcDbSymbolTableRecord
100
AcDbBlockTableRecord
  2
*D11
340
0
  0
BLOCK_RECORD
  5
D2A
330
1
100
AcDbSymbolTableRecord
100
AcDbBlockTableRecord
  2
*D12
340
0
  0
BLOCK_RECORD
  5
D55
330
1
100
AcDbSymbolTableRecord
100
AcDbBlockTableRecord
  2
*D13
340
0
  0
BLOCK_RECORD
  5
DCF
330
1
100
AcDbSymbolTableRecord
100
AcDbBlockTableRecord
  2
*D14
340
0
  0
BLOCK_RECORD
  5
E0B
330
1
100
AcDbSymbolTableRecord
100
AcDbBlockTableRecord
  2
*D15
340
0
  0
BLOCK_RECORD
  5
F29
330
1
100
AcDbSymbolTableRecord
100
AcDbBlockTableRecord
  2
*D16
340
0
  0
BLOCK_RECORD
  5
F5A
330
1
100
AcDbSymbolTableRecord
100
AcDbBlockTableRecord
  2
*D17
340
0
  0
BLOCK_RECORD
  5
FD3
330
1
100
AcDbSymbolTableRecord
100
AcDbBlockTableRecord
  2
*D18
340
0
  0
BLOCK_RECORD
  5
FFB
330
1
100
AcDbSymbolTableRecord
100
AcDbBlockTableRecord
  2
*D19
340
0
  0
BLOCK_RECORD
  5
1102
330
1
100
AcDbSymbolTableRecord
100
AcDbBlockTableRecord
  2
*D20
340
0
  0
BLOCK_RECORD
  5
1118
330
1
100
AcDbSymbolTableRecord
100
AcDbBlockTableRecord
  2
*D21
340
0
  0
BLOCK_RECORD
  5
1149
330
1
100
AcDbSymbolTableRecord
100
AcDbBlockTableRecord
  2
*D22
340
0
  0
BLOCK_RECORD
  5
115E
330
1
100
AcDbSymbolTableRecord
100
AcDbBlockTableRecord
  2
*D23
340
0
  0
BLOCK_RECORD
  5
11B7
330
1
100
AcDbSymbolTableRecord
100
AcDbBlockTableRecord
  2
*D25
340
0
  0
BLOCK_RECORD
  5
11CF
330
1
100
AcDbSymbolTableRecord
100
AcDbBlockTableRecord
  2
*D26
340
0
  0
ENDTAB
  0
ENDSEC
  0
SECTION
  2
BLOCKS
  0
BLOCK
  5
3
330
2
100
AcDbEntity
  8
0
100
AcDbBlockBegin
  2
*Model_Space
 70
     0
 10
0.0
 20
0.0
 30
0.0
  3
*Model_Space
  1

  0
ENDBLK
  5
9
330
2
100
AcDbEntity
  8
0
100
AcDbBlockEnd
  0
BLOCK
  5
D
330
C
100
AcDbEntity
 67
     1
  8
0
100
AcDbBlockBegin
  2
*Paper_Space
 70
     0
 10
0.0
 20
0.0
 30
0.0
  3
*Paper_Space
  1

  0
ENDBLK
  5
E
330
C
100
AcDbEntity
 67
     1
  8
0
100
AcDbBlockEnd
  0
BLOCK
  5
1DE
330
1D2
100
AcDbEntity
  8
0
100
AcDbBlockBegin
  2
*D0
 70
     1
 10
0.0
 20
0.0
 30
0.0
  3
*D0
  1

  0
LINE
  5
1266
330
1D2
100
AcDbEntity
  8
BEM
100
AcDbLine
 10
39.39999999999992
 20
122.5
 30
0.0
 11
39.39999999999992
 21
102.3515213731618
 31
0.0
  0
LINE
  5
1267
330
1D2
100
AcDbEntity
  8
BEM
100
AcDbLine
 10
39.64999999999991
 20
122.5
 30
0.0
 11
39.64999999999991
 21
102.3515213731618
 31
0.0
  0
LINE
  5
1268
330
1D2
100
AcDbEntity
  8
BEM
100
AcDbLine
 10
43.14999999999991
 20
104.3515213731618
 30
0.0
 11
46.64999999999991
 21
104.3515213731618
 31
0.0
  0
LINE
  5
1269
330
1D2
100
AcDbEntity
  8
BEM
100
AcDbLine
 10
35.89999999999991
 20
104.3515213731618
 30
0.0
 11
-54.4333333333334
 21
104.3515213731618
 31
0.0
  0
LINE
  5
126A
330
1D2
100
AcDbEntity
  8
BEM
100
AcDbLine
 10
39.64999999999991
 20
104.3515213731618
 30
0.0
 11
39.39999999999992
 21
104.3515213731618
 31
0.0
  0
SOLID
  5
126B
330
1D2
100
AcDbEntity
  8
BEM
100
AcDbTrace
 10
43.14999999999991
 20
104.9348547064952
 30
0.0
 11
43.14999999999991
 21
103.7681880398285
 31
0.0
 12
39.64999999999991
 22
104.3515213731618
 32
0.0
 13
39.64999999999991
 23
104.3515213731618
 33
0.0
  0
SOLID
  5
126C
330
1D2
100
AcDbEntity
  8
BEM
100
AcDbTrace
 10
35.89999999999991
 20
104.9348547064952
 30
0.0
 11
35.89999999999991
 21
103.7681880398285
 31
0.0
 12
39.39999999999992
 22
104.3515213731618
 32
0.0
 13
39.39999999999992
 23
104.3515213731618
 33
0.0
  0
MTEXT
  5
126D
330
1D2
100
AcDbEntity
  8
BEM
 62
     7
100
AcDbMText
 10
-11.01666666666674
 20
108.5181880398285
 30
0.0
 40
3.5
 41
0.0
 71
     5
 72
     1
  1
\A1;Fase / Chamfer 0.25\C7;\H3.5;x45° (4x)
  7
ROMANS
 73
     1
 44
1.0
1001
ACAD
1000
MTEXTBEGIN
1070
    73
1070
     1
1070
    44
1040
1.0
1070
    74
1070
     0
1000
MTEXTEND
  0
POINT
  5
126E
330
1D2
100
AcDbEntity
  8
Defpoints
 62
     0
100
AcDbPoint
 10
39.39999999999992
 20
122.5
 30
0.0
  0
POINT
  5
126F
330
1D2
100
AcDbEntity
  8
Defpoints
 62
     0
100
AcDbPoint
 10
39.64999999999991
 20
122.5
 30
0.0
  0
POINT
  5
1270
330
1D2
100
AcDbEntity
  8
Defpoints
 62
     0
100
AcDbPoint
 10
39.64999999999991
 20
104.3515213731618
 30
0.0
  0
ENDBLK
  5
1DF
330
1D2
100
AcDbEntity
  8
0
100
AcDbBlockEnd
  0
BLOCK
  5
1EA
330
1E0
100
AcDbEntity
  8
0
100
AcDbBlockBegin
  2
*D1
 70
     1
 10
0.0
 20
0.0
 30
0.0
  3
*D1
  1

  0
LINE
  5
127B
330
1E0
100
AcDbEntity
  8
BEM
100
AcDbLine
 10
19.80462909417835
 20
150.3309606755152
 30
0.0
 11
31.80462909417837
 21
150.3309606755152
 31
0.0
  0
LINE
  5
127C
330
1E0
100
AcDbEntity
  8
BEM
100
AcDbLine
 10
31.80462909417837
 20
150.3309606755152
 30
0.0
 11
34.32382659033677
 21
146.867141224159
 31
0.0
  0
LINE
  5
127D
330
1E0
100
AcDbEntity
  8
BEM
100
AcDbLine
 10
40.67617340966304
 20
138.132858775841
 30
0.0
 11
42.73480432333358
 21
135.3023042787009
 31
0.0
  0
MTEXT
  5
127E
330
1E0
100
AcDbEntity
  8
BEM
 62
     7
100
AcDbMText
 10
25.05462909417837
 20
153.5809606755152
 30
0.0
 40
3.5
 41
0.0
 71
     5
 72
     1
  1
\A1;%%c3.8\C7;\H3.5;
  7
ROMANS
 73
     1
 44
1.0
1001
ACAD
1000
MTEXTBEGIN
1070
    73
1070
     1
1070
    44
1040
1.0
1070
    74
1070
     0
1000
MTEXTEND
  0
LINE
  5
127F
330
1E0
100
AcDbEntity
  8
BEM
100
AcDbLine
 10
38.6175424959925
 20
140.9634132729811
 30
0.0
 11
36.38245750400731
 21
144.0365867270189
 31
0.0
  0
SOLID
  5
1280
330
1E0
100
AcDbEntity
  8
BEM
100
AcDbTrace
 10
41.14793249251972
 20
138.4759639281194
 30
0.0
 11
40.20441432680637
 21
137.7897536235626
 31
0.0
 12
38.6175424959925
 22
140.9634132729811
 32
0.0
 13
38.6175424959925
 23
140.9634132729811
 33
0.0
  0
SOLID
  5
1281
330
1E0
100
AcDbEntity
  8
BEM
100
AcDbTrace
 10
34.79558567319345
 20
147.2102463764374
 30
0.0
 11
33.8520675074801
 21
146.5240360718806
 31
0.0
 12
36.38245750400731
 22
144.0365867270189
 32
0.0
 13
36.38245750400731
 23
144.0365867270189
 33
0.0
  0
POINT
  5
1282
330
1E0
100
AcDbEntity
  8
Defpoints
 62
     0
100
AcDbPoint
 10
36.38245750400731
 20
144.0365867270189
 30
0.0
  0
POINT
  5
1283
330
1E0
100
AcDbEntity
  8
Defpoints
 62
     0
100
AcDbPoint
 10
38.6175424959925
 20
140.9634132729811
 30
0.0
  0
ENDBLK
  5
1EB
330
1E0
100
AcDbEntity
  8
0
100
AcDbBlockEnd
  0
BLOCK
  5
222
330
218
100
AcDbEntity
  8
0
100
AcDbBlockBegin
  2
*D2
 70
     1
 10
0.0
 20
0.0
 30
0.0
  3
*D2
  1

  0
LINE
  5
10ED
330
218
100
AcDbEntity
  8
BEM
100
AcDbLine
 10
117.4999999999999
 20
42.5
 30
0.0
 11
139.1610005550969
 21
42.5
 31
0.0
  0
LINE
  5
10EE
330
218
100
AcDbEntity
  8
BEM
100
AcDbLine
 10
117.4999999999999
 20
62.5
 30
0.0
 11
139.1610005550969
 21
62.5
 31
0.0
  0
LINE
  5
10EF
330
218
100
AcDbEntity
  8
BEM
100
AcDbLine
 10
137.1610005550969
 20
46.0
 30
0.0
 11
137.1610005550969
 21
59.0
 31
0.0
  0
SOLID
  5
10F0
330
218
100
AcDbEntity
  8
BEM
100
AcDbTrace
 10
136.5776672217636
 20
46.0
 30
0.0
 11
137.7443338884303
 21
46.0
 31
0.0
 12
137.1610005550969
 22
42.5
 32
0.0
 13
137.1610005550969
 23
42.5
 33
0.0
  0
SOLID
  5
10F1
330
218
100
AcDbEntity
  8
BEM
100
AcDbTrace
 10
136.5776672217636
 20
59.0
 30
0.0
 11
137.7443338884303
 21
59.0
 31
0.0
 12
137.1610005550969
 22
62.5
 32
0.0
 13
137.1610005550969
 23
62.5
 33
0.0
  0
MTEXT
  5
10F2
330
218
100
AcDbEntity
  8
BEM
 62
     7
100
AcDbMText
 10
133.9110005550969
 20
52.50000000000002
 30
0.0
 40
3.5
 41
0.0
 71
     5
 72
     1
  1
\A1;20
  7
ROMANS
 11
0.0000000000000001
 21
1.0
 31
0.0
 73
     1
 44
1.0
1001
ACAD
1000
MTEXTBEGIN
1070
    73
1070
     1
1070
    44
1040
1.0
1070
    74
1070
     0
1000
MTEXTEND
  0
POINT
  5
10F3
330
218
100
AcDbEntity
  8
Defpoints
 62
     0
100
AcDbPoint
 10
117.4999999999999
 20
42.5
 30
0.0
  0
POINT
  5
10F4
330
218
100
AcDbEntity
  8
Defpoints
 62
     0
100
AcDbPoint
 10
117.4999999999999
 20
62.5
 30
0.0
  0
POINT
  5
10F5
330
218
100
AcDbEntity
  8
Defpoints
 62
     0
100
AcDbPoint
 10
137.1610005550969
 20
62.5
 30
0.0
  0
ENDBLK
  5
223
330
218
100
AcDbEntity
  8
0
100
AcDbBlockEnd
  0
BLOCK
  5
230
330
224
100
AcDbEntity
  8
0
100
AcDbBlockBegin
  2
*D3
 70
     1
 10
0.0
 20
0.0
 30
0.0
  3
*D3
  1

  0
LINE
  5
10F6
330
224
100
AcDbEntity
  8
BEM
100
AcDbLine
 10
117.4999999999999
 20
66.00000000000001
 30
0.0
 11
139.1610005550969
 21
66.00000000000001
 31
0.0
  0
LINE
  5
10F7
330
224
100
AcDbEntity
  8
BEM
100
AcDbLine
 10
117.4999999999999
 20
62.5
 30
0.0
 11
139.1610005550969
 21
62.5
 31
0.0
  0
LINE
  5
10F8
330
224
100
AcDbEntity
  8
BEM
100
AcDbLine
 10
137.1610005550969
 20
59.0
 30
0.0
 11
137.1610005550969
 21
55.5
 31
0.0
  0
LINE
  5
10F9
330
224
100
AcDbEntity
  8
BEM
100
AcDbLine
 10
137.1610005550969
 20
69.50000000000001
 30
0.0
 11
137.1610005550969
 21
85.10850489231698
 31
0.0
  0
LINE
  5
10FA
330
224
100
AcDbEntity
  8
BEM
100
AcDbLine
 10
137.1610005550969
 20
62.5
 30
0.0
 11
137.1610005550969
 21
66.00000000000001
 31
0.0
  0
SOLID
  5
10FB
330
224
100
AcDbEntity
  8
BEM
100
AcDbTrace
 10
136.5776672217635
 20
59.0
 30
0.0
 11
137.7443338884302
 21
59.0
 31
0.0
 12
137.1610005550969
 22
62.5
 32
0.0
 13
137.1610005550969
 23
62.5
 33
0.0
  0
SOLID
  5
10FC
330
224
100
AcDbEntity
  8
BEM
100
AcDbTrace
 10
136.5776672217636
 20
69.50000000000001
 30
0.0
 11
137.7443338884303
 21
69.50000000000001
 31
0.0
 12
137.1610005550969
 22
66.00000000000001
 32
0.0
 13
137.1610005550969
 23
66.00000000000001
 33
0.0
  0
MTEXT
  5
10FD
330
224
100
AcDbEntity
  8
BEM
 62
     7
100
AcDbMText
 10
133.9110005550969
 20
79.94183822565033
 30
0.0
 40
3.5
 41
0.0
 71
     5
 72
     1
  1
\A1;3.5
  7
ROMANS
 11
0.0000000000000001
 21
1.0
 31
0.0
 73
     1
 44
1.0
1001
ACAD
1000
MTEXTBEGIN
1070
    73
1070
     1
1070
    44
1040
1.0
1070
    74
1070
     0
1000
MTEXTEND
  0
POINT
  5
10FE
330
224
100
AcDbEntity
  8
Defpoints
 62
     0
100
AcDbPoint
 10
117.4999999999999
 20
66.00000000000001
 30
0.0
  0
POINT
  5
10FF
330
224
100
AcDbEntity
  8
Defpoints
 62
     0
100
AcDbPoint
 10
117.4999999999999
 20
62.5
 30
0.0
  0
POINT
  5
1100
330
224
100
AcDbEntity
  8
Defpoints
 62
     0
100
AcDbPoint
 10
137.1610005550969
 20
62.5
 30
0.0
  0
ENDBLK
  5
231
330
224
100
AcDbEntity
  8
0
100
AcDbBlockEnd
  0
BLOCK
  5
262
330
258
100
AcDbEntity
  8
0
100
AcDbBlockBegin
  2
*D4
 70
     1
 10
0.0
 20
0.0
 30
0.0
  3
*D4
  1

  0
LINE
  5
10E4
330
258
100
AcDbEntity
  8
BEM
100
AcDbLine
 10
117.4999999999999
 20
42.5
 30
0.0
 11
117.4999999999999
 21
19.3869822429076
 31
0.0
  0
LINE
  5
10E5
330
258
100
AcDbEntity
  8
BEM
100
AcDbLine
 10
97.49999999999992
 20
42.50000000000001
 30
0.0
 11
97.49999999999992
 21
19.3869822429076
 31
0.0
  0
LINE
  5
10E6
330
258
100
AcDbEntity
  8
BEM
100
AcDbLine
 10
113.9999999999999
 20
21.38698224290761
 30
0.0
 11
100.9999999999999
 21
21.38698224290761
 31
0.0
  0
SOLID
  5
10E7
330
258
100
AcDbEntity
  8
BEM
100
AcDbTrace
 10
113.9999999999999
 20
21.97031557624094
 30
0.0
 11
113.9999999999999
 21
20.80364890957428
 31
0.0
 12
117.4999999999999
 22
21.38698224290761
 32
0.0
 13
117.4999999999999
 23
21.38698224290761
 33
0.0
  0
SOLID
  5
10E8
330
258
100
AcDbEntity
  8
BEM
100
AcDbTrace
 10
100.9999999999999
 20
21.97031557624094
 30
0.0
 11
100.9999999999999
 21
20.80364890957428
 31
0.0
 12
97.49999999999992
 22
21.38698224290761
 32
0.0
 13
97.49999999999992
 23
21.38698224290761
 33
0.0
  0
MTEXT
  5
10E9
330
258
100
AcDbEntity
  8
BEM
 62
     7
100
AcDbMText
 10
107.4999999999999
 20
24.63698224290761
 30
0.0
 40
3.5
 41
0.0
 71
     5
 72
     1
  1
\A1;20
  7
ROMANS
 73
     1
 44
1.0
1001
ACAD
1000
MTEXTBEGIN
1070
    73
1070
     1
1070
    44
1040
1.0
1070
    74
1070
     0
1000
MTEXTEND
  0
POINT
  5
10EA
330
258
100
AcDbEntity
  8
Defpoints
 62
     0
100
AcDbPoint
 10
117.4999999999999
 20
42.5
 30
0.0
  0
POINT
  5
10EB
330
258
100
AcDbEntity
  8
Defpoints
 62
     0
100
AcDbPoint
 10
97.49999999999992
 20
42.50000000000001
 30
0.0
  0
POINT
  5
10EC
330
258
100
AcDbEntity
  8
Defpoints
 62
     0
100
AcDbPoint
 10
97.49999999999992
 20
21.38698224290761
 30
0.0
  0
ENDBLK
  5
263
330
258
100
AcDbEntity
  8
0
100
AcDbBlockEnd
  0
BLOCK
  5
2A0
330
296
100
AcDbEntity
  8
0
100
AcDbBlockBegin
  2
*D5
 70
     1
 10
0.0
 20
0.0
 30
0.0
  3
*D5
  1

  0
LINE
  5
DEF
330
296
100
AcDbEntity
  8
BEM
100
AcDbLine
 10
97.49999999999992
 20
142.5
 30
0.0
 11
97.49999999999992
 21
165.5390472708287
 31
0.0
  0
LINE
  5
DF0
330
296
100
AcDbEntity
  8
BEM
100
AcDbLine
 10
117.4999999999999
 20
142.5
 30
0.0
 11
117.4999999999999
 21
165.5390472708287
 31
0.0
  0
LINE
  5
DF1
330
296
100
AcDbEntity
  8
BEM
100
AcDbLine
 10
100.9999999999999
 20
163.5390472708287
 30
0.0
 11
113.9999999999999
 21
163.5390472708287
 31
0.0
  0
SOLID
  5
DF2
330
296
100
AcDbEntity
  8
BEM
100
AcDbTrace
 10
100.9999999999999
 20
164.122380604162
 30
0.0
 11
100.9999999999999
 21
162.9557139374953
 31
0.0
 12
97.49999999999992
 22
163.5390472708287
 32
0.0
 13
97.49999999999992
 23
163.5390472708287
 33
0.0
  0
SOLID
  5
DF3
330
296
100
AcDbEntity
  8
BEM
100
AcDbTrace
 10
113.9999999999999
 20
164.122380604162
 30
0.0
 11
113.9999999999999
 21
162.9557139374953
 31
0.0
 12
117.4999999999999
 22
163.5390472708287
 32
0.0
 13
117.4999999999999
 23
163.5390472708287
 33
0.0
  0
MTEXT
  5
DF4
330
296
100
AcDbEntity
  8
BEM
 62
     7
100
AcDbMText
 10
107.4999999999999
 20
166.7890472708287
 30
0.0
 40
3.5
 41
0.0
 71
     5
 72
     1
  1
\A1;20
  7
ROMANS
 73
     1
 44
1.0
1001
ACAD
1000
MTEXTBEGIN
1070
    73
1070
     1
1070
    44
1040
1.0
1070
    74
1070
     0
1000
MTEXTEND
  0
POINT
  5
DF5
330
296
100
AcDbEntity
  8
Defpoints
 62
     0
100
AcDbPoint
 10
97.49999999999992
 20
142.5
 30
0.0
  0
POINT
  5
DF6
330
296
100
AcDbEntity
  8
Defpoints
 62
     0
100
AcDbPoint
 10
117.4999999999999
 20
142.5
 30
0.0
  0
POINT
  5
DF7
330
296
100
AcDbEntity
  8
Defpoints
 62
     0
100
AcDbPoint
 10
117.4999999999999
 20
163.5390472708287
 30
0.0
  0
ENDBLK
  5
2A1
330
296
100
AcDbEntity
  8
0
100
AcDbBlockEnd
  0
BLOCK
  5
2AC
330
2A2
100
AcDbEntity
  8
0
100
AcDbBlockBegin
  2
*D6
 70
     1
 10
0.0
 20
0.0
 30
0.0
  3
*D6
  1

  0
LINE
  5
E01
330
2A2
100
AcDbEntity
  8
BEM
100
AcDbLine
 10
117.4999999999999
 20
122.5
 30
0.0
 11
139.1610005550969
 21
122.5
 31
0.0
  0
LINE
  5
E02
330
2A2
100
AcDbEntity
  8
BEM
100
AcDbLine
 10
117.4999999999999
 20
142.5
 30
0.0
 11
139.1610005550969
 21
142.5
 31
0.0
  0
LINE
  5
E03
330
2A2
100
AcDbEntity
  8
BEM
100
AcDbLine
 10
137.1610005550969
 20
126.0
 30
0.0
 11
137.1610005550969
 21
138.9999999999999
 31
0.0
  0
SOLID
  5
E04
330
2A2
100
AcDbEntity
  8
BEM
100
AcDbTrace
 10
136.5776672217636
 20
126.0
 30
0.0
 11
137.7443338884303
 21
126.0
 31
0.0
 12
137.1610005550969
 22
122.5
 32
0.0
 13
137.1610005550969
 23
122.5
 33
0.0
  0
SOLID
  5
E05
330
2A2
100
AcDbEntity
  8
BEM
100
AcDbTrace
 10
136.5776672217636
 20
138.9999999999999
 30
0.0
 11
137.7443338884303
 21
138.9999999999999
 31
0.0
 12
137.1610005550969
 22
142.5
 32
0.0
 13
137.1610005550969
 23
142.5
 33
0.0
  0
MTEXT
  5
E06
330
2A2
100
AcDbEntity
  8
BEM
 62
     7
100
AcDbMText
 10
133.9110005550969
 20
132.5
 30
0.0
 40
3.5
 41
0.0
 71
     5
 72
     1
  1
\A1;20
  7
ROMANS
 11
0.0000000000000001
 21
1.0
 31
0.0
 73
     1
 44
1.0
1001
ACAD
1000
MTEXTBEGIN
1070
    73
1070
     1
1070
    44
1040
1.0
1070
    74
1070
     0
1000
MTEXTEND
  0
POINT
  5
E07
330
2A2
100
AcDbEntity
  8
Defpoints
 62
     0
100
AcDbPoint
 10
117.4999999999999
 20
122.5
 30
0.0
  0
POINT
  5
E08
330
2A2
100
AcDbEntity
  8
Defpoints
 62
     0
100
AcDbPoint
 10
117.4999999999999
 20
142.5
 30
0.0
  0
POINT
  5
E09
330
2A2
100
AcDbEntity
  8
Defpoints
 62
     0
100
AcDbPoint
 10
137.1610005550969
 20
142.5
 30
0.0
  0
ENDBLK
  5
2AD
330
2A2
100
AcDbEntity
  8
0
100
AcDbBlockEnd
  0
BLOCK
  5
318
330
30E
100
AcDbEntity
  8
0
100
AcDbBlockBegin
  2
*D7
 70
     1
 10
0.0
 20
0.0
 30
0.0
  3
*D7
  1

  0
LINE
  5
FB7
330
30E
100
AcDbEntity
  8
BEM
100
AcDbLine
 10
17.4999999999999
 20
42.50000000000001
 30
0.0
 11
17.4999999999999
 21
19.3869822429076
 31
0.0
  0
LINE
  5
FB8
330
30E
100
AcDbEntity
  8
BEM
100
AcDbLine
 10
37.49999999999992
 20
42.5
 30
0.0
 11
37.49999999999992
 21
19.3869822429076
 31
0.0
  0
LINE
  5
FB9
330
30E
100
AcDbEntity
  8
BEM
100
AcDbLine
 10
20.9999999999999
 20
21.38698224290761
 30
0.0
 11
33.99999999999991
 21
21.38698224290761
 31
0.0
  0
SOLID
  5
FBA
330
30E
100
AcDbEntity
  8
BEM
100
AcDbTrace
 10
20.9999999999999
 20
21.97031557624094
 30
0.0
 11
20.9999999999999
 21
20.80364890957428
 31
0.0
 12
17.4999999999999
 22
21.38698224290761
 32
0.0
 13
17.4999999999999
 23
21.38698224290761
 33
0.0
  0
SOLID
  5
FBB
330
30E
100
AcDbEntity
  8
BEM
100
AcDbTrace
 10
33.99999999999991
 20
21.97031557624094
 30
0.0
 11
33.99999999999991
 21
20.80364890957428
 31
0.0
 12
37.49999999999992
 22
21.38698224290761
 32
0.0
 13
37.49999999999992
 23
21.38698224290761
 33
0.0
  0
MTEXT
  5
FBC
330
30E
100
AcDbEntity
  8
BEM
 62
     7
100
AcDbMText
 10
27.49999999999991
 20
24.63698224290761
 30
0.0
 40
3.5
 41
0.0
 71
     5
 72
     1
  1
\A1;20
  7
ROMANS
 73
     1
 44
1.0
1001
ACAD
1000
MTEXTBEGIN
1070
    73
1070
     1
1070
    44
1040
1.0
1070
    74
1070
     0
1000
MTEXTEND
  0
POINT
  5
FBD
330
30E
100
AcDbEntity
  8
Defpoints
 62
     0
100
AcDbPoint
 10
17.4999999999999
 20
42.50000000000001
 30
0.0
  0
POINT
  5
FBE
330
30E
100
AcDbEntity
  8
Defpoints
 62
     0
100
AcDbPoint
 10
37.49999999999992
 20
42.5
 30
0.0
  0
POINT
  5
FBF
330
30E
100
AcDbEntity
  8
Defpoints
 62
     0
100
AcDbPoint
 10
37.49999999999992
 20
21.38698224290761
 30
0.0
  0
ENDBLK
  5
319
330
30E
100
AcDbEntity
  8
0
100
AcDbBlockEnd
  0
BLOCK
  5
33C
330
332
100
AcDbEntity
  8
0
100
AcDbBlockBegin
  2
*D8
 70
     1
 10
0.0
 20
0.0
 30
0.0
  3
*D8
  1

  0
LINE
  5
FAE
330
332
100
AcDbEntity
  8
BEM
100
AcDbLine
 10
17.49999999999991
 20
42.5
 30
0.0
 11
1.236652318197438
 21
42.5
 31
0.0
  0
LINE
  5
FAF
330
332
100
AcDbEntity
  8
BEM
100
AcDbLine
 10
17.49999999999991
 20
62.5
 30
0.0
 11
1.236652318197442
 21
62.5
 31
0.0
  0
LINE
  5
FB0
330
332
100
AcDbEntity
  8
BEM
100
AcDbLine
 10
3.236652318197439
 20
46.0
 30
0.0
 11
3.236652318197442
 21
59.00000000000001
 31
0.0
  0
SOLID
  5
FB1
330
332
100
AcDbEntity
  8
BEM
100
AcDbTrace
 10
2.653318984864105
 20
46.0
 30
0.0
 11
3.819985651530772
 21
46.0
 31
0.0
 12
3.236652318197438
 22
42.5
 32
0.0
 13
3.236652318197438
 23
42.5
 33
0.0
  0
SOLID
  5
FB2
330
332
100
AcDbEntity
  8
BEM
100
AcDbTrace
 10
2.653318984864108
 20
59.00000000000001
 30
0.0
 11
3.819985651530775
 21
59.00000000000001
 31
0.0
 12
3.236652318197442
 22
62.5
 32
0.0
 13
3.236652318197442
 23
62.5
 33
0.0
  0
MTEXT
  5
FB3
330
332
100
AcDbEntity
  8
BEM
 62
     7
100
AcDbMText
 10
-0.0133476818025676
 20
52.5
 30
0.0
 40
3.5
 41
0.0
 71
     5
 72
     1
  1
\A1;20
  7
ROMANS
 11
0.0000000000000001
 21
1.0
 31
0.0
 73
     1
 44
1.0
1001
ACAD
1000
MTEXTBEGIN
1070
    73
1070
     1
1070
    44
1040
1.0
1070
    74
1070
     0
1000
MTEXTEND
  0
POINT
  5
FB4
330
332
100
AcDbEntity
  8
Defpoints
 62
     0
100
AcDbPoint
 10
17.49999999999991
 20
42.5
 30
0.0
  0
POINT
  5
FB5
330
332
100
AcDbEntity
  8
Defpoints
 62
     0
100
AcDbPoint
 10
17.49999999999991
 20
62.5
 30
0.0
  0
POINT
  5
FB6
330
332
100
AcDbEntity
  8
Defpoints
 62
     0
100
AcDbPoint
 10
3.236652318197442
 20
62.5
 30
0.0
  0
ENDBLK
  5
33D
330
332
100
AcDbEntity
  8
0
100
AcDbBlockEnd
  0
BLOCK
  5
481
330
477
100
AcDbEntity
  8
0
100
AcDbBlockBegin
  2
*D9
 70
     1
 10
0.0
 20
0.0
 30
0.0
  3
*D9
  1

  0
LINE
  5
D11
330
477
100
AcDbEntity
  8
BEM
100
AcDbLine
 10
17.49999999999991
 20
122.5
 30
0.0
 11
-2.696309163774459
 21
122.5
 31
0.0
  0
LINE
  5
D12
330
477
100
AcDbEntity
  8
BEM
100
AcDbLine
 10
17.49999999999991
 20
142.5
 30
0.0
 11
-2.696309163774455
 21
142.5
 31
0.0
  0
LINE
  5
D13
330
477
100
AcDbEntity
  8
BEM
100
AcDbLine
 10
-0.6963091637744602
 20
126.0
 30
0.0
 11
-0.6963091637744573
 21
139.0
 31
0.0
  0
SOLID
  5
D14
330
477
100
AcDbEntity
  8
BEM
100
AcDbTrace
 10
-1.279642497107793
 20
126.0
 30
0.0
 11
-0.1129758304411269
 21
126.0
 31
0.0
 12
-0.696309163774461
 22
122.5
 32
0.0
 13
-0.696309163774461
 23
122.5
 33
0.0
  0
SOLID
  5
D15
330
477
100
AcDbEntity
  8
BEM
100
AcDbTrace
 10
-1.27964249710779
 20
139.0
 30
0.0
 11
-0.112975830441124
 21
139.0
 31
0.0
 12
-0.6963091637744565
 22
142.5
 32
0.0
 13
-0.6963091637744565
 23
142.5
 33
0.0
  0
MTEXT
  5
D16
330
477
100
AcDbEntity
  8
BEM
 62
     7
100
AcDbMText
 10
-3.946309163774479
 20
132.5
 30
0.0
 40
3.5
 41
0.0
 71
     5
 72
     1
  1
\A1;20
  7
ROMANS
 11
0.0000000000000001
 21
1.0
 31
0.0
 73
     1
 44
1.0
1001
ACAD
1000
MTEXTBEGIN
1070
    73
1070
     1
1070
    44
1040
1.0
1070
    74
1070
     0
1000
MTEXTEND
  0
POINT
  5
D17
330
477
100
AcDbEntity
  8
Defpoints
 62
     0
100
AcDbPoint
 10
17.49999999999991
 20
122.5
 30
0.0
  0
POINT
  5
D18
330
477
100
AcDbEntity
  8
Defpoints
 62
     0
100
AcDbPoint
 10
17.49999999999991
 20
142.5
 30
0.0
  0
POINT
  5
D19
330
477
100
AcDbEntity
  8
Defpoints
 62
     0
100
AcDbPoint
 10
-0.6963091637744565
 20
142.5
 30
0.0
  0
ENDBLK
  5
482
330
477
100
AcDbEntity
  8
0
100
AcDbBlockEnd
  0
BLOCK
  5
4AF
330
4A9
100
AcDbEntity
  8
0
100
AcDbBlockBegin
  2
*D10
 70
     1
 10
0.0
 20
0.0
 30
0.0
  3
*D10
  1

  0
LINE
  5
C52
330
4A9
100
AcDbEntity
  8
BEM
100
AcDbLine
 10
21.34721926884694
 20
129.1618434317197
 30
0.0
 11
34.9712337449714
 21
136.5534758329117
 31
0.0
  0
MTEXT
  5
C53
330
4A9
100
AcDbEntity
  8
BEM
 62
     7
100
AcDbMText
 10
25.07117291741939
 20
134.8797686868524
 30
0.0
 40
3.5
 41
0.0
 71
     5
 72
     1
  1
\A1;\U+220524
  7
ROMANS
 11
0.8789686758789972
 21
0.476879509754322
 31
0.0
 73
     1
 44
1.0
1001
ACAD
1000
MTEXTBEGIN
1070
    73
1070
     1
1070
    44
1040
1.0
1070
    74
1070
     0
1000
MTEXTEND
  0
SOLID
  5
C54
330
4A9
100
AcDbEntity
  8
BEM
100
AcDbTrace
 10
34.69305403094805
 20
137.0662075605078
 30
0.0
 11
35.24941345899475
 21
136.0407441053157
 31
0.0
 12
38.04762411054788
 22
138.2225541170518
 32
0.0
 13
38.04762411054788
 23
138.2225541170518
 33
0.0
  0
POINT
  5
C55
330
4A9
100
AcDbEntity
  8
Defpoints
 62
     0
100
AcDbPoint
 10
38.04762411054788
 20
138.2225541170518
 30
0.0
  0
POINT
  5
C56
330
4A9
100
AcDbEntity
  8
Defpoints
 62
     0
100
AcDbPoint
 10
16.95237588945196
 20
126.7774458829481
 30
0.0
  0
ENDBLK
  5
4B0
330
4A9
100
AcDbEntity
  8
0
100
AcDbBlockEnd
  0
BLOCK
  5
4D2
330
4C8
100
AcDbEntity
  8
0
100
AcDbBlockBegin
  2
*D11
 70
     1
 10
0.0
 20
0.0
 30
0.0
  3
*D11
  1

  0
LINE
  5
D08
330
4C8
100
AcDbEntity
  8
BEM
100
AcDbLine
 10
37.49999999999992
 20
142.5
 30
0.0
 11
37.49999999999992
 21
165.3070587707818
 31
0.0
  0
LINE
  5
D09
330
4C8
100
AcDbEntity
  8
BEM
100
AcDbLine
 10
17.49999999999991
 20
142.5
 30
0.0
 11
17.49999999999991
 21
165.3070587707818
 31
0.0
  0
LINE
  5
D0A
330
4C8
100
AcDbEntity
  8
BEM
100
AcDbLine
 10
33.99999999999991
 20
163.3070587707818
 30
0.0
 11
20.99999999999992
 21
163.3070587707818
 31
0.0
  0
SOLID
  5
D0B
330
4C8
100
AcDbEntity
  8
BEM
100
AcDbTrace
 10
33.99999999999991
 20
163.8903921041152
 30
0.0
 11
33.99999999999991
 21
162.7237254374485
 31
0.0
 12
37.49999999999992
 22
163.3070587707818
 32
0.0
 13
37.49999999999992
 23
163.3070587707818
 33
0.0
  0
SOLID
  5
D0C
330
4C8
100
AcDbEntity
  8
BEM
100
AcDbTrace
 10
20.99999999999992
 20
163.8903921041152
 30
0.0
 11
20.99999999999992
 21
162.7237254374485
 31
0.0
 12
17.49999999999991
 22
163.3070587707818
 32
0.0
 13
17.49999999999991
 23
163.3070587707818
 33
0.0
  0
MTEXT
  5
D0D
330
4C8
100
AcDbEntity
  8
BEM
 62
     7
100
AcDbMText
 10
27.49999999999992
 20
166.5570587707818
 30
0.0
 40
3.5
 41
0.0
 71
     5
 72
     1
  1
\A1;20
  7
ROMANS
 73
     1
 44
1.0
1001
ACAD
1000
MTEXTBEGIN
1070
    73
1070
     1
1070
    44
1040
1.0
1070
    74
1070
     0
1000
MTEXTEND
  0
POINT
  5
D0E
330
4C8
100
AcDbEntity
  8
Defpoints
 62
     0
100
AcDbPoint
 10
37.49999999999992
 20
142.5
 30
0.0
  0
POINT
  5
D0F
330
4C8
100
AcDbEntity
  8
Defpoints
 62
     0
100
AcDbPoint
 10
17.49999999999991
 20
142.5
 30
0.0
  0
POINT
  5
D10
330
4C8
100
AcDbEntity
  8
Defpoints
 62
     0
100
AcDbPoint
 10
17.49999999999991
 20
163.3070587707818
 30
0.0
  0
ENDBLK
  5
4D3
330
4C8
100
AcDbEntity
  8
0
100
AcDbBlockEnd
  0
BLOCK
  5
D30
330
D2A
100
AcDbEntity
  8
0
100
AcDbBlockBegin
  2
*D12
 70
     1
 10
0.0
 20
0.0
 30
0.0
  3
*D12
  1

  0
LINE
  5
D2B
330
D2A
100
AcDbEntity
  8
BEM
100
AcDbLine
 10
21.34721926884695
 20
49.16184343171974
 30
0.0
 11
34.9712337449714
 21
56.55347583291173
 31
0.0
  0
MTEXT
  5
D2C
330
D2A
100
AcDbEntity
  8
BEM
 62
     7
100
AcDbMText
 10
25.07117291741938
 20
54.87976868685241
 30
0.0
 40
3.5
 41
0.0
 71
     5
 72
     1
  1
\A1;\U+220524
  7
ROMANS
 11
0.8789686758789972
 21
0.476879509754322
 31
0.0
 73
     1
 44
1.0
1001
ACAD
1000
MTEXTBEGIN
1070
    73
1070
     1
1070
    44
1040
1.0
1070
    74
1070
     0
1000
MTEXTEND
  0
SOLID
  5
D2D
330
D2A
100
AcDbEntity
  8
BEM
100
AcDbTrace
 10
34.69305403094804
 20
57.06620756050782
 30
0.0
 11
35.24941345899475
 21
56.04074410531565
 31
0.0
 12
38.0476241105479
 22
58.22255411705185
 32
0.0
 13
38.0476241105479
 23
58.22255411705185
 33
0.0
  0
POINT
  5
D2E
330
D2A
100
AcDbEntity
  8
Defpoints
 62
     0
100
AcDbPoint
 10
38.0476241105479
 20
58.22255411705185
 30
0.0
  0
POINT
  5
D2F
330
D2A
100
AcDbEntity
  8
Defpoints
 62
     0
100
AcDbPoint
 10
16.95237588945196
 20
46.77744588294814
 30
0.0
  0
ENDBLK
  5
D31
330
D2A
100
AcDbEntity
  8
0
100
AcDbBlockEnd
  0
BLOCK
  5
D5B
330
D55
100
AcDbEntity
  8
0
100
AcDbBlockBegin
  2
*D13
 70
     1
 10
0.0
 20
0.0
 30
0.0
  3
*D13
  1

  0
LINE
  5
DAE
330
D55
100
AcDbEntity
  8
BEM
100
AcDbLine
 10
100.9039308934026
 20
130.1565255834566
 30
0.0
 11
115.5095124865823
 21
135.3456475058027
 31
0.0
  0
MTEXT
  5
DAF
330
D55
100
AcDbEntity
  8
BEM
 62
     7
100
AcDbMText
 10
105.469662719948
 20
135.2276785971282
 30
0.0
 40
3.5
 41
0.0
 71
     5
 72
     1
  1
\A1;\U+220524
  7
ROMANS
 11
0.9422955866567509
 21
0.3347820595061955
 31
0.0
 73
     1
 44
1.0
1001
ACAD
1000
MTEXTBEGIN
1070
    73
1070
     1
1070
    44
1040
1.0
1070
    74
1070
     0
1000
MTEXTEND
  0
SOLID
  5
DB0
330
D55
100
AcDbEntity
  8
BEM
100
AcDbTrace
 10
115.3142229518703
 20
135.8953199313525
 30
0.0
 11
115.7048020212942
 21
134.7959750802529
 31
0.0
 12
118.8075470398809
 22
136.5173847140743
 32
0.0
 13
118.8075470398809
 23
136.5173847140743
 33
0.0
  0
POINT
  5
DB1
330
D55
100
AcDbEntity
  8
Defpoints
 62
     0
100
AcDbPoint
 10
118.8075470398809
 20
136.5173847140743
 30
0.0
  0
POINT
  5
DB2
330
D55
100
AcDbEntity
  8
Defpoints
 62
     0
100
AcDbPoint
 10
96.19245296011888
 20
128.4826152859256
 30
0.0
  0
ENDBLK
  5
D5C
330
D55
100
AcDbEntity
  8
0
100
AcDbBlockEnd
  0
BLOCK
  5
DD8
330
DCF
100
AcDbEntity
  8
0
100
AcDbBlockBegin
  2
*D14
 70
     1
 10
0.0
 20
0.0
 30
0.0
  3
*D14
  1

  0
LINE
  5
DE4
330
DCF
100
AcDbEntity
  8
BEM
100
AcDbLine
 10
136.5119807425652
 20
147.73398758748
 30
0.0
 11
124.5119807425652
 21
147.73398758748
 31
0.0
  0
LINE
  5
DE5
330
DCF
100
AcDbEntity
  8
BEM
100
AcDbLine
 10
124.5119807425652
 20
147.73398758748
 30
0.0
 11
121.7071884455391
 21
145.6403925524879
 31
0.0
  0
LINE
  5
DE6
330
DCF
100
AcDbEntity
  8
BEM
100
AcDbLine
 10
113.2928115544607
 20
139.3596074475119
 30
0.0
 11
110.4880192574346
 21
137.26601241252
 31
0.0
  0
MTEXT
  5
DE7
330
DCF
100
AcDbEntity
  8
BEM
 62
     7
100
AcDbMText
 10
131.2619807425651
 20
150.98398758748
 30
0.0
 40
3.5
 41
0.0
 71
     5
 72
     1
  1
\A1;%%c3.5\C7;\H3.5;
  7
ROMANS
 73
     1
 44
1.0
1001
ACAD
1000
MTEXTBEGIN
1070
    73
1070
     1
1070
    44
1040
1.0
1070
    74
1070
     0
1000
MTEXTEND
  0
LINE
  5
DE8
330
DCF
100
AcDbEntity
  8
BEM
100
AcDbLine
 10
116.0976038514868
 20
141.4532024825039
 30
0.0
 11
118.902396148513
 21
143.546797517496
 31
0.0
  0
SOLID
  5
DE9
330
DCF
100
AcDbEntity
  8
BEM
100
AcDbTrace
 10
112.9438790486287
 20
139.8270728303496
 30
0.0
 11
113.6417440602927
 21
138.8921420646743
 31
0.0
 12
116.0976038514868
 22
141.4532024825039
 32
0.0
 13
116.0976038514868
 23
141.4532024825039
 33
0.0
  0
SOLID
  5
DEA
330
DCF
100
AcDbEntity
  8
BEM
100
AcDbTrace
 10
121.3582559397071
 20
146.1078579353257
 30
0.0
 11
122.0561209513711
 21
145.1729271696503
 31
0.0
 12
118.902396148513
 22
143.546797517496
 32
0.0
 13
118.902396148513
 23
143.546797517496
 33
0.0
  0
POINT
  5
DEB
330
DCF
100
AcDbEntity
  8
Defpoints
 62
     0
100
AcDbPoint
 10
118.902396148513
 20
143.546797517496
 30
0.0
  0
POINT
  5
DEC
330
DCF
100
AcDbEntity
  8
Defpoints
 62
     0
100
AcDbPoint
 10
116.0976038514868
 20
141.4532024825039
 30
0.0
  0
ENDBLK
  5
DD9
330
DCF
100
AcDbEntity
  8
0
100
AcDbBlockEnd
  0
BLOCK
  5
E12
330
E0B
100
AcDbEntity
  8
0
100
AcDbBlockBegin
  2
*D15
 70
     1
 10
0.0
 20
0.0
 30
0.0
  3
*D15
  1

  0
LINE
  5
E46
330
E0B
100
AcDbEntity
  8
BEM
100
AcDbLine
 10
119.0612357047574
 20
109.7837543969995
 30
0.0
 11
103.5612357047562
 21
109.7837543969995
 31
0.0
  0
LINE
  5
E47
330
E0B
100
AcDbEntity
  8
BEM
100
AcDbLine
 10
103.5612357047562
 20
109.7837543969995
 30
0.0
 11
99.35369162607116
 21
120.9209343025069
 31
0.0
  0
MTEXT
  5
E48
330
E0B
100
AcDbEntity
  8
BEM
 62
     7
100
AcDbMText
 10
112.0612357047574
 20
113.0337543969995
 30
0.0
 40
3.5
 41
0.0
 71
     5
 72
     1
  1
\A1;R0.25\C7;\H3.5;
  7
ROMANS
 73
     1
 44
1.0
1001
ACAD
1000
MTEXTBEGIN
1070
    73
1070
     1
1070
    44
1040
1.0
1070
    74
1070
     0
1000
MTEXTEND
  0
LINE
  5
E49
330
E0B
100
AcDbEntity
  8
BEM
100
AcDbLine
 10
98.0283940115491
 20
124.428937471397
 30
0.0
 11
98.11674718585059
 21
124.1950705934709
 31
0.0
  0
SOLID
  5
E4A
330
E0B
100
AcDbEntity
  8
BEM
100
AcDbTrace
 10
99.89938100789851
 20
121.1270917092103
 30
0.0
 11
98.80800224424383
 21
120.7147768958035
 31
0.0
 12
98.11674718585059
 22
124.1950705934709
 32
0.0
 13
98.11674718585059
 23
124.1950705934709
 33
0.0
  0
POINT
  5
E4B
330
E0B
100
AcDbEntity
  8
Defpoints
 62
     0
100
AcDbPoint
 10
98.11674718585059
 20
124.1950705934709
 30
0.0
  0
POINT
  5
E4C
330
E0B
100
AcDbEntity
  8
Defpoints
 62
     0
100
AcDbPoint
 10
98.0283940115491
 20
124.428937471397
 30
0.0
  0
ENDBLK
  5
E13
330
E0B
100
AcDbEntity
  8
0
100
AcDbBlockEnd
  0
BLOCK
  5
F32
330
F29
100
AcDbEntity
  8
0
100
AcDbBlockBegin
  2
*D16
 70
     1
 10
0.0
 20
0.0
 30
0.0
  3
*D16
  1

  0
LINE
  5
F3E
330
F29
100
AcDbEntity
  8
BEM
100
AcDbLine
 10
0.6851917692187471
 20
70.89124202205578
 30
0.0
 11
12.68519176921874
 21
70.89124202205578
 31
0.0
  0
LINE
  5
F3F
330
F29
100
AcDbEntity
  8
BEM
100
AcDbLine
 10
12.68519176921874
 20
70.89124202205578
 30
0.0
 11
15.45075100645776
 21
68.74608885612055
 31
0.0
  0
LINE
  5
F40
330
F29
100
AcDbEntity
  8
BEM
100
AcDbLine
 10
24.53758850024311
 20
61.69772845376193
 30
0.0
 11
27.30314773748212
 21
59.5525752878267
 31
0.0
  0
MTEXT
  5
F41
330
F29
100
AcDbEntity
  8
BEM
 62
     7
100
AcDbMText
 10
5.935191769218747
 20
74.14124202205579
 30
0.0
 40
3.5
 41
0.0
 71
     5
 72
     1
  1
\A1;%%c4.5\C7;\H3.5;
  7
ROMANS
 73
     1
 44
1.0
1001
ACAD
1000
MTEXTBEGIN
1070
    73
1070
     1
1070
    44
1040
1.0
1070
    74
1070
     0
1000
MTEXTEND
  0
LINE
  5
F42
330
F29
100
AcDbEntity
  8
BEM
100
AcDbLine
 10
21.77202926300409
 20
63.84288161969717
 30
0.0
 11
18.21631024369677
 21
66.60093569018532
 31
0.0
  0
SOLID
  5
F43
330
F29
100
AcDbEntity
  8
BEM
100
AcDbTrace
 10
24.89511402789897
 20
62.15865499330177
 30
0.0
 11
24.18006297258723
 21
61.23680191422209
 31
0.0
 12
21.77202926300409
 22
63.84288161969717
 32
0.0
 13
21.77202926300409
 23
63.84288161969717
 33
0.0
  0
SOLID
  5
F44
330
F29
100
AcDbEntity
  8
BEM
100
AcDbTrace
 10
15.80827653411362
 20
69.20701539566039
 30
0.0
 11
15.09322547880188
 21
68.2851623165807
 31
0.0
 12
18.21631024369677
 22
66.60093569018532
 32
0.0
 13
18.21631024369677
 23
66.60093569018532
 33
0.0
  0
POINT
  5
F45
330
F29
100
AcDbEntity
  8
Defpoints
 62
     0
100
AcDbPoint
 10
18.21631024369677
 20
66.60093569018532
 30
0.0
  0
POINT
  5
F46
330
F29
100
AcDbEntity
  8
Defpoints
 62
     0
100
AcDbPoint
 10
21.77202926300409
 20
63.84288161969717
 30
0.0
  0
ENDBLK
  5
F33
330
F29
100
AcDbEntity
  8
0
100
AcDbBlockEnd
  0
BLOCK
  5
F63
330
F5A
100
AcDbEntity
  8
0
100
AcDbBlockBegin
  2
*D17
 70
     1
 10
0.0
 20
0.0
 30
0.0
  3
*D17
  1

  0
LINE
  5
FA5
330
F5A
100
AcDbEntity
  8
BEM
100
AcDbLine
 10
-3.142495718408779
 20
32.94885189158357
 30
0.0
 11
8.857504281591221
 21
32.94885189158357
 31
0.0
  0
LINE
  5
FA6
330
F5A
100
AcDbEntity
  8
BEM
100
AcDbLine
 10
8.857504281591221
 20
32.94885189158357
 30
0.0
 11
13.97748524752292
 21
38.60713603903477
 31
0.0
  0
LINE
  5
FA7
330
F5A
100
AcDbEntity
  8
BEM
100
AcDbLine
 10
21.02251475247691
 20
46.39286396096527
 30
0.0
 11
23.3708579207949
 21
48.98810660160877
 31
0.0
  0
MTEXT
  5
FA8
330
F5A
100
AcDbEntity
  8
BEM
 62
     7
100
AcDbMText
 10
2.10750428159122
 20
36.19885189158356
 30
0.0
 40
3.5
 41
0.0
 71
     5
 72
     1
  1
\A1;%%c3.5\C7;\H3.5;
  7
ROMANS
 73
     1
 44
1.0
1001
ACAD
1000
MTEXTBEGIN
1070
    73
1070
     1
1070
    44
1040
1.0
1070
    74
1070
     0
1000
MTEXTEND
  0
LINE
  5
FA9
330
F5A
100
AcDbEntity
  8
BEM
100
AcDbLine
 10
18.67417158415892
 20
43.79762132032178
 30
0.0
 11
16.32582841584091
 21
41.20237867967825
 31
0.0
  0
SOLID
  5
FAA
330
F5A
100
AcDbEntity
  8
BEM
100
AcDbTrace
 10
20.58997431236966
 20
46.78425448901827
 30
0.0
 11
21.45505519258416
 21
46.00147343291228
 31
0.0
 12
18.67417158415892
 22
43.79762132032178
 32
0.0
 13
18.67417158415892
 23
43.79762132032178
 33
0.0
  0
SOLID
  5
FAB
330
F5A
100
AcDbEntity
  8
BEM
100
AcDbTrace
 10
13.54494480741567
 20
38.99852656708777
 30
0.0
 11
14.41002568763017
 21
38.21574551098177
 31
0.0
 12
16.32582841584091
 22
41.20237867967825
 32
0.0
 13
16.32582841584091
 23
41.20237867967825
 33
0.0
  0
POINT
  5
FAC
330
F5A
100
AcDbEntity
  8
Defpoints
 62
     0
100
AcDbPoint
 10
16.32582841584091
 20
41.20237867967825
 30
0.0
  0
POINT
  5
FAD
330
F5A
100
AcDbEntity
  8
Defpoints
 62
     0
100
AcDbPoint
 10
18.67417158415892
 20
43.79762132032178
 30
0.0
  0
ENDBLK
  5
F64
330
F5A
100
AcDbEntity
  8
0
100
AcDbBlockEnd
  0
BLOCK
  5
FDA
330
FD3
100
AcDbEntity
  8
0
100
AcDbBlockBegin
  2
*D18
 70
     1
 10
0.0
 20
0.0
 30
0.0
  3
*D18
  1

  0
LINE
  5
FF2
330
FD3
100
AcDbEntity
  8
BEM
100
AcDbLine
 10
54.51024767297963
 20
74.16990375002917
 30
0.0
 11
35.51024767297962
 21
74.16990375002917
 31
0.0
  0
LINE
  5
FF3
330
FD3
100
AcDbEntity
  8
BEM
100
AcDbLine
 10
35.51024767297962
 20
74.16990375002917
 30
0.0
 11
33.61686149109532
 21
69.04777794342404
 31
0.0
  0
MTEXT
  5
FF4
330
FD3
100
AcDbEntity
  8
BEM
 62
     7
100
AcDbMText
 10
45.76024767297963
 20
77.41990375002917
 30
0.0
 40
3.5
 41
0.0
 71
     5
 72
     1
  1
\A1;R14.14\C7;\H3.5;
  7
ROMANS
 73
     1
 44
1.0
1001
ACAD
1000
MTEXTBEGIN
1070
    73
1070
     1
1070
    44
1040
1.0
1070
    74
1070
     0
1000
MTEXTEND
  0
LINE
  5
FF5
330
FD3
100
AcDbEntity
  8
BEM
100
AcDbLine
 10
27.49999999999991
 20
52.49999999999996
 30
0.0
 11
32.40334541370863
 21
65.76488611914411
 31
0.0
  0
SOLID
  5
FF6
330
FD3
100
AcDbEntity
  8
BEM
100
AcDbTrace
 10
33.06971285371533
 20
69.25003062298848
 30
0.0
 11
34.16401012847531
 21
68.84552526385959
 31
0.0
 12
32.40334541370863
 22
65.76488611914411
 32
0.0
 13
32.40334541370863
 23
65.76488611914411
 33
0.0
  0
POINT
  5
FF7
330
FD3
100
AcDbEntity
  8
Defpoints
 62
     0
100
AcDbPoint
 10
32.40334541370863
 20
65.76488611914411
 30
0.0
  0
POINT
  5
FF8
330
FD3
100
AcDbEntity
  8
Defpoints
 62
     0
100
AcDbPoint
 10
27.49999999999991
 20
52.49999999999996
 30
0.0
  0
ENDBLK
  5
FDB
330
FD3
100
AcDbEntity
  8
0
100
AcDbBlockEnd
  0
BLOCK
  5
100B
330
FFB
100
AcDbEntity
  8
0
100
AcDbBlockBegin
  2
*D19
 70
     1
 10
0.0
 20
0.0
 30
0.0
  3
*D19
  1

  0
LINE
  5
106C
330
FFB
100
AcDbEntity
  8
BEM
100
AcDbLine
 10
35.00583024664941
 20
39.77809134505875
 30
0.0
 11
40.89092807012089
 21
29.80322188021595
 31
0.0
  0
LINE
  5
106D
330
FFB
100
AcDbEntity
  8
BEM
100
AcDbLine
 10
37.49999999999992
 20
42.49999999999999
 30
0.0
 11
46.13411778966012
 21
33.86588221033979
 31
0.0
  0
ARC
  5
106E
330
FFB
100
AcDbEntity
  8
BEM
100
AcDbCircle
 10
27.49999999999992
 20
52.5
 30
0.0
 40
24.35262210099522
100
AcDbArc
 50
284.0567845399113
 51
292.2985345709363
  0
ARC
  5
106F
330
FFB
100
AcDbEntity
  8
BEM
100
AcDbCircle
 10
27.49999999999992
 20
52.5
 30
0.0
 40
24.35262210099522
100
AcDbArc
 50
323.241750031025
 51
331.48350006205
  0
ARC
  5
1070
330
FFB
100
AcDbEntity
  8
BEM
100
AcDbCircle
 10
27.49999999999992
 20
52.5
 30
0.0
 40
24.35262210099522
100
AcDbArc
 50
300.5402846019614
 51
315.0000000000001
  0
SOLID
  5
1071
330
FFB
100
AcDbEntity
  8
BEM
100
AcDbTrace
 10
36.48062867260449
 20
30.49089165683405
 30
0.0
 11
36.9997236896604
 21
29.44607039251233
 31
0.0
 12
39.87463997409759
 22
31.52576607584094
 32
0.0
 13
39.87463997409759
 23
31.52576607584094
 33
0.0
  0
SOLID
  5
1072
330
FFB
100
AcDbEntity
  8
BEM
100
AcDbTrace
 10
47.45158671909711
 20
37.54464617880148
 30
0.0
 11
46.56947942567324
 21
38.30818912716754
 31
0.0
 12
44.71990422728703
 22
35.2800957727129
 32
0.0
 13
44.71990422728703
 23
35.2800957727129
 33
0.0
  0
MTEXT
  5
1073
330
FFB
100
AcDbEntity
  8
BEM
 62
     7
100
AcDbMText
 10
47.14202896116513
 20
44.78563950633893
 30
0.0
 40
3.5
 41
0.0
 71
     5
 72
     1
  1
\A1;14.46°
  7
ROMANS
 11
0.3655640733526317
 21
0.9307861775261983
 31
0.0
 73
     1
 44
1.0
1001
ACAD
1000
MTEXTBEGIN
1070
    73
1070
     1
1070
    44
1040
1.0
1070
    74
1070
     0
1000
MTEXTEND
  0
POINT
  5
1074
330
FFB
100
AcDbEntity
  8
Defpoints
 62
     0
100
AcDbPoint
 10
41.59321954819758
 20
32.63970377964669
 30
0.0
  0
POINT
  5
1075
330
FFB
100
AcDbEntity
  8
Defpoints
 62
     0
100
AcDbPoint
 10
27.49999999999992
 20
52.5
 30
0.0
  0
POINT
  5
1076
330
FFB
100
AcDbEntity
  8
Defpoints
 62
     0
100
AcDbPoint
 10
37.49999999999992
 20
42.49999999999999
 30
0.0
  0
POINT
  5
1077
330
FFB
100
AcDbEntity
  8
Defpoints
 62
     0
100
AcDbPoint
 10
27.49999999999992
 20
52.5
 30
0.0
  0
POINT
  5
1078
330
FFB
100
AcDbEntity
  8
Defpoints
 62
     0
100
AcDbPoint
 10
35.00583024664941
 20
39.77809134505875
 30
0.0
  0
ENDBLK
  5
100C
330
FFB
100
AcDbEntity
  8
0
100
AcDbBlockEnd
  0
BLOCK
  5
110B
330
1102
100
AcDbEntity
  8
0
100
AcDbBlockBegin
  2
*D20
 70
     1
 10
0.0
 20
0.0
 30
0.0
  3
*D20
  1

  0
LINE
  5
113F
330
1102
100
AcDbEntity
  8
BEM
100
AcDbLine
 10
98.057440887422
 20
71.49279654236187
 30
0.0
 11
110.057440887422
 21
71.49279654236187
 31
0.0
  0
LINE
  5
1140
330
1102
100
AcDbEntity
  8
BEM
100
AcDbLine
 10
110.057440887422
 20
71.49279654236187
 30
0.0
 11
112.8735443354244
 21
69.41444109390063
 31
0.0
  0
LINE
  5
1141
330
1102
100
AcDbEntity
  8
BEM
100
AcDbLine
 10
122.1264556645755
 20
62.58555890609941
 30
0.0
 11
124.942559112578
 21
60.50720345763817
 31
0.0
  0
MTEXT
  5
1142
330
1102
100
AcDbEntity
  8
BEM
 62
     7
100
AcDbMText
 10
103.307440887422
 20
74.74279654236188
 30
0.0
 40
3.5
 41
0.0
 71
     5
 72
     1
  1
\A1;%%c4.5\C7;\H3.5;
  7
ROMANS
 73
     1
 44
1.0
1001
ACAD
1000
MTEXTBEGIN
1070
    73
1070
     1
1070
    44
1040
1.0
1070
    74
1070
     0
1000
MTEXTEND
  0
LINE
  5
1143
330
1102
100
AcDbEntity
  8
BEM
100
AcDbLine
 10
119.310352216573
 20
64.66391435456066
 30
0.0
 11
115.6896477834269
 21
67.33608564543939
 31
0.0
  0
SOLID
  5
1144
330
1102
100
AcDbEntity
  8
BEM
100
AcDbTrace
 10
122.472848239319
 20
63.0549094807665
 30
0.0
 11
121.7800630898319
 21
62.11620833143234
 31
0.0
 12
119.310352216573
 22
64.66391435456066
 32
0.0
 13
119.310352216573
 23
64.66391435456066
 33
0.0
  0
SOLID
  5
1145
330
1102
100
AcDbEntity
  8
BEM
100
AcDbTrace
 10
113.219936910168
 20
69.88379166856772
 30
0.0
 11
112.5271517606809
 21
68.94509051923356
 31
0.0
 12
115.6896477834269
 22
67.33608564543939
 32
0.0
 13
115.6896477834269
 23
67.33608564543939
 33
0.0
  0
POINT
  5
1146
330
1102
100
AcDbEntity
  8
Defpoints
 62
     0
100
AcDbPoint
 10
115.6896477834269
 20
67.33608564543939
 30
0.0
  0
POINT
  5
1147
330
1102
100
AcDbEntity
  8
Defpoints
 62
     0
100
AcDbPoint
 10
119.310352216573
 20
64.66391435456066
 30
0.0
  0
ENDBLK
  5
110C
330
1102
100
AcDbEntity
  8
0
100
AcDbBlockEnd
  0
BLOCK
  5
1121
330
1118
100
AcDbEntity
  8
0
100
AcDbBlockBegin
  2
*D21
 70
     1
 10
0.0
 20
0.0
 30
0.0
  3
*D21
  1

  0
LINE
  5
112D
330
1118
100
AcDbEntity
  8
BEM
100
AcDbLine
 10
138.2271843434113
 20
33.90356158423065
 30
0.0
 11
126.2271843434113
 21
33.90356158423066
 31
0.0
  0
LINE
  5
112E
330
1118
100
AcDbEntity
  8
BEM
100
AcDbLine
 10
126.2271843434113
 20
33.90356158423066
 30
0.0
 11
121.2402218614619
 21
38.81581210752743
 31
0.0
  0
LINE
  5
112F
330
1118
100
AcDbEntity
  8
BEM
100
AcDbLine
 10
113.7597781385379
 20
46.18418789247258
 30
0.0
 11
111.2662968975632
 21
48.64031315412097
 31
0.0
  0
MTEXT
  5
1130
330
1118
100
AcDbEntity
  8
BEM
 62
     7
100
AcDbMText
 10
132.9771843434113
 20
37.15356158423065
 30
0.0
 40
3.5
 41
0.0
 71
     5
 72
     1
  1
\A1;%%c3.5\C7;\H3.5;
  7
ROMANS
 73
     1
 44
1.0
1001
ACAD
1000
MTEXTBEGIN
1070
    73
1070
     1
1070
    44
1040
1.0
1070
    74
1070
     0
1000
MTEXTEND
  0
LINE
  5
1131
330
1118
100
AcDbEntity
  8
BEM
100
AcDbLine
 10
116.2532593795126
 20
43.72806263082419
 30
0.0
 11
118.7467406204873
 21
41.27193736917581
 31
0.0
  0
SOLID
  5
1132
330
1118
100
AcDbEntity
  8
BEM
100
AcDbTrace
 10
114.1691323488126
 20
46.59976809930169
 30
0.0
 11
113.3504239282631
 21
45.76860768564347
 31
0.0
 12
116.2532593795126
 22
43.72806263082419
 32
0.0
 13
116.2532593795126
 23
43.72806263082419
 33
0.0
  0
SOLID
  5
1133
330
1118
100
AcDbEntity
  8
BEM
100
AcDbTrace
 10
121.6495760717367
 20
39.23139231435654
 30
0.0
 11
120.8308676511872
 21
38.40023190069831
 31
0.0
 12
118.7467406204873
 22
41.27193736917581
 32
0.0
 13
118.7467406204873
 23
41.27193736917581
 33
0.0
  0
POINT
  5
1134
330
1118
100
AcDbEntity
  8
Defpoints
 62
     0
100
AcDbPoint
 10
118.7467406204873
 20
41.27193736917581
 30
0.0
  0
POINT
  5
1135
330
1118
100
AcDbEntity
  8
Defpoints
 62
     0
100
AcDbPoint
 10
116.2532593795126
 20
43.72806263082419
 30
0.0
  0
ENDBLK
  5
1122
330
1118
100
AcDbEntity
  8
0
100
AcDbBlockEnd
  0
BLOCK
  5
114F
330
1149
100
AcDbEntity
  8
0
100
AcDbBlockBegin
  2
*D22
 70
     1
 10
0.0
 20
0.0
 30
0.0
  3
*D22
  1

  0
LINE
  5
1158
330
1149
100
AcDbEntity
  8
BEM
100
AcDbLine
 10
101.2909374488865
 20
49.26773419466123
 30
0.0
 11
115.0395759549232
 21
56.42489419219709
 31
0.0
  0
MTEXT
  5
1159
330
1149
100
AcDbEntity
  8
BEM
 62
     7
100
AcDbMText
 10
105.1122962259335
 20
54.92102678368278
 30
0.0
 40
3.5
 41
0.0
 71
     5
 72
     1
  1
\A1;\U+220524
  7
ROMANS
 11
0.88700893587333
 21
0.4617522579055386
 31
0.0
 73
     1
 44
1.0
1001
ACAD
1000
MTEXTBEGIN
1070
    73
1070
     1
1070
    44
1040
1.0
1070
    74
1070
     0
1000
MTEXTEND
  0
SOLID
  5
115A
330
1149
100
AcDbEntity
  8
BEM
100
AcDbTrace
 10
114.770220471145
 20
56.94231607145653
 30
0.0
 11
115.3089314387014
 21
55.90747231293764
 31
0.0
 12
118.1441072304799
 22
58.04102709486647
 32
0.0
 13
118.1441072304799
 23
58.04102709486647
 33
0.0
  0
POINT
  5
115B
330
1149
100
AcDbEntity
  8
Defpoints
 62
     0
100
AcDbPoint
 10
118.1441072304799
 20
58.04102709486647
 30
0.0
  0
POINT
  5
115C
330
1149
100
AcDbEntity
  8
Defpoints
 62
     0
100
AcDbPoint
 10
96.85589276951997
 20
46.95897290513356
 30
0.0
  0
ENDBLK
  5
1150
330
1149
100
AcDbEntity
  8
0
100
AcDbBlockEnd
  0
BLOCK
  5
1164
330
115E
100
AcDbEntity
  8
0
100
AcDbBlockBegin
  2
*D23
 70
     1
 10
0.0
 20
0.0
 30
0.0
  3
*D23
  1

  0
LINE
  5
116D
330
115E
100
AcDbEntity
  8
BEM
100
AcDbLine
 10
72.57627015096449
 20
40.66009838821612
 30
0.0
 11
92.88121495955614
 21
43.4813066967333
 31
0.0
  0
MTEXT
  5
116E
330
115E
100
AcDbEntity
  8
BEM
 62
     7
100
AcDbMText
 10
80.54812887634733
 20
45.04894430286582
 30
0.0
 40
3.5
 41
0.0
 71
     5
 72
     1
  1
\A1;R0.25
  7
ROMANS
 11
0.9904851126142276
 21
0.1376199174886425
 31
0.0
 73
     1
 44
1.0
1001
ACAD
1000
MTEXTBEGIN
1070
    73
1070
     1
1070
    44
1040
1.0
1070
    74
1070
     0
1000
MTEXTEND
  0
SOLID
  5
116F
330
115E
100
AcDbEntity
  8
BEM
100
AcDbTrace
 10
92.80093667435444
 20
44.05908967909159
 30
0.0
 11
92.96149324475786
 21
42.90352371437499
 31
0.0
 12
96.34791285370596
 22
43.96297640794354
 32
0.0
 13
96.34791285370596
 23
43.96297640794354
 33
0.0
  0
POINT
  5
1170
330
115E
100
AcDbEntity
  8
Defpoints
 62
     0
100
AcDbPoint
 10
96.34791285370596
 20
43.96297640794354
 30
0.0
  0
POINT
  5
1171
330
115E
100
AcDbEntity
  8
Defpoints
 62
     0
100
AcDbPoint
 10
96.10029157555228
 20
43.92857142857137
 30
0.0
  0
ENDBLK
  5
1165
330
115E
100
AcDbEntity
  8
0
100
AcDbBlockEnd
  0
BLOCK
  5
11C1
330
11B7
100
AcDbEntity
  8
0
100
AcDbBlockBegin
  2
*D25
 70
     1
 10
0.0
 20
0.0
 30
0.0
  3
*D25
  1

  0
LINE
  5
11C4
330
11B7
100
AcDbEntity
  8
0
100
AcDbLine
 10
19.99416975335043
 20
67.47190865494125
 30
0.0
 11
-20.8136433194868
 21
67.47190865494125
 31
0.0
  0
LINE
  5
11C5
330
11B7
100
AcDbEntity
  8
0
100
AcDbLine
 10
35.0058302466494
 20
37.52809134505877
 30
0.0
 11
-20.8136433194868
 21
37.52809134505878
 31
0.0
  0
LINE
  5
11C6
330
11B7
100
AcDbEntity
  8
0
100
AcDbLine
 10
-18.81364331948679
 20
63.97190865494125
 30
0.0
 11
-18.8136433194868
 21
41.02809134505878
 31
0.0
  0
SOLID
  5
11C7
330
11B7
100
AcDbEntity
  8
0
100
AcDbTrace
 10
-19.39697665282013
 20
63.97190865494125
 30
0.0
 11
-18.23030998615346
 21
63.97190865494125
 31
0.0
 12
-18.81364331948679
 22
67.47190865494125
 32
0.0
 13
-18.81364331948679
 23
67.47190865494125
 33
0.0
  0
SOLID
  5
11C8
330
11B7
100
AcDbEntity
  8
0
100
AcDbTrace
 10
-19.39697665282013
 20
41.02809134505878
 30
0.0
 11
-18.23030998615347
 21
41.02809134505878
 31
0.0
 12
-18.8136433194868
 22
37.52809134505878
 32
0.0
 13
-18.8136433194868
 23
37.52809134505878
 33
0.0
  0
MTEXT
  5
11C9
330
11B7
100
AcDbEntity
  8
0
 62
     7
100
AcDbMText
 10
-22.06364331948681
 20
52.50000000000001
 30
0.0
 40
3.5
 41
0.0
 71
     5
 72
     1
  1
\A1;29.94
  7
ROMANS
 11
0.0000000000000001
 21
1.0
 31
0.0
 73
     1
 44
1.0
1001
ACAD
1000
MTEXTBEGIN
1070
    73
1070
     1
1070
    44
1040
1.0
1070
    74
1070
     0
1000
MTEXTEND
  0
POINT
  5
11CA
330
11B7
100
AcDbEntity
  8
Defpoints
 62
     0
100
AcDbPoint
 10
19.99416975335043
 20
67.47190865494125
 30
0.0
  0
POINT
  5
11CB
330
11B7
100
AcDbEntity
  8
Defpoints
 62
     0
100
AcDbPoint
 10
35.0058302466494
 20
37.52809134505877
 30
0.0
  0
POINT
  5
11CC
330
11B7
100
AcDbEntity
  8
Defpoints
 62
     0
100
AcDbPoint
 10
-18.8136433194868
 20
37.52809134505878
 30
0.0
  0
ENDBLK
  5
11C2
330
11B7
100
AcDbEntity
  8
0
100
AcDbBlockEnd
  0
BLOCK
  5
11D9
330
11CF
100
AcDbEntity
  8
0
100
AcDbBlockBegin
  2
*D26
 70
     1
 10
0.0
 20
0.0
 30
0.0
  3
*D26
  1

  0
LINE
  5
11DC
330
11CF
100
AcDbEntity
  8
0
100
AcDbLine
 10
35.0058302466494
 20
37.52809134505877
 30
0.0
 11
-27.45094336264378
 21
37.52809134505879
 31
0.0
  0
LINE
  5
11DD
330
11CF
100
AcDbEntity
  8
0
100
AcDbLine
 10
19.99416975335043
 20
67.47190865494125
 30
0.0
 11
-27.45094336264378
 21
67.47190865494125
 31
0.0
  0
LINE
  5
11DE
330
11CF
100
AcDbEntity
  8
0
100
AcDbLine
 10
-25.45094336264379
 20
41.02809134505879
 30
0.0
 11
-25.45094336264378
 21
63.97190865494125
 31
0.0
  0
SOLID
  5
11DF
330
11CF
100
AcDbEntity
  8
0
100
AcDbTrace
 10
-26.03427669597712
 20
41.02809134505879
 30
0.0
 11
-24.86761002931045
 21
41.02809134505879
 31
0.0
 12
-25.45094336264379
 22
37.52809134505879
 32
0.0
 13
-25.45094336264379
 23
37.52809134505879
 33
0.0
  0
SOLID
  5
11E0
330
11CF
100
AcDbEntity
  8
0
100
AcDbTrace
 10
-26.03427669597711
 20
63.97190865494125
 30
0.0
 11
-24.86761002931045
 21
63.97190865494125
 31
0.0
 12
-25.45094336264378
 22
67.47190865494125
 32
0.0
 13
-25.45094336264378
 23
67.47190865494125
 33
0.0
  0
MTEXT
  5
11E1
330
11CF
100
AcDbEntity
  8
0
 62
     7
100
AcDbMText
 10
-28.70094336264379
 20
52.50000000000001
 30
0.0
 40
3.5
 41
0.0
 71
     5
 72
     1
  1
\A1;29.94
  7
ROMANS
 11
0.0000000000000001
 21
1.0
 31
0.0
 73
     1
 44
1.0
1001
ACAD
1000
MTEXTBEGIN
1070
    73
1070
     1
1070
    44
1040
1.0
1070
    74
1070
     0
1000
MTEXTEND
  0
POINT
  5
11E2
330
11CF
100
AcDbEntity
  8
Defpoints
 62
     0
100
AcDbPoint
 10
35.0058302466494
 20
37.52809134505877
 30
0.0
  0
POINT
  5
11E3
330
11CF
100
AcDbEntity
  8
Defpoints
 62
     0
100
AcDbPoint
 10
19.99416975335043
 20
67.47190865494125
 30
0.0
  0
POINT
  5
11E4
330
11CF
100
AcDbEntity
  8
Defpoints
 62
     0
100
AcDbPoint
 10
-25.45094336264378
 20
67.47190865494125
 30
0.0
  0
ENDBLK
  5
11DA
330
11CF
100
AcDbEntity
  8
0
100
AcDbBlockEnd
  0
ENDSEC
  0
SECTION
  2
ENTITIES
  0
DIMENSION
  5
27
330
2
100
AcDbEntity
  8
BEM
100
AcDbDimension
  2
*D4
 10
97.49999999999992
 20
21.38698224290761
 30
0.0
 11
107.4999999999999
 21
24.63698224290761
 31
0.0
 70
    32
 71
     5
 42
20.0
  3
1zu1
100
AcDbAlignedDimension
 13
117.4999999999999
 23
42.5
 33
0.0
 14
97.49999999999992
 24
42.50000000000001
 34
0.0
100
AcDbRotatedDimension
  0
DIMENSION
  5
35
102
{ACAD_XDICTIONARY
360
36
102
}
102
{ACAD_REACTORS
330
37
102
}
330
2
100
AcDbEntity
  8
BEM
100
AcDbDimension
  2
*D11
 10
17.49999999999991
 20
163.3070587707818
 30
0.0
 11
27.49999999999992
 21
166.5570587707818
 31
0.0
 70
    32
 71
     5
 42
20.0
  3
1zu1
100
AcDbAlignedDimension
 13
37.49999999999992
 23
142.5
 33
0.0
 14
17.49999999999991
 24
142.5
 34
0.0
100
AcDbRotatedDimension
  0
DIMENSION
  5
51
330
2
100
AcDbEntity
  8
BEM
100
AcDbDimension
  2
*D0
 10
39.64999999999991
 20
104.3515213731618
 30
0.0
 11
-11.01666666666674
 21
104.3515213731618
 31
0.0
 70
   160
  1
Fase / Chamfer <>x45° (4x)
 71
     5
 42
0.25
  3
1zu1
100
AcDbAlignedDimension
 13
39.39999999999992
 23
122.5
 33
0.0
 14
39.64999999999991
 24
122.5
 34
0.0
100
AcDbRotatedDimension
1001
ACAD
1000
DSTYLE
1002
{
1070
     3
1000
<>\C7;\H3.5;
1070
    47
1040
0.0
1070
    48
1040
0.0
1070
    71
1070
     0
1070
    72
1070
     0
1070
    74
1070
     0
1002
}
  0
CIRCLE
  5
63
330
2
100
AcDbEntity
  8
0
100
AcDbCircle
 10
37.49999999999992
 20
142.5
 30
0.0
 40
2.149999999999999
  0
LINE
  5
68
330
2
100
AcDbEntity
  8
sym1
100
AcDbLine
 10
43.49999999999991
 20
132.5
 30
0.0
 11
11.49999999999991
 21
132.5
 31
0.0
  0
DIMENSION
  5
84
102
{ACAD_XDICTIONARY
360
85
102
}
102
{ACAD_REACTORS
330
86
102
}
330
2
100
AcDbEntity
  8
BEM
100
AcDbDimension
  2
*D1
 10
38.6175424959925
 20
140.9634132729811
 30
0.0
 11
25.05462909417837
 21
150.3309606755152
 31
0.0
 70
   163
  1
<>
 71
     5
 42
3.800000000000011
  3
1zu1
100
AcDbDiametricDimension
 15
36.38245750400731
 25
144.0365867270189
 35
0.0
 40
0.0
1001
ACAD
1000
DSTYLE
1002
{
1070
     3
1000
%%c<>\C7;\H3.5;
1070
    47
1040
0.0
1070
    48
1040
0.0
1070
    71
1070
     0
1070
    72
1070
     0
1070
    74
1070
     1
1070
   288
1070
     1
1002
}
  0
DIMENSION
  5
93
102
{ACAD_XDICTIONARY
360
94
102
}
102
{ACAD_REACTORS
330
95
102
}
330
2
100
AcDbEntity
  8
BEM
100
AcDbDimension
  2
*D10
 10
16.95237588945196
 20
126.7774458829481
 30
0.0
 11
26.62103132412094
 21
132.0231204902456
 31
0.0
 70
   163
 71
     5
 42
24.0
  3
1zu1
100
AcDbDiametricDimension
 15
38.04762411054788
 25
138.2225541170518
 35
0.0
 40
0.0
1001
ACAD
1000
DSTYLE
1002
{
1070
   288
1070
     1
1002
}
  0
CIRCLE
  5
9E
102
{ACAD_REACTORS
330
86
330
37
102
}
330
2
100
AcDbEntity
  8
0
100
AcDbCircle
 10
37.49999999999992
 20
142.5
 30
0.0
 40
1.9
  0
CIRCLE
  5
9F
102
{ACAD_REACTORS
330
95
102
}
330
2
100
AcDbEntity
  8
0
100
AcDbCircle
 10
27.49999999999992
 20
132.5
 30
0.0
 40
12.0
  0
DIMENSION
  5
B1
330
2
100
AcDbEntity
  8
BEM
100
AcDbDimension
  2
*D6
 10
137.1610005550969
 20
142.5
 30
0.0
 11
133.9110005550969
 21
132.5
 31
0.0
 70
    32
 71
     5
 42
19.99999999999998
  3
1zu1
100
AcDbAlignedDimension
 13
117.4999999999999
 23
122.5
 33
0.0
 14
117.4999999999999
 24
142.5
 34
0.0
 50
90.0
100
AcDbRotatedDimension
  0
MTEXT
  5
BF
330
2
100
AcDbEntity
  8
BEM
100
AcDbMText
 10
27.49999999999992
 20
-13.42796073572987
 30
0.0
 40
5.0
 41
69.43909999999999
 71
     8
 72
     5
  1
{\C7;Lochbild 3\PHole layout 3}
  7
Arial
 73
     1
 44
1.0
1001
ACAD
1000
MTEXTBEGIN
1070
    73
1070
     1
1070
    44
1040
1.0
1070
    74
1070
     0
1000
MTEXTEND
  0
DIMENSION
  5
C1
330
2
100
AcDbEntity
  8
BEM
100
AcDbDimension
  2
*D5
 10
117.4999999999999
 20
163.5390472708287
 30
0.0
 11
107.4999999999999
 21
166.7890472708287
 31
0.0
 70
    32
 71
     5
 42
20.00000000000004
  3
1zu1
100
AcDbAlignedDimension
 13
97.49999999999992
 23
142.5
 33
0.0
 14
117.4999999999999
 24
142.5
 34
0.0
100
AcDbRotatedDimension
  0
DIMENSION
  5
D9
330
2
100
AcDbEntity
  8
BEM
100
AcDbDimension
  2
*D9
 10
-0.6963091637744565
 20
142.5
 30
0.0
 11
-3.946309163774479
 21
132.5
 31
0.0
 70
    32
 71
     5
 42
20.0
  3
1zu1
100
AcDbAlignedDimension
 13
17.49999999999991
 23
122.5
 33
0.0
 14
17.49999999999991
 24
142.5
 34
0.0
 50
90.0
100
AcDbRotatedDimension
  0
LINE
  5
E8
330
2
100
AcDbEntity
  8
sym1
100
AcDbLine
 10
27.49999999999992
 20
148.5
 30
0.0
 11
27.49999999999992
 21
116.5
 31
0.0
  0
DIMENSION
  5
FD
330
2
100
AcDbEntity
  8
BEM
100
AcDbDimension
  2
*D8
 10
3.236652318197442
 20
62.5
 30
0.0
 11
-0.0133476818025676
 21
52.5
 31
0.0
 70
    32
 71
     5
 42
20.0
  3
1zu1
100
AcDbAlignedDimension
 13
17.49999999999991
 23
42.5
 33
0.0
 14
17.49999999999991
 24
62.5
 34
0.0
 50
90.0
100
AcDbRotatedDimension
  0
MTEXT
  5
117
330
2
100
AcDbEntity
  8
BEM
100
AcDbMText
 10
107.4999999999999
 20
-13.42796073572987
 30
0.0
 40
5.0
 41
69.43909999999999
 71
     8
 72
     5
  1
{\C7;Lochbild 4\PHole layout 4}
  7
Arial
 73
     1
 44
1.0
1001
ACAD
1000
MTEXTBEGIN
1070
    73
1070
     1
1070
    44
1040
1.0
1070
    74
1070
     0
1000
MTEXTEND
  0
DIMENSION
  5
12C
330
2
100
AcDbEntity
  8
BEM
100
AcDbDimension
  2
*D7
 10
37.49999999999992
 20
21.38698224290761
 30
0.0
 11
27.49999999999991
 21
24.63698224290761
 31
0.0
 70
    32
 71
     5
 42
20.00000000000002
  3
1zu1
100
AcDbAlignedDimension
 13
17.4999999999999
 23
42.50000000000001
 33
0.0
 14
37.49999999999992
 24
42.5
 34
0.0
100
AcDbRotatedDimension
  0
LINE
  5
148
102
{ACAD_REACTORS
330
101D
102
}
330
2
100
AcDbEntity
  8
BEM
100
AcDbLine
 10
27.49999999999992
 20
52.5
 30
0.0
 11
35.0058302466494
 21
39.77809134505875
 31
0.0
  0
LINE
  5
149
102
{ACAD_REACTORS
330
101D
102
}
330
2
100
AcDbEntity
  8
BEM
100
AcDbLine
 10
37.49999999999992
 20
42.49999999999999
 30
0.0
 11
27.49999999999992
 21
52.5
 31
0.0
  0
DIMENSION
  5
16A
330
2
100
AcDbEntity
  8
BEM
100
AcDbDimension
  2
*D3
 10
137.1610005550969
 20
62.5
 30
0.0
 11
137.1610005550969
 21
79.94183822565033
 31
0.0
 70
   160
 71
     5
 42
3.500000000000014
  3
1zu1
100
AcDbAlignedDimension
 13
117.4999999999999
 23
66.00000000000001
 33
0.0
 14
117.4999999999999
 24
62.5
 34
0.0
 50
90.0
100
AcDbRotatedDimension
  0
DIMENSION
  5
179
330
2
100
AcDbEntity
  8
BEM
100
AcDbDimension
  2
*D2
 10
137.1610005550969
 20
62.5
 30
0.0
 11
133.9110005550969
 21
52.50000000000002
 31
0.0
 70
    32
 71
     5
 42
20.0
  3
1zu1
100
AcDbAlignedDimension
 13
117.4999999999999
 23
42.5
 33
0.0
 14
117.4999999999999
 24
62.5
 34
0.0
 50
90.0
100
AcDbRotatedDimension
  0
MTEXT
  5
1C1
330
2
100
AcDbEntity
  8
BEM
100
AcDbMText
 10
67.70901632924472
 20
212.2748438807578
 30
0.0
 40
5.0
 41
169.4391
 71
     8
 72
     5
  1
{\C7;Empfohlene Lochbilder für Axiallüfter 25 mm\PRecommended hole layouts vor Axialfan 25 mm}
  7
Arial
 73
     1
 44
1.0
1001
ACAD
1000
MTEXTBEGIN
1070
    73
1070
     1
1070
    44
1040
1.0
1070
    74
1070
     0
1000
MTEXTEND
  0
MTEXT
  5
1C2
330
2
100
AcDbEntity
  8
BEM
100
AcDbMText
 10
27.49999999999992
 20
182.6297050765749
 30
0.0
 40
5.0
 41
69.43909999999999
 71
     8
 72
     5
  1
{\C7;Lochbild 1\PHole layout 1}
  7
Arial
 73
     1
 44
1.0
1001
ACAD
1000
MTEXTBEGIN
1070
    73
1070
     1
1070
    44
1040
1.0
1070
    74
1070
     0
1000
MTEXTEND
  0
MTEXT
  5
1C3
330
2
100
AcDbEntity
  8
BEM
100
AcDbMText
 10
107.4999999999999
 20
182.6297050765749
 30
0.0
 40
5.0
 41
69.43909999999999
 71
     8
 72
     5
  1
{\C7;Lochbild 2\PHole layout 2}
  7
Arial
 73
     1
 44
1.0
1001
ACAD
1000
MTEXTBEGIN
1070
    73
1070
     1
1070
    44
1040
1.0
1070
    74
1070
     0
1000
MTEXTEND
  0
CIRCLE
  5
94B
330
2
100
AcDbEntity
  8
0
100
AcDbCircle
 10
37.49999999999992
 20
122.5
 30
0.0
 40
1.9
  0
CIRCLE
  5
94C
330
2
100
AcDbEntity
  8
0
100
AcDbCircle
 10
37.49999999999992
 20
122.5
 30
0.0
 40
2.149999999999999
  0
CIRCLE
  5
956
330
2
100
AcDbEntity
  8
0
100
AcDbCircle
 10
17.49999999999991
 20
122.5
 30
0.0
 40
2.149999999999999
  0
CIRCLE
  5
957
330
2
100
AcDbEntity
  8
0
100
AcDbCircle
 10
17.49999999999991
 20
122.5
 30
0.0
 40
1.9
  0
CIRCLE
  5
958
330
2
100
AcDbEntity
  8
0
100
AcDbCircle
 10
17.49999999999991
 20
142.5
 30
0.0
 40
1.9
  0
CIRCLE
  5
959
330
2
100
AcDbEntity
  8
0
100
AcDbCircle
 10
17.49999999999991
 20
142.5
 30
0.0
 40
2.149999999999999
  0
LINE
  5
B48
330
2
100
AcDbEntity
  8
sym1
100
AcDbLine
 10
123.4999999999999
 20
132.5
 30
0.0
 11
91.49999999999991
 21
132.5
 31
0.0
  0
LINE
  5
B49
330
2
100
AcDbEntity
  8
sym1
100
AcDbLine
 10
107.4999999999999
 20
148.5
 30
0.0
 11
107.4999999999999
 21
116.5
 31
0.0
  0
LWPOLYLINE
  5
C95
330
2
100
AcDbEntity
  8
ver1
100
AcDbPolyline
 90
        8
 70
     1
 43
0.0
 10
15.49999999999993
 20
126.8223304703363
 10
21.82233047033625
 20
120.5
 10
33.17766952966361
 20
120.5
 10
39.49999999999992
 20
126.8223304703363
 10
39.49999999999993
 20
138.1776695296636
 10
33.17766952966357
 20
144.5
 10
21.82233047033625
 20
144.5
 10
15.49999999999992
 20
138.1776695296637
  0
LWPOLYLINE
  5
C96
330
2
100
AcDbEntity
  8
ver1
100
AcDbPolyline
 90
        8
 70
     1
 43
0.0
 10
23.9999999999999
 20
144.5
 42
0.2561964152545499
 10
15.49999999999993
 20
136.0
 10
15.49999999999993
 20
128.9999999999999
 42
0.2561964152545485
 10
23.99999999999987
 20
120.5
 10
30.99999999999997
 20
120.5
 42
0.2561964152545517
 10
39.49999999999994
 20
129.0
 10
39.49999999999992
 20
135.9999999999999
 42
0.2561964152545517
 10
30.99999999999994
 20
144.5
  0
LINE
  5
D22
330
2
100
AcDbEntity
  8
sym1
100
AcDbLine
 10
27.49999999999992
 20
68.5
 30
0.0
 11
27.49999999999992
 21
36.5
 31
0.0
  0
DIMENSION
  5
D23
102
{ACAD_XDICTIONARY
360
D24
102
}
102
{ACAD_REACTORS
330
D25
102
}
330
2
100
AcDbEntity
  8
BEM
100
AcDbDimension
  2
*D12
 10
16.95237588945196
 20
46.77744588294814
 30
0.0
 11
26.62103132412093
 21
52.02312049024567
 31
0.0
 70
   163
 71
     5
 42
23.99999999999999
  3
1zu1
100
AcDbDiametricDimension
 15
38.0476241105479
 25
58.22255411705185
 35
0.0
 40
0.0
1001
ACAD
1000
DSTYLE
1002
{
1070
   288
1070
     1
1002
}
  0
LINE
  5
D26
330
2
100
AcDbEntity
  8
sym1
100
AcDbLine
 10
43.49999999999991
 20
52.5
 30
0.0
 11
11.49999999999991
 21
52.5
 31
0.0
  0
LWPOLYLINE
  5
D27
330
2
100
AcDbEntity
  8
ver1
100
AcDbPolyline
 90
        8
 70
     1
 43
0.0
 10
23.9999999999999
 20
64.5
 42
0.2561964152545499
 10
15.49999999999993
 20
56.00000000000005
 10
15.49999999999993
 20
48.99999999999995
 42
0.2561964152545485
 10
23.99999999999987
 20
40.50000000000001
 10
30.99999999999997
 20
40.50000000000001
 42
0.2561964152545517
 10
39.49999999999994
 20
49.00000000000005
 10
39.49999999999992
 20
55.99999999999997
 42
0.2561964152545517
 10
30.99999999999994
 20
64.5
  0
LWPOLYLINE
  5
D28
330
2
100
AcDbEntity
  8
ver1
100
AcDbPolyline
 90
        8
 70
     1
 43
0.0
 10
15.49999999999993
 20
46.82233047033628
 10
21.82233047033625
 20
40.50000000000001
 10
33.17766952966361
 20
40.49999999999999
 10
39.49999999999992
 20
46.82233047033631
 10
39.49999999999993
 20
58.17766952966366
 10
33.17766952966357
 20
64.5
 10
21.82233047033625
 20
64.5
 10
15.49999999999992
 20
58.17766952966369
  0
CIRCLE
  5
D29
102
{ACAD_REACTORS
330
D25
102
}
330
2
100
AcDbEntity
  8
0
100
AcDbCircle
 10
27.49999999999992
 20
52.5
 30
0.0
 40
12.0
  0
DIMENSION
  5
D54
102
{ACAD_XDICTIONARY
360
D5D
102
}
102
{ACAD_REACTORS
330
D63
102
}
330
2
100
AcDbEntity
  8
BEM
100
AcDbDimension
  2
*D13
 10
96.19245296011888
 20
128.4826152859256
 30
0.0
 11
106.5577044133431
 21
132.1652179404938
 31
0.0
 70
   163
 71
     5
 42
24.00000000000006
  3
1zu1
100
AcDbDiametricDimension
 15
118.8075470398809
 25
136.5173847140743
 35
0.0
 40
0.0
1001
ACAD
1000
DSTYLE
1002
{
1070
   288
1070
     1
1002
}
  0
LWPOLYLINE
  5
DAD
102
{ACAD_REACTORS
330
D63
330
DE3
330
E1B
102
}
330
2
100
AcDbEntity
  8
0
100
AcDbPolyline
 90
       24
 70
     1
 43
0.0
 10
115.323965702248
 20
123.4013429183178
 10
115.6667333866943
 20
123.2593638946769
 42
-0.3779644730092462
 10
115.8121797125276
 20
122.9623447601055
 42
3.774076820341456
 10
117.0376552398944
 20
124.1878202874723
 42
-0.3779644730092455
 10
116.7406361053229
 20
124.3332666133056
 10
116.5986570816821
 20
124.6760342977518
 42
0.3708276631995165
 10
116.5986570816821
 20
140.3239657022481
 10
116.7406361053229
 20
140.6667333866943
 42
-0.3779644730092454
 10
117.0376552398944
 20
140.8121797125277
 42
3.774076820341456
 10
115.8121797125276
 20
142.0376552398945
 42
-0.3779644730092462
 10
115.6667333866943
 20
141.740636105323
 10
115.323965702248
 20
141.5986570816821
 42
0.3708276631995158
 10
99.67603429775181
 20
141.5986570816821
 10
99.33326661330553
 20
141.740636105323
 42
-0.3779644730092461
 10
99.18782028747218
 20
142.0376552398945
 42
3.774076820341453
 10
97.96234476010539
 20
140.8121797125277
 42
-0.3779644730092455
 10
98.25936389467686
 20
140.6667333866943
 10
98.40134291831775
 20
140.3239657022481
 42
0.3708276631995165
 10
98.40134291831773
 20
124.6760342977519
 10
98.2593638946769
 20
124.3332666133056
 42
-0.3779644730092455
 10
97.96234476010539
 20
124.1878202874723
 42
3.774076820341453
 10
99.18782028747219
 20
122.9623447601055
 42
-0.377964473009246
 10
99.33326661330553
 20
123.2593638946769
 10
99.67603429775181
 20
123.4013429183178
 42
0.3708276631995158
  0
DIMENSION
  5
DCE
102
{ACAD_XDICTIONARY
360
DDA
102
}
102
{ACAD_REACTORS
330
DE3
102
}
330
2
100
AcDbEntity
  8
BEM
100
AcDbDimension
  2
*D14
 10
116.0976038514868
 20
141.4532024825039
 30
0.0
 11
131.2619807425651
 21
150.98398758748
 31
0.0
 70
    35
 71
     5
 42
3.500000000000085
  3
1zu1
100
AcDbDiametricDimension
 15
118.902396148513
 25
143.546797517496
 35
0.0
 40
0.0
1001
ACAD
1000
DSTYLE
1002
{
1070
     3
1000
%%c<>\C7;\H3.5;
1070
    48
1040
0.0
1070
    74
1070
     1
1070
   288
1070
     1
1002
}
  0
LWPOLYLINE
  5
DED
330
2
100
AcDbEntity
  8
ver1
100
AcDbPolyline
 90
        8
 70
     1
 43
0.0
 10
95.49999999999995
 20
126.8223304703363
 10
101.8223304703362
 20
120.5
 10
113.1776695296636
 20
120.5
 10
119.4999999999999
 20
126.8223304703363
 10
119.4999999999999
 20
138.1776695296636
 10
113.1776695296635
 20
144.5
 10
101.8223304703362
 20
144.5
 10
95.49999999999995
 20
138.1776695296637
  0
LWPOLYLINE
  5
DEE
330
2
100
AcDbEntity
  8
ver1
100
AcDbPolyline
 90
        8
 70
     1
 43
0.0
 10
103.9999999999999
 20
144.5
 42
0.2561964152545499
 10
95.49999999999995
 20
136.0
 10
95.49999999999995
 20
128.9999999999999
 42
0.2561964152545485
 10
103.9999999999999
 20
120.5
 10
111.0
 20
120.5
 42
0.2561964152545517
 10
119.4999999999999
 20
129.0
 10
119.4999999999999
 20
135.9999999999999
 42
0.2561964152545517
 10
110.9999999999999
 20
144.5
  0
DIMENSION
  5
E0A
102
{ACAD_XDICTIONARY
360
E14
102
}
102
{ACAD_REACTORS
330
E1B
102
}
330
2
100
AcDbEntity
  8
BEM
100
AcDbDimension
  2
*D15
 10
98.0283940115491
 20
124.428937471397
 30
0.0
 11
112.0612357047574
 21
109.7837543969995
 31
0.0
 70
   164
 71
     5
 42
0.2500000000000995
  3
1zu1
100
AcDbRadialDimension
 15
98.11674718585059
 25
124.1950705934709
 35
0.0
 40
0.0
1001
ACAD
1000
DSTYLE
1002
{
1070
     3
1000
R<>\C7;\H3.5;
1070
    48
1040
0.0
1070
    74
1070
     1
1070
   288
1070
     1
1002
}
  0
LWPOLYLINE
  5
E6D
102
{ACAD_REACTORS
330
F3D
102
}
330
2
100
AcDbEntity
  8
0
100
AcDbPolyline
 90
        4
 70
     1
 43
0.0
 10
17.84071890485555
 20
64.56987380685666
 42
-0.5191983409660296
 10
17.5887657648116
 20
64.24774730410246
 42
2.778175711786992
 10
19.23336015178819
 20
62.74075419870172
 42
-0.5191983409660198
 10
19.53230170288862
 20
63.01982375558732
 42
3.648575624119931
  0
LWPOLYLINE
  5
E6E
330
2
100
AcDbEntity
  8
0
100
AcDbPolyline
 90
        4
 70
     1
 43
0.0
 10
37.15928109514427
 20
40.43012619314334
 42
-0.5191983409660296
 10
37.41123423518822
 20
40.75225269589753
 42
2.778175711786992
 10
35.76663984821163
 20
42.25924580129827
 42
-0.5191983409660198
 10
35.4676982971112
 20
41.98017624441267
 42
3.648575624119931
  0
LWPOLYLINE
  5
E6F
102
{ACAD_REACTORS
330
F6E
102
}
330
2
100
AcDbEntity
  8
0
100
AcDbPolyline
 90
        4
 70
     1
 43
0.0
 10
15.43012619314325
 20
42.84071890485565
 42
-0.5191983409660296
 10
15.75225269589745
 20
42.58876576481169
 42
2.778175711786992
 10
17.2592458012982
 20
44.23336015178828
 42
-0.5191983409660198
 10
16.98017624441259
 20
44.53230170288871
 42
3.648575624119931
  0
LWPOLYLINE
  5
E70
330
2
100
AcDbEntity
  8
0
100
AcDbPolyline
 90
        4
 70
     1
 43
0.0
 10
39.56987380685658
 20
62.15928109514436
 42
-0.5191983409660296
 10
39.24774730410238
 20
62.41123423518832
 42
2.778175711786992
 10
37.74075419870163
 20
60.76663984821173
 42
-0.5191983409660198
 10
38.01982375558723
 20
60.46769829711129
 42
3.648575624119931
  0
LWPOLYLINE
  5
E92
330
2
100
AcDbEntity
  8
ver1
100
AcDbPolyline
 90
        8
 70
     1
 43
0.0
 10
95.49999999999993
 20
46.82233047033628
 10
101.8223304703362
 20
40.50000000000001
 10
113.1776695296636
 20
40.49999999999999
 10
119.4999999999999
 20
46.82233047033631
 10
119.4999999999999
 20
58.17766952966366
 10
113.1776695296635
 20
64.5
 10
101.8223304703362
 20
64.5
 10
95.49999999999991
 20
58.17766952966369
  0
LWPOLYLINE
  5
E93
330
2
100
AcDbEntity
  8
ver1
100
AcDbPolyline
 90
        8
 70
     1
 43
0.0
 10
103.9999999999999
 20
64.5
 42
0.2561964152545499
 10
95.49999999999995
 20
56.00000000000005
 10
95.49999999999993
 20
48.99999999999995
 42
0.2561964152545485
 10
103.9999999999998
 20
40.50000000000001
 10
110.9999999999999
 20
40.50000000000001
 42
0.2561964152545517
 10
119.4999999999999
 20
49.00000000000005
 10
119.4999999999999
 20
55.99999999999997
 42
0.2561964152545517
 10
110.9999999999999
 20
64.5
  0
LINE
  5
E94
330
2
100
AcDbEntity
  8
sym1
100
AcDbLine
 10
123.4999999999999
 20
52.5
 30
0.0
 11
91.49999999999991
 21
52.5
 31
0.0
  0
LINE
  5
E98
330
2
100
AcDbEntity
  8
sym1
100
AcDbLine
 10
107.4999999999999
 20
68.5
 30
0.0
 11
107.4999999999999
 21
36.5
 31
0.0
  0
CIRCLE
  5
EEC
102
{ACAD_REACTORS
330
FE3
102
}
330
2
100
AcDbEntity
  8
sym1
100
AcDbCircle
 10
27.49999999999992
 20
52.5
 30
0.0
 40
14.14213562373096
  0
DIMENSION
  5
F28
102
{ACAD_XDICTIONARY
360
F34
102
}
102
{ACAD_REACTORS
330
F3D
102
}
330
2
100
AcDbEntity
  8
BEM
100
AcDbDimension
  2
*D16
 10
21.77202926300409
 20
63.84288161969717
 30
0.0
 11
5.935191769218747
 21
74.14124202205579
 31
0.0
 70
    35
 71
     5
 42
4.5
  3
1zu1
100
AcDbDiametricDimension
 15
18.21631024369677
 25
66.60093569018532
 35
0.0
 40
0.0
1001
ACAD
1000
DSTYLE
1002
{
1070
     3
1000
%%c<>\C7;\H3.5;
1070
    48
1040
0.0
1070
    74
1070
     1
1070
   288
1070
     1
1002
}
  0
DIMENSION
  5
F59
102
{ACAD_XDICTIONARY
360
F65
102
}
102
{ACAD_REACTORS
330
F6E
102
}
330
2
100
AcDbEntity
  8
BEM
100
AcDbDimension
  2
*D17
 10
18.67417158415892
 20
43.79762132032178
 30
0.0
 11
2.10750428159122
 21
32.94885189158357
 31
0.0
 70
   163
 71
     5
 42
3.500000000000028
  3
1zu1
100
AcDbDiametricDimension
 15
16.32582841584091
 25
41.20237867967825
 35
0.0
 40
0.0
1001
ACAD
1000
DSTYLE
1002
{
1070
     3
1000
%%c<>\C7;\H3.5;
1070
    48
1040
0.0
1070
    74
1070
     1
1070
   288
1070
     1
1002
}
  0
DIMENSION
  5
FD2
102
{ACAD_XDICTIONARY
360
FDC
102
}
102
{ACAD_REACTORS
330
FE3
102
}
330
2
100
AcDbEntity
  8
BEM
100
AcDbDimension
  2
*D18
 10
27.49999999999991
 20
52.49999999999996
 30
0.0
 11
45.76024767297963
 21
74.16990375002917
 31
0.0
 70
   164
 71
     5
 42
14.142135623731
  3
1zu1
100
AcDbRadialDimension
 15
32.40334541370863
 25
65.76488611914411
 35
0.0
 40
0.0
1001
ACAD
1000
DSTYLE
1002
{
1070
     3
1000
R<>\C7;\H3.5;
1070
    48
1040
0.0
1070
    74
1070
     1
1070
   288
1070
     1
1002
}
  0
DIMENSION
  5
FFA
102
{ACAD_XDICTIONARY
360
100D
102
}
102
{ACAD_REACTORS
330
101D
102
}
330
2
100
AcDbEntity
  8
BEM
100
AcDbDimension
  2
*D19
 10
35.0058302466494
 20
39.77809134505875
 30
0.0
 11
50.16708403812528
 21
43.59755626794288
 31
0.0
 70
   162
 71
     5
 42
0.2523696425970971
  3
1zu1
100
AcDb2LineAngularDimension
 13
37.49999999999992
 23
42.49999999999999
 33
0.0
 14
27.49999999999992
 24
52.5
 34
0.0
 15
27.49999999999992
 25
52.5
 35
0.0
 16
41.59321954819758
 26
32.63970377964669
 36
0.0
  0
LWPOLYLINE
  5
10D3
330
2
100
AcDbEntity
  8
0
100
AcDbPolyline
 90
        4
 70
     1
 43
0.0
 10
96.24026241799716
 20
64.1357142857143
 42
-0.4744978678080769
 10
96.27525512860835
 20
63.75000000000002
 42
2.449489742783192
 10
98.72474487139152
 20
63.75000000000002
 42
-0.4744978678080767
 10
98.7597375820027
 20
64.1357142857143
 42
3.265986323710918
  0
LWPOLYLINE
  5
10D4
102
{ACAD_REACTORS
330
1116
102
}
330
2
100
AcDbEntity
  8
0
100
AcDbPolyline
 90
        4
 70
     1
 43
0.0
 10
116.2402624179971
 20
64.1357142857143
 42
-0.4744978678080769
 10
116.2752551286083
 20
63.75000000000002
 42
2.449489742783192
 10
118.7247448713915
 20
63.75000000000002
 42
-0.4744978678080767
 10
118.7597375820027
 20
64.1357142857143
 42
3.265986323710918
  0
LWPOLYLINE
  5
10E3
102
{ACAD_REACTORS
330
112C
330
1157
330
116C
102
}
330
2
100
AcDbEntity
  8
0
100
AcDbPolyline
 90
       12
 70
     1
 43
0.0
 10
118.6074537535192
 20
47.95858269772201
 42
1.489217751371413
 10
96.3925462464806
 20
47.95858269772199
 42
0.556975109680462
 10
96.24026241799716
 20
44.1357142857143
 42
-0.4744978678080852
 10
96.27525512860835
 20
43.75000000000002
 42
2.449489742783192
 10
98.72474487139152
 20
43.75000000000002
 42
-0.4744978678080767
 10
98.7597375820027
 20
44.1357142857143
 42
0.0109724914809888
 10
98.84031842838739
 20
44.19277934094231
 42
0.426433617726512
 10
116.1596815716124
 20
44.19277934094231
 42
0.0109724914809893
 10
116.2402624179971
 20
44.1357142857143
 42
-0.4744978678080852
 10
116.2752551286083
 20
43.75000000000002
 42
2.449489742783192
 10
118.7247448713915
 20
43.75000000000002
 42
-0.4744978678080767
 10
118.7597375820027
 20
44.1357142857143
 42
0.5569751096804641
  0
DIMENSION
  5
1101
102
{ACAD_XDICTIONARY
360
110D
102
}
102
{ACAD_REACTORS
330
1116
102
}
330
2
100
AcDbEntity
  8
BEM
100
AcDbDimension
  2
*D20
 10
119.310352216573
 20
64.66391435456066
 30
0.0
 11
103.307440887422
 21
74.74279654236188
 31
0.0
 70
    35
 71
     5
 42
4.5
  3
1zu1
100
AcDbDiametricDimension
 15
115.6896477834269
 25
67.33608564543939
 35
0.0
 40
0.0
1001
ACAD
1000
DSTYLE
1002
{
1070
     3
1000
%%c<>\C7;\H3.5;
1070
    48
1040
0.0
1070
    74
1070
     1
1070
   288
1070
     1
1002
}
  0
DIMENSION
  5
1117
102
{ACAD_XDICTIONARY
360
1123
102
}
102
{ACAD_REACTORS
330
112C
102
}
330
2
100
AcDbEntity
  8
BEM
100
AcDbDimension
  2
*D21
 10
116.2532593795126
 20
43.72806263082419
 30
0.0
 11
132.9771843434113
 21
37.15356158423065
 31
0.0
 70
    35
 71
     5
 42
3.500000000000007
  3
1zu1
100
AcDbDiametricDimension
 15
118.7467406204873
 25
41.27193736917581
 35
0.0
 40
0.0
1001
ACAD
1000
DSTYLE
1002
{
1070
     3
1000
%%c<>\C7;\H3.5;
1070
    48
1040
0.0
1070
    74
1070
     1
1070
   288
1070
     1
1002
}
  0
DIMENSION
  5
1148
102
{ACAD_XDICTIONARY
360
1151
102
}
102
{ACAD_REACTORS
330
1157
102
}
330
2
100
AcDbEntity
  8
BEM
100
AcDbDimension
  2
*D22
 10
96.85589276951997
 20
46.95897290513356
 30
0.0
 11
106.6129910641265
 21
52.03824774209446
 31
0.0
 70
   163
 71
     5
 42
23.99999999999999
  3
1zu1
100
AcDbDiametricDimension
 15
118.1441072304799
 25
58.04102709486647
 35
0.0
 40
0.0
1001
ACAD
1000
DSTYLE
1002
{
1070
   288
1070
     1
1002
}
  0
DIMENSION
  5
115D
102
{ACAD_XDICTIONARY
360
1166
102
}
102
{ACAD_REACTORS
330
116C
102
}
330
2
100
AcDbEntity
  8
BEM
100
AcDbDimension
  2
*D23
 10
96.10029157555228
 20
43.92857142857137
 30
0.0
 11
80.99539360818543
 21
41.82986768686958
 31
0.0
 70
   164
 71
     5
 42
0.2500000000001137
  3
1zu1
100
AcDbRadialDimension
 15
96.34791285370596
 25
43.96297640794354
 35
0.0
 40
0.0
1001
ACAD
1000
DSTYLE
1002
{
1070
   288
1070
     1
1002
}
  0
ENDSEC
  0
SECTION
  2
OBJECTS
  0
DICTIONARY
  5
7
330
0
100
AcDbDictionary
281
     1
  3
ACAD_COLOR
350
203
  3
ACAD_GROUP
350
22
  3
ACAD_LAYOUT
350
B
  3
ACAD_MATERIAL
350
202
  3
ACAD_MLINESTYLE
350
23
  3
ACAD_PLOTSETTINGS
350
24
  3
ACAD_PLOTSTYLENAME
350
6
  3
ACDBHEADERROUNDTRIPXREC
350
128E
  3
AcDbVariableDictionary
350
1C6
  0
DICTIONARY
  5
36
330
35
100
AcDbDictionary
280
     1
281
     1
  3
ACAD_DIMASSOC
360
37
  0
DICTIONARY
  5
85
330
84
100
AcDbDictionary
280
     1
281
     1
  3
ACAD_DIMASSOC
360
86
  0
DICTIONARY
  5
94
330
93
100
AcDbDictionary
280
     1
281
     1
  3
ACAD_DIMASSOC
360
95
  0
DICTIONARY
  5
D24
330
D23
100
AcDbDictionary
280
     1
281
     1
  3
ACAD_DIMASSOC
360
D25
  0
DICTIONARY
  5
D5D
330
D54
100
AcDbDictionary
280
     1
281
     1
  3
ACAD_DIMASSOC
360
D63
  0
DICTIONARY
  5
DDA
330
DCE
100
AcDbDictionary
280
     1
281
     1
  3
ACAD_DIMASSOC
360
DE3
  0
DICTIONARY
  5
E14
330
E0A
100
AcDbDictionary
280
     1
281
     1
  3
ACAD_DIMASSOC
360
E1B
  0
DICTIONARY
  5
F34
330
F28
100
AcDbDictionary
280
     1
281
     1
  3
ACAD_DIMASSOC
360
F3D
  0
DICTIONARY
  5
F65
330
F59
100
AcDbDictionary
280
     1
281
     1
  3
ACAD_DIMASSOC
360
F6E
  0
DICTIONARY
  5
FDC
330
FD2
100
AcDbDictionary
280
     1
281
     1
  3
ACAD_DIMASSOC
360
FE3
  0
DICTIONARY
  5
100D
330
FFA
100
AcDbDictionary
280
     1
281
     1
  3
ACAD_DIMASSOC
360
101D
  0
DICTIONARY
  5
110D
330
1101
100
AcDbDictionary
280
     1
281
     1
  3
ACAD_DIMASSOC
360
1116
  0
DICTIONARY
  5
1123
330
1117
100
AcDbDictionary
280
     1
281
     1
  3
ACAD_DIMASSOC
360
112C
  0
DICTIONARY
  5
1151
330
1148
100
AcDbDictionary
280
     1
281
     1
  3
ACAD_DIMASSOC
360
1157
  0
DICTIONARY
  5
1166
330
115D
100
AcDbDictionary
280
     1
281
     1
  3
ACAD_DIMASSOC
360
116C
  0
DICTIONARY
  5
203
102
{ACAD_REACTORS
330
7
102
}
330
7
100
AcDbDictionary
281
     1
  0
DICTIONARY
  5
22
102
{ACAD_REACTORS
330
7
102
}
330
7
100
AcDbDictionary
281
     1
  0
DICTIONARY
  5
B
102
{ACAD_REACTORS
330
7
102
}
330
7
100
AcDbDictionary
281
     1
  3
DIN-A3
350
F
  3
Model
350
A
  0
DICTIONARY
  5
202
102
{ACAD_REACTORS
330
7
102
}
330
7
100
AcDbDictionary
281
     1
  0
DICTIONARY
  5
23
102
{ACAD_REACTORS
330
7
102
}
330
7
100
AcDbDictionary
281
     1
  3
Standard
350
26
  0
DICTIONARY
  5
24
102
{ACAD_REACTORS
330
7
102
}
330
7
100
AcDbDictionary
281
     1
  0
ACDBDICTIONARYWDFLT
  5
6
102
{ACAD_REACTORS
330
7
102
}
330
7
100
AcDbDictionary
281
     1
  3
Normal
350
5
100
AcDbDictionaryWithDefault
340
5
  0
DICTIONARY
  5
128E
102
{ACAD_REACTORS
330
7
102
}
330
7
100
AcDbDictionary
281
     1
  3
COLORDICT
350
1290
  3
MATERIALDICT
350
128F
  0
DICTIONARY
  5
1C6
102
{ACAD_REACTORS
330
7
102
}
330
7
100
AcDbDictionary
281
     1
  3
DIMASSOC
350
1C8
  3
HIDETEXT
350
1C7
  3
PROJECTNAME
350
76B
  0
DIMASSOC
  5
37
102
{ACAD_REACTORS
330
36
102
}
330
36
100
AcDbDimAssoc
330
35
 90
        1
 70
     0
 71
     0
  1
AcDbOsnapPointRef
 72
     3
331
9E
 73
     2
 91
        0
 40
0.0
 10
53.49999999999992
 20
128.5
 30
0.0
 75
     0
  0
DIMASSOC
  5
86
102
{ACAD_REACTORS
330
85
102
}
330
85
100
AcDbDimAssoc
330
84
 90
        2
 70
     0
 71
     0
  1
AcDbOsnapPointRef
 72
     3
331
9E
 73
     2
 91
        0
 40
0.0
 10
53.49999999999992
 20
128.5
 30
0.0
 75
     0
  0
DIMASSOC
  5
95
102
{ACAD_REACTORS
330
94
102
}
330
94
100
AcDbDimAssoc
330
93
 90
        2
 70
     0
 71
     0
  1
AcDbOsnapPointRef
 72
     3
331
9F
 73
     2
 91
        0
 40
0.0
 10
37.49999999999992
 20
112.5
 30
0.0
 75
     0
  0
DIMASSOC
  5
D25
102
{ACAD_REACTORS
330
D24
102
}
330
D24
100
AcDbDimAssoc
330
D23
 90
        2
 70
     0
 71
     0
  1
AcDbOsnapPointRef
 72
     3
331
D29
 73
     2
 91
        0
 40
0.0
 10
37.49999999999992
 20
112.5
 30
0.0
 75
     0
  0
DIMASSOC
  5
D63
102
{ACAD_REACTORS
330
D5D
102
}
330
D5D
100
AcDbDimAssoc
330
D54
 90
        2
 70
     0
 71
     0
  1
AcDbOsnapPointRef
 72
     3
331
DAD
 73
     2
 91
        6
 40
0.0
 10
0.0
 20
0.0
 30
0.0
 75
     0
  0
DIMASSOC
  5
DE3
102
{ACAD_REACTORS
330
DDA
102
}
330
DDA
100
AcDbDimAssoc
330
DCE
 90
        2
 70
     0
 71
     0
  1
AcDbOsnapPointRef
 72
     3
331
DAD
 73
     2
 91
        9
 40
0.0
 10
0.0
 20
0.0
 30
0.0
 75
     0
  0
DIMASSOC
  5
E1B
102
{ACAD_REACTORS
330
E14
102
}
330
E14
100
AcDbDimAssoc
330
E0A
 90
        2
 70
     0
 71
     0
  1
AcDbOsnapPointRef
 72
     3
331
DAD
 73
     2
 91
       20
 40
0.0
 10
0.0
 20
0.0
 30
0.0
 75
     0
  0
DIMASSOC
  5
F3D
102
{ACAD_REACTORS
330
F34
102
}
330
F34
100
AcDbDimAssoc
330
F28
 90
        2
 70
     0
 71
     0
  1
AcDbOsnapPointRef
 72
     3
331
E6D
 73
     2
 91
        4
 40
0.0
 10
0.0
 20
0.0
 30
0.0
 75
     0
  0
DIMASSOC
  5
F6E
102
{ACAD_REACTORS
330
F65
102
}
330
F65
100
AcDbDimAssoc
330
F59
 90
        2
 70
     0
 71
     0
  1
AcDbOsnapPointRef
 72
     3
331
E6F
 73
     2
 91
        2
 40
0.0
 10
0.0
 20
0.0
 30
0.0
 75
     0
  0
DIMASSOC
  5
FE3
102
{ACAD_REACTORS
330
FDC
102
}
330
FDC
100
AcDbDimAssoc
330
FD2
 90
        2
 70
     0
 71
     0
  1
AcDbOsnapPointRef
 72
     3
331
EEC
 73
     2
 91
        0
 40
0.0
 10
0.0
 20
0.0
 30
0.0
 75
     0
  0
DIMASSOC
  5
101D
102
{ACAD_REACTORS
330
100D
102
}
330
100D
100
AcDbDimAssoc
330
FFA
 90
       15
 70
     0
 71
     0
  1
AcDbOsnapPointRef
 72
    13
331
149
 73
     2
 91
        0
 40
0.0
 10
0.0
 20
0.0
 30
2.000000000000000E+50
 75
     0
  1
AcDbOsnapPointRef
 72
     1
331
149
 73
     2
 91
        0
 40
1.0
 10
0.0
 20
0.0
 30
2.000000000000000E+50
 75
     0
  1
AcDbOsnapPointRef
 72
    13
331
148
 73
     2
 91
        0
 40
0.0
 10
0.0
 20
0.0
 30
2.000000000000000E+50
 75
     0
  1
AcDbOsnapPointRef
 72
     1
331
148
 73
     2
 91
        0
 40
1.0
 10
0.0
 20
0.0
 30
2.000000000000000E+50
 75
     0
  0
DIMASSOC
  5
1116
102
{ACAD_REACTORS
330
110D
102
}
330
110D
100
AcDbDimAssoc
330
1101
 90
        2
 70
     0
 71
     0
  1
AcDbOsnapPointRef
 72
     3
331
10D4
 73
     2
 91
        4
 40
0.0
 10
0.0
 20
0.0
 30
0.0
 75
     0
  0
DIMASSOC
  5
112C
102
{ACAD_REACTORS
330
1123
102
}
330
1123
100
AcDbDimAssoc
330
1117
 90
        2
 70
     0
 71
     0
  1
AcDbOsnapPointRef
 72
     3
331
10E3
 73
     2
 91
       10
 40
0.0
 10
0.0
 20
0.0
 30
0.0
 75
     0
  0
DIMASSOC
  5
1157
102
{ACAD_REACTORS
330
1151
102
}
330
1151
100
AcDbDimAssoc
330
1148
 90
        2
 70
     0
 71
     0
  1
AcDbOsnapPointRef
 72
     3
331
10E3
 73
     2
 91
        1
 40
0.0
 10
0.0
 20
0.0
 30
0.0
 75
     0
  0
DIMASSOC
  5
116C
102
{ACAD_REACTORS
330
1166
102
}
330
1166
100
AcDbDimAssoc
330
115D
 90
        2
 70
     0
 71
     0
  1
AcDbOsnapPointRef
 72
     3
331
10E3
 73
     2
 91
        3
 40
0.0
 10
0.0
 20
0.0
 30
0.0
 75
     0
  0
LAYOUT
  5
F
102
{ACAD_XDICTIONARY
360
1293
102
}
102
{ACAD_REACTORS
330
B
102
}
330
B
100
AcDbPlotSettings
  1

  2
HP LaserJet 5000 N PCL 6
  4
A4
  6

 40
4.233333110809326
 41
4.233341693878173
 42
7.789321899414062
 43
4.23333740234375
 44
209.9733276367187
 45
296.9259948730469
 46
0.0
 47
4.259999999999999
 48
0.0
 49
0.0
140
420.0
141
297.0
142
1.0
143
1.50037378534397
 70
   692
 72
     1
 73
     1
 74
     4
  7
mittel-pdf.ctb
 75
     0
147
0.6665005812339912
148
0.0
149
0.0
100
AcDbLayout
  1
DIN-A3
 70
     1
 71
     1
 10
-12.74318078855802
 20
-6.351582024086956
 11
432.7567981061398
 21
308.6868943834866
 12
0.0
 22
0.0
 32
0.0
 14
0.0
 24
0.0
 34
0.0
 15
420.0
 25
297.0
 35
0.0
146
0.0
 13
0.0
 23
0.0
 33
0.0
 16
1.0
 26
0.0
 36
0.0
 17
0.0
 27
1.0
 37
0.0
 76
     0
330
C
  0
LAYOUT
  5
A
102
{ACAD_XDICTIONARY
360
1291
102
}
102
{ACAD_REACTORS
330
B
102
}
330
B
100
AcDbPlotSettings
  1

  2
HP LaserJet 5000 N PCL 6
  4
A4
  6

 40
4.233333110809326
 41
4.233341693878173
 42
7.789321899414062
 43
4.23333740234375
 44
209.9733276367187
 45
296.9259948730469
 46
0.0
 47
0.0
 48
0.0
 49
0.0
140
0.0
141
0.0
142
1.0
143
1.0
 70
 11952
 72
     1
 73
     1
 74
     0
  7
mittel.ctb
 75
     0
147
1.0
148
73.55786430362087
149
47.31986355289774
100
AcDbLayout
  1
Model
 70
     1
 71
     0
 10
0.0
 20
0.0
 11
12.0
 21
9.0
 12
0.0
 22
0.0
 32
0.0
 14
0.0
 24
0.0
 34
0.0
 15
0.0
 25
0.0
 35
0.0
146
0.0
 13
0.0
 23
0.0
 33
0.0
 16
1.0
 26
0.0
 36
0.0
 17
0.0
 27
1.0
 37
0.0
 76
     0
330
2
  0
MLINESTYLE
  5
26
102
{ACAD_REACTORS
330
23
102
}
330
23
100
AcDbMlineStyle
  2
STANDARD
 70
     0
  3

 62
   256
 51
90.0
 52
90.0
 71
     2
 49
0.5
 62
   256
  6
BYLAYER
 49
-0.5
 62
   256
  6
BYLAYER
  0
ACDBPLACEHOLDER
  5
5
102
{ACAD_REACTORS
330
6
102
}
330
6
  0
XRECORD
  5
1290
102
{ACAD_REACTORS
330
128E
102
}
330
128E
100
AcDbXrecord
280
     1
340
203
  0
XRECORD
  5
128F
102
{ACAD_REACTORS
330
128E
102
}
330
128E
100
AcDbXrecord
280
     1
340
202
  0
DICTIONARYVAR
  5
1C8
102
{ACAD_REACTORS
330
1C6
102
}
330
1C6
100
DictionaryVariables
280
     0
  1
2
  0
DICTIONARYVAR
  5
1C7
102
{ACAD_REACTORS
330
1C6
102
}
330
1C6
100
DictionaryVariables
280
     0
  1
1
  0
DICTIONARYVAR
  5
76B
102
{ACAD_REACTORS
330
1C6
102
}
330
1C6
100
DictionaryVariables
280
     0
  1

  0
DICTIONARY
  5
1293
330
F
100
AcDbDictionary
280
     1
281
     1
  3
ACAD_XREC_ROUNDTRIP
360
1294
  0
DICTIONARY
  5
1291
330
A
100
AcDbDictionary
280
     1
281
     1
  3
ACAD_XREC_ROUNDTRIP
360
1292
  0
XRECORD
  5
1294
102
{ACAD_REACTORS
330
1293
102
}
330
1293
100
AcDbXrecord
280
     1
102
SHADEPLOT
 70
     0
102
SHADEPLOTRESLEVEL
 70
     2
102
SHADEPLOTCUSTOMDPI
 70
   300
  0
XRECORD
  5
1292
102
{ACAD_REACTORS
330
1291
102
}
330
1291
100
AcDbXrecord
280
     1
102
SHADEPLOT
 70
     0
102
SHADEPLOTRESLEVEL
 70
     2
102
SHADEPLOTCUSTOMDPI
 70
   300
  0
ENDSEC
  0
EOF
