  0
SECTION
  2
HEADER
  9
$ACADVER
  1
AC1015
  9
$ACADMAINTVER
 70
    20
  9
$DWGCODEPAGE
  3
ANSI_1252
  9
$INSBASE
 10
0.0
 20
0.0
 30
0.0
  9
$EXTMIN
 10
-15.76334768180257
 20
114.5
 30
0.0
  9
$EXTMAX
 10
68.7499999999999
 20
197.6297050765749
 30
0.0
  9
$LIMMIN
 10
0.0
 20
0.0
  9
$LIMMAX
 10
420.0
 20
297.0
  9
$ORTHOMODE
 70
     1
  9
$REGENMODE
 70
     1
  9
$FILLMODE
 70
     1
  9
$QTEXTMODE
 70
     0
  9
$MIRRTEXT
 70
     1
  9
$LTSCALE
 40
0.5
  9
$ATTMODE
 70
     1
  9
$TEXTSIZE
 40
2.5
  9
$TRACEWID
 40
1.0
  9
$TEXTSTYLE
  7
Standard
  9
$CLAYER
  8
BEM
  9
$CELTYPE
  6
ByLayer
  9
$CECOLOR
 62
   256
  9
$CELTSCALE
 40
1.0
  9
$DISPSILH
 70
     0
  9
$DIMSCALE
 40
1.0
  9
$DIMASZ
 40
3.5
  9
$DIMEXO
 40
0.0
  9
$DIMDLI
 40
10.0
  9
$DIMRND
 40
0.0
  9
$DIMDLE
 40
0.0
  9
$DIMEXE
 40
2.0
  9
$DIMTP
 40
0.0
  9
$DIMTM
 40
0.000000001
  9
$DIMTXT
 40
3.5
  9
$DIMCEN
 40
1.5
  9
$DIMTSZ
 40
0.0
  9
$DIMTOL
 70
     0
  9
$DIMLIM
 70
     0
  9
$DIMTIH
 70
     0
  9
$DIMTOH
 70
     0
  9
$DIMSE1
 70
     0
  9
$DIMSE2
 70
     0
  9
$DIMTAD
 70
     1
  9
$DIMZIN
 70
     8
  9
$DIMBLK
  1

  9
$DIMASO
 70
     1
  9
$DIMSHO
 70
     1
  9
$DIMPOST
  1

  9
$DIMAPOST
  1

  9
$DIMALT
 70
     0
  9
$DIMALTD
 70
     2
  9
$DIMALTF
 40
25.4
  9
$DIMLFAC
 40
1.0
  9
$DIMTOFL
 70
     1
  9
$DIMTVP
 40
0.0
  9
$DIMTIX
 70
     0
  9
$DIMSOXD
 70
     0
  9
$DIMSAH
 70
     0
  9
$DIMBLK1
  1

  9
$DIMBLK2
  1

  9
$DIMSTYLE
  2
1zu1
  9
$DIMCLRD
 70
   256
  9
$DIMCLRE
 70
   256
  9
$DIMCLRT
 70
     7
  9
$DIMTFAC
 40
0.7
  9
$DIMGAP
 40
1.5
  9
$DIMJUST
 70
     0
  9
$DIMSD1
 70
     0
  9
$DIMSD2
 70
     0
  9
$DIMTOLJ
 70
     1
  9
$DIMTZIN
 70
     8
  9
$DIMALTZ
 70
     0
  9
$DIMALTTZ
 70
     0
  9
$DIMUPT
 70
     0
  9
$DIMDEC
 70
     2
  9
$DIMTDEC
 70
     2
  9
$DIMALTU
 70
     2
  9
$DIMALTTD
 70
     2
  9
$DIMTXSTY
  7
ROMANS
  9
$DIMAUNIT
 70
     0
  9
$DIMADEC
 70
     2
  9
$DIMALTRND
 40
0.0
  9
$DIMAZIN
 70
     2
  9
$DIMDSEP
 70
    46
  9
$DIMATFIT
 70
     3
  9
$DIMFRAC
 70
     0
  9
$DIMLDRBLK
  1

  9
$DIMLUNIT
 70
     2
  9
$DIMLWD
 70
    -1
  9
$DIMLWE
 70
    -1
  9
$DIMTMOVE
 70
     0
  9
$LUNITS
 70
     2
  9
$LUPREC
 70
     4
  9
$SKETCHINC
 40
1.0
  9
$FILLETRAD
 40
0.5
  9
$AUNITS
 70
     0
  9
$AUPREC
 70
     0
  9
$MENU
  1
.
  9
$ELEVATION
 40
0.0
  9
$PELEVATION
 40
0.0
  9
$THICKNESS
 40
0.0
  9
$LIMCHECK
 70
     0
  9
$CHAMFERA
 40
10.0
  9
$CHAMFERB
 40
10.0
  9
$CHAMFERC
 40
20.0
  9
$CHAMFERD
 40
0.0
  9
$SKPOLY
 70
     0
  9
$TDCREATE
 40
2452694.760215926
  9
$TDUCREATE
 40
2452694.718549260
  9
$TDUPDATE
 40
2456960.651063634
  9
$TDUUPDATE
 40
2456960.609396968
  9
$TDINDWG
 40
6.3513516204
  9
$TDUSRTIMER
 40
6.3513514352
  9
$USRTIMER
 70
     1
  9
$ANGBASE
 50
0.0
  9
$ANGDIR
 70
     0
  9
$PDMODE
 70
     0
  9
$PDSIZE
 40
0.0
  9
$PLINEWID
 40
0.0
  9
$SPLFRAME
 70
     0
  9
$SPLINETYPE
 70
     6
  9
$SPLINESEGS
 70
     8
  9
$HANDSEED
  5
DE
  9
$SURFTAB1
 70
     6
  9
$SURFTAB2
 70
     6
  9
$SURFTYPE
 70
     6
  9
$SURFU
 70
     6
  9
$SURFV
 70
     6
  9
$UCSBASE
  2

  9
$UCSNAME
  2

  9
$UCSORG
 10
0.0
 20
0.0
 30
0.0
  9
$UCSXDIR
 10
1.0
 20
0.0
 30
0.0
  9
$UCSYDIR
 10
0.0
 20
1.0
 30
0.0
  9
$UCSORTHOREF
  2

  9
$UCSORTHOVIEW
 70
     0
  9
$UCSORGTOP
 10
0.0
 20
0.0
 30
0.0
  9
$UCSORGBOTTOM
 10
0.0
 20
0.0
 30
0.0
  9
$UCSORGLEFT
 10
0.0
 20
0.0
 30
0.0
  9
$UCSORGRIGHT
 10
0.0
 20
0.0
 30
0.0
  9
$UCSORGFRONT
 10
0.0
 20
0.0
 30
0.0
  9
$UCSORGBACK
 10
0.0
 20
0.0
 30
0.0
  9
$PUCSBASE
  2

  9
$PUCSNAME
  2

  9
$PUCSORG
 10
0.0
 20
0.0
 30
0.0
  9
$PUCSXDIR
 10
1.0
 20
0.0
 30
0.0
  9
$PUCSYDIR
 10
0.0
 20
1.0
 30
0.0
  9
$PUCSORTHOREF
  2

  9
$PUCSORTHOVIEW
 70
     0
  9
$PUCSORGTOP
 10
0.0
 20
0.0
 30
0.0
  9
$PUCSORGBOTTOM
 10
0.0
 20
0.0
 30
0.0
  9
$PUCSORGLEFT
 10
0.0
 20
0.0
 30
0.0
  9
$PUCSORGRIGHT
 10
0.0
 20
0.0
 30
0.0
  9
$PUCSORGFRONT
 10
0.0
 20
0.0
 30
0.0
  9
$PUCSORGBACK
 10
0.0
 20
0.0
 30
0.0
  9
$USERI1
 70
     0
  9
$USERI2
 70
     0
  9
$USERI3
 70
     0
  9
$USERI4
 70
     0
  9
$USERI5
 70
     0
  9
$USERR1
 40
3.0
  9
$USERR2
 40
1.0
  9
$USERR3
 40
1.0
  9
$USERR4
 40
0.0
  9
$USERR5
 40
0.0
  9
$WORLDVIEW
 70
     1
  9
$SHADEDGE
 70
     3
  9
$SHADEDIF
 70
    70
  9
$TILEMODE
 70
     1
  9
$MAXACTVP
 70
    64
  9
$PINSBASE
 10
0.0
 20
0.0
 30
0.0
  9
$PLIMCHECK
 70
     0
  9
$PEXTMIN
 10
0.0
 20
0.0
 30
0.0
  9
$PEXTMAX
 10
420.0
 20
297.0
 30
0.0
  9
$PLIMMIN
 10
-12.74318078855802
 20
-6.351582024086956
  9
$PLIMMAX
 10
432.7567981061398
 20
308.6868943834866
  9
$UNITMODE
 70
     0
  9
$VISRETAIN
 70
     1
  9
$PLINEGEN
 70
     0
  9
$PSLTSCALE
 70
     1
  9
$TREEDEPTH
 70
  3020
  9
$CMLSTYLE
  2
Standard
  9
$CMLJUST
 70
     0
  9
$CMLSCALE
 40
20.0
  9
$PROXYGRAPHICS
 70
     1
  9
$MEASUREMENT
 70
     1
  9
$CELWEIGHT
370
    -1
  9
$ENDCAPS
280
     0
  9
$JOINSTYLE
280
     0
  9
$LWDISPLAY
290
     0
  9
$INSUNITS
 70
     4
  9
$HYPERLINKBASE
  1

  9
$STYLESHEET
  1

  9
$XEDIT
290
     1
  9
$CEPSNTYPE
380
     0
  9
$PSTYLEMODE
290
     1
  9
$FINGERPRINTGUID
  2
{E6FFC3F2-70B4-4732-BDD3-06AAED10F260}
  9
$VERSIONGUID
  2
{072073F8-29D4-4AA1-BC68-4CAE1F2AFD12}
  9
$EXTNAMES
290
     1
  9
$PSVPSCALE
 40
0.0
  9
$OLESTARTUP
290
     0
  0
ENDSEC
  0
SECTION
  2
CLASSES
  0
CLASS
  1
ACDBDICTIONARYWDFLT
  2
AcDbDictionaryWithDefault
  3
ObjectDBX Classes
 90
        0
280
     0
281
     0
  0
CLASS
  1
DICTIONARYVAR
  2
AcDbDictionaryVar
  3
ObjectDBX Classes
 90
        0
280
     0
281
     0
  0
CLASS
  1
DIMASSOC
  2
AcDbDimAssoc
  3
"AcDbDimAssoc|Product Desc:     AcDim ARX App For Dimension|Company:          Autodesk, Inc.|WEB Address:      www.autodesk.com"
 90
        0
280
     0
281
     0
  0
CLASS
  1
ACDBPLACEHOLDER
  2
AcDbPlaceHolder
  3
ObjectDBX Classes
 90
        0
280
     0
281
     0
  0
CLASS
  1
LAYOUT
  2
AcDbLayout
  3
ObjectDBX Classes
 90
        0
280
     0
281
     0
  0
ENDSEC
  0
SECTION
  2
TABLES
  0
TABLE
  2
VPORT
  5
19
330
0
100
AcDbSymbolTable
 70
     2
  0
VPORT
  5
D5
330
19
100
AcDbSymbolTableRecord
100
AcDbViewportTableRecord
  2
*Active
 70
     0
 10
0.0
 20
0.0
 11
1.0
 21
1.0
 12
26.48059935583216
 22
156.0554941220734
 13
0.0
 23
0.0
 14
10.0
 24
10.0
 15
10.0
 25
10.0
 16
0.0
 26
0.0
 36
1.0
 17
0.0
 27
0.0
 37
0.0
 40
83.70199610737385
 41
2.031903190319031
 42
50.0
 43
0.0
 44
0.0
 50
0.0
 51
0.0
 71
     0
 72
   100
 73
     1
 74
     3
 75
     0
 76
     0
 77
     0
 78
     2
281
     0
 65
     1
110
0.0
120
0.0
130
0.0
111
1.0
121
0.0
131
0.0
112
0.0
122
1.0
132
0.0
 79
     0
146
0.0
  0
ENDTAB
  0
TABLE
  2
LTYPE
  5
14
330
0
100
AcDbSymbolTable
 70
     3
  0
LTYPE
  5
15
330
14
100
AcDbSymbolTableRecord
100
AcDbLinetypeTableRecord
  2
ByBlock
 70
     0
  3

 72
    65
 73
     0
 40
0.0
  0
LTYPE
  5
16
330
14
100
AcDbSymbolTableRecord
100
AcDbLinetypeTableRecord
  2
ByLayer
 70
     0
  3

 72
    65
 73
     0
 40
0.0
  0
LTYPE
  5
8
330
14
100
AcDbSymbolTableRecord
100
AcDbLinetypeTableRecord
  2
Continuous
 70
     0
  3
Solid line
 72
    65
 73
     0
 40
0.0
  0
LTYPE
  5
36
330
14
100
AcDbSymbolTableRecord
100
AcDbLinetypeTableRecord
  2
ACAD_ISO04W100
 70
     0
  3
ISO Lang gestrichelt punktiert ____ . ____ . __
 72
    65
 73
     4
 40
30.0
 49
24.0
 74
     0
 49
-3.0
 74
     0
 49
0.0
 74
     0
 49
-3.0
 74
     0
  0
LTYPE
  5
31
330
14
100
AcDbSymbolTableRecord
100
AcDbLinetypeTableRecord
  2
VERDECKT
 70
     0
  3
Verdeckt __ __ __ __ __ __ __ __ __ __ __ __ __
 72
    65
 73
     2
 40
9.524999999999996
 49
6.349999999999997
 74
     0
 49
-3.174999999999998
 74
     0
  0
ENDTAB
  0
TABLE
  2
LAYER
  5
10
330
0
100
AcDbSymbolTable
 70
     5
  0
LAYER
  5
4
330
10
100
AcDbSymbolTableRecord
100
AcDbLayerTableRecord
  2
0
 70
     0
 62
     7
  6
Continuous
370
    -3
390
5
  0
LAYER
  5
41
330
10
100
AcDbSymbolTableRecord
100
AcDbLayerTableRecord
  2
Defpoints
 70
     0
 62
     7
  6
Continuous
290
     0
370
    -3
390
5
  0
LAYER
  5
27
330
10
100
AcDbSymbolTableRecord
100
AcDbLayerTableRecord
  2
BEM
 70
     0
 62
     3
  6
Continuous
370
    -3
390
5
  0
LAYER
  5
30
330
10
100
AcDbSymbolTableRecord
100
AcDbLayerTableRecord
  2
ver1
 70
     0
 62
     8
  6
VERDECKT
370
    -3
390
5
  0
LAYER
  5
35
330
10
100
AcDbSymbolTableRecord
100
AcDbLayerTableRecord
  2
sym1
 70
     0
 62
     6
  6
ACAD_ISO04W100
370
    -3
390
5
  0
ENDTAB
  0
TABLE
  2
STYLE
  5
11
330
0
100
AcDbSymbolTable
 70
     2
  0
STYLE
  5
12
330
11
100
AcDbSymbolTableRecord
100
AcDbTextStyleTableRecord
  2
Standard
 70
     0
 40
0.0
 41
1.0
 50
0.0
 71
     0
 42
2.5
  3
txt
  4

  0
STYLE
  5
1F
330
11
100
AcDbSymbolTableRecord
100
AcDbTextStyleTableRecord
  2
ROMANS
 70
     0
 40
0.0
 41
1.0
 50
0.0
 71
     0
 42
3.5
  3
C:\ACAD13\COM\FONTS\ROMANS.SHX
  4

  0
ENDTAB
  0
TABLE
  2
VIEW
  5
17
330
0
100
AcDbSymbolTable
 70
     0
  0
ENDTAB
  0
TABLE
  2
UCS
  5
18
330
0
100
AcDbSymbolTable
 70
     0
  0
ENDTAB
  0
TABLE
  2
APPID
  5
1B
330
0
100
AcDbSymbolTable
 70
     2
  0
APPID
  5
1C
330
1B
100
AcDbSymbolTableRecord
100
AcDbRegAppTableRecord
  2
ACAD
 70
     0
  0
APPID
  5
9D
330
1B
100
AcDbSymbolTableRecord
100
AcDbRegAppTableRecord
  2
DCO15
 70
     0
  0
ENDTAB
  0
TABLE
  2
DIMSTYLE
  5
1D
330
0
100
AcDbSymbolTable
 70
     2
100
AcDbDimStyleTable
 71
     2
340
1E
340
20
  0
DIMSTYLE
105
20
330
1D
100
AcDbSymbolTableRecord
100
AcDbDimStyleTableRecord
  2
ISO-25
 70
     0
 41
2.5
 42
0.625
 43
3.75
 44
1.25
 73
     0
 74
     0
 77
     1
 78
     8
140
2.5
141
2.5
143
0.03937007874016
147
0.625
171
     3
172
     1
271
     2
272
     2
274
     3
278
    44
283
     0
284
     8
340
12
  0
DIMSTYLE
105
1E
102
{ACAD_REACTORS
330
47
330
52
330
37
330
72
102
}
330
1D
100
AcDbSymbolTableRecord
100
AcDbDimStyleTableRecord
  2
1zu1
 70
     0
 41
3.5
 42
0.0
 43
10.0
 44
2.0
 48
0.000000001
 73
     0
 74
     0
 77
     1
 78
     8
 79
     2
140
3.5
141
1.5
146
0.7
147
1.5
172
     1
176
   256
177
   256
178
     7
179
     2
271
     2
272
     2
284
     8
340
1F
371
    -1
372
    -1
  0
ENDTAB
  0
TABLE
  2
BLOCK_RECORD
  5
1
330
0
100
AcDbSymbolTable
 70
     6
  0
BLOCK_RECORD
  5
2
330
1
100
AcDbSymbolTableRecord
100
AcDbBlockTableRecord
  2
*Model_Space
340
A
  0
BLOCK_RECORD
  5
C
330
1
100
AcDbSymbolTableRecord
100
AcDbBlockTableRecord
  2
*Paper_Space
340
F
  0
BLOCK_RECORD
  5
64
330
1
100
AcDbSymbolTableRecord
100
AcDbBlockTableRecord
  2
*D0
340
0
  0
BLOCK_RECORD
  5
55
330
1
100
AcDbSymbolTableRecord
100
AcDbBlockTableRecord
  2
*D1
340
0
  0
BLOCK_RECORD
  5
38
330
1
100
AcDbSymbolTableRecord
100
AcDbBlockTableRecord
  2
*D2
340
0
  0
BLOCK_RECORD
  5
4A
330
1
100
AcDbSymbolTableRecord
100
AcDbBlockTableRecord
  2
*D3
340
0
  0
BLOCK_RECORD
  5
75
330
1
100
AcDbSymbolTableRecord
100
AcDbBlockTableRecord
  2
*D4
340
0
  0
BLOCK_RECORD
  5
86
330
1
100
AcDbSymbolTableRecord
100
AcDbBlockTableRecord
  2
*D5
340
0
  0
ENDTAB
  0
ENDSEC
  0
SECTION
  2
BLOCKS
  0
BLOCK
  5
3
330
2
100
AcDbEntity
  8
0
100
AcDbBlockBegin
  2
*Model_Space
 70
     0
 10
0.0
 20
0.0
 30
0.0
  3
*Model_Space
  1

  0
ENDBLK
  5
9
330
2
100
AcDbEntity
  8
0
100
AcDbBlockEnd
  0
BLOCK
  5
D
330
C
100
AcDbEntity
 67
     1
  8
0
100
AcDbBlockBegin
  2
*Paper_Space
 70
     0
 10
0.0
 20
0.0
 30
0.0
  3
*Paper_Space
  1

  0
ENDBLK
  5
E
330
C
100
AcDbEntity
 67
     1
  8
0
100
AcDbBlockEnd
  0
BLOCK
  5
65
330
64
100
AcDbEntity
  8
0
100
AcDbBlockBegin
  2
*D0
 70
     1
 10
0.0
 20
0.0
 30
0.0
  3
*D0
  1

  0
LINE
  5
66
330
64
100
AcDbEntity
  8
BEM
100
AcDbLine
 10
42.24999999999989
 20
120.5
 30
0.0
 11
42.24999999999989
 21
99.90228114586635
 31
0.0
  0
LINE
  5
67
330
64
100
AcDbEntity
  8
BEM
100
AcDbLine
 10
41.7499999999999
 20
120.5
 30
0.0
 11
41.7499999999999
 21
99.90228114586635
 31
0.0
  0
LINE
  5
68
330
64
100
AcDbEntity
  8
BEM
100
AcDbLine
 10
45.74999999999991
 20
101.9022811458663
 30
0.0
 11
49.2499999999999
 21
101.9022811458663
 31
0.0
  0
LINE
  5
69
330
64
100
AcDbEntity
  8
BEM
100
AcDbLine
 10
38.24999999999992
 20
101.9022811458663
 30
0.0
 11
-48.75000000000007
 21
101.9022811458663
 31
0.0
  0
LINE
  5
6A
330
64
100
AcDbEntity
  8
BEM
100
AcDbLine
 10
42.24999999999989
 20
101.9022811458663
 30
0.0
 11
41.7499999999999
 21
101.9022811458663
 31
0.0
  0
SOLID
  5
6B
330
64
100
AcDbEntity
  8
BEM
100
AcDbTrace
 10
45.74999999999991
 20
102.4856144791997
 30
0.0
 11
45.74999999999991
 21
101.318947812533
 31
0.0
 12
42.24999999999989
 22
101.9022811458663
 32
0.0
 13
42.24999999999989
 23
101.9022811458663
 33
0.0
  0
SOLID
  5
6C
330
64
100
AcDbEntity
  8
BEM
100
AcDbTrace
 10
38.24999999999992
 20
102.4856144791997
 30
0.0
 11
38.24999999999992
 21
101.318947812533
 31
0.0
 12
41.7499999999999
 22
101.9022811458663
 32
0.0
 13
41.7499999999999
 23
101.9022811458663
 33
0.0
  0
MTEXT
  5
6D
330
64
100
AcDbEntity
  8
BEM
 62
     7
100
AcDbMText
 10
-7.000000000000071
 20
106.068947812533
 30
0.0
 40
3.5
 41
0.0
 71
     5
 72
     1
  1
\A1;Fase / Chamfer 0.5\C7;\H3.5;x45° (4x)
  7
ROMANS
 73
     1
 44
1.0
1001
ACAD
1000
MTEXTBEGIN
1070
    73
1070
     1
1070
    44
1040
1.0
1070
    74
1070
     0
1000
MTEXTEND
  0
POINT
  5
6E
330
64
100
AcDbEntity
  8
Defpoints
 62
     0
100
AcDbPoint
 10
42.24999999999989
 20
120.5
 30
0.0
  0
POINT
  5
6F
330
64
100
AcDbEntity
  8
Defpoints
 62
     0
100
AcDbPoint
 10
41.7499999999999
 20
120.5
 30
0.0
  0
POINT
  5
70
330
64
100
AcDbEntity
  8
Defpoints
 62
     0
100
AcDbPoint
 10
41.7499999999999
 20
101.9022811458663
 30
0.0
  0
ENDBLK
  5
71
330
64
100
AcDbEntity
  8
0
100
AcDbBlockEnd
  0
BLOCK
  5
56
330
55
100
AcDbEntity
  8
0
100
AcDbBlockBegin
  2
*D1
 70
     1
 10
0.0
 20
0.0
 30
0.0
  3
*D1
  1

  0
LINE
  5
57
330
55
100
AcDbEntity
  8
BEM
100
AcDbLine
 10
19.53982616914892
 20
152.3309606755152
 30
0.0
 11
31.5398261691491
 21
152.3309606755152
 31
0.0
  0
LINE
  5
58
330
55
100
AcDbEntity
  8
BEM
100
AcDbLine
 10
31.5398261691491
 20
152.3309606755152
 30
0.0
 11
35.40100373337086
 21
148.5324594983907
 31
0.0
  0
LINE
  5
59
330
55
100
AcDbEntity
  8
BEM
100
AcDbLine
 10
43.59899626662893
 20
140.4675405016093
 30
0.0
 11
46.09403747240309
 21
138.0129999373715
 31
0.0
  0
MTEXT
  5
5A
330
55
100
AcDbEntity
  8
BEM
 62
     7
100
AcDbMText
 10
24.78982616914893
 20
155.5809606755152
 30
0.0
 40
3.5
 41
0.0
 71
     5
 72
     1
  1
\A1;%%c4.5\C7;\H3.5;
  7
ROMANS
 73
     1
 44
1.0
1001
ACAD
1000
MTEXTBEGIN
1070
    73
1070
     1
1070
    44
1040
1.0
1070
    74
1070
     0
1000
MTEXTEND
  0
LINE
  5
5B
330
55
100
AcDbEntity
  8
BEM
100
AcDbLine
 10
41.10395506085472
 20
142.9220810658471
 30
0.0
 11
37.89604493914506
 21
146.0779189341529
 31
0.0
  0
SOLID
  5
5C
330
55
100
AcDbEntity
  8
BEM
100
AcDbTrace
 10
44.00808636066857
 20
140.8833807025717
 30
0.0
 11
43.18990617258927
 21
140.0517003006469
 31
0.0
 12
41.10395506085472
 22
142.9220810658471
 32
0.0
 13
41.10395506085472
 23
142.9220810658471
 33
0.0
  0
SOLID
  5
5D
330
55
100
AcDbEntity
  8
BEM
100
AcDbTrace
 10
35.81009382741051
 20
148.9482996993531
 30
0.0
 11
34.99191363933122
 21
148.1166192974283
 31
0.0
 12
37.89604493914506
 22
146.0779189341529
 32
0.0
 13
37.89604493914506
 23
146.0779189341529
 33
0.0
  0
POINT
  5
5E
330
55
100
AcDbEntity
  8
Defpoints
 62
     0
100
AcDbPoint
 10
37.89604493914506
 20
146.0779189341529
 30
0.0
  0
POINT
  5
5F
330
55
100
AcDbEntity
  8
Defpoints
 62
     0
100
AcDbPoint
 10
41.10395506085472
 20
142.9220810658471
 30
0.0
  0
ENDBLK
  5
60
330
55
100
AcDbEntity
  8
0
100
AcDbBlockEnd
  0
BLOCK
  5
39
330
38
100
AcDbEntity
  8
0
100
AcDbBlockBegin
  2
*D2
 70
     1
 10
0.0
 20
0.0
 30
0.0
  3
*D2
  1

  0
LINE
  5
3A
330
38
100
AcDbEntity
  8
BEM
100
AcDbLine
 10
15.49999999999991
 20
120.5
 30
0.0
 11
-12.76334768180255
 21
120.5
 31
0.0
  0
LINE
  5
3B
330
38
100
AcDbEntity
  8
BEM
100
AcDbLine
 10
15.49999999999991
 20
144.5
 30
0.0
 11
-12.76334768180255
 21
144.5
 31
0.0
  0
LINE
  5
3C
330
38
100
AcDbEntity
  8
BEM
100
AcDbLine
 10
-10.76334768180255
 20
124.0
 30
0.0
 11
-10.76334768180255
 21
141.0
 31
0.0
  0
SOLID
  5
3D
330
38
100
AcDbEntity
  8
BEM
100
AcDbTrace
 10
-11.34668101513589
 20
124.0
 30
0.0
 11
-10.18001434846922
 21
124.0
 31
0.0
 12
-10.76334768180255
 22
120.5
 32
0.0
 13
-10.76334768180255
 23
120.5
 33
0.0
  0
SOLID
  5
3E
330
38
100
AcDbEntity
  8
BEM
100
AcDbTrace
 10
-11.34668101513588
 20
141.0
 30
0.0
 11
-10.18001434846921
 21
141.0
 31
0.0
 12
-10.76334768180255
 22
144.5
 32
0.0
 13
-10.76334768180255
 23
144.5
 33
0.0
  0
MTEXT
  5
3F
330
38
100
AcDbEntity
  8
BEM
 62
     7
100
AcDbMText
 10
-14.01334768180257
 20
132.5
 30
0.0
 40
3.5
 41
0.0
 71
     5
 72
     1
  1
\A1;24
  7
ROMANS
 11
0.0000000000000001
 21
1.0
 31
0.0
 73
     1
 44
1.0
1001
ACAD
1000
MTEXTBEGIN
1070
    73
1070
     1
1070
    44
1040
1.0
1070
    74
1070
     0
1000
MTEXTEND
  0
POINT
  5
40
330
38
100
AcDbEntity
  8
Defpoints
 62
     0
100
AcDbPoint
 10
15.49999999999991
 20
120.5
 30
0.0
  0
POINT
  5
42
330
38
100
AcDbEntity
  8
Defpoints
 62
     0
100
AcDbPoint
 10
15.49999999999991
 20
144.5
 30
0.0
  0
POINT
  5
43
330
38
100
AcDbEntity
  8
Defpoints
 62
     0
100
AcDbPoint
 10
-10.76334768180255
 20
144.5
 30
0.0
  0
ENDBLK
  5
44
330
38
100
AcDbEntity
  8
0
100
AcDbBlockEnd
  0
BLOCK
  5
4B
330
4A
100
AcDbEntity
  8
0
100
AcDbBlockBegin
  2
*D3
 70
     1
 10
0.0
 20
0.0
 30
0.0
  3
*D3
  1

  0
LINE
  5
4C
330
4A
100
AcDbEntity
  8
BEM
100
AcDbLine
 10
23.07073034746634
 20
130.0969246704297
 30
0.0
 11
36.7291710967294
 21
137.5072348524204
 31
0.0
  0
MTEXT
  5
4D
330
4A
100
AcDbEntity
  8
BEM
 62
     7
100
AcDbMText
 10
26.7214366063822
 20
135.7751099664161
 30
0.0
 40
3.5
 41
0.0
 71
     5
 72
     1
  1
\A1;\U+220528
  7
ROMANS
 11
0.8789686758789972
 21
0.4768795097543221
 31
0.0
 73
     1
 44
1.0
1001
ACAD
1000
MTEXTBEGIN
1070
    73
1070
     1
1070
    44
1040
1.0
1070
    74
1070
     0
1000
MTEXTEND
  0
SOLID
  5
4E
330
4A
100
AcDbEntity
  8
BEM
100
AcDbTrace
 10
36.45099138270604
 20
138.0199665800164
 30
0.0
 11
37.00735081075276
 21
136.9945031248243
 31
0.0
 12
39.80556146230589
 22
139.1763131365605
 32
0.0
 13
39.80556146230589
 23
139.1763131365605
 33
0.0
  0
POINT
  5
4F
330
4A
100
AcDbEntity
  8
Defpoints
 62
     0
100
AcDbPoint
 10
39.80556146230589
 20
139.1763131365605
 30
0.0
  0
POINT
  5
50
330
4A
100
AcDbEntity
  8
Defpoints
 62
     0
100
AcDbPoint
 10
15.19443853769396
 20
125.8236868634395
 30
0.0
  0
ENDBLK
  5
51
330
4A
100
AcDbEntity
  8
0
100
AcDbBlockEnd
  0
BLOCK
  5
76
330
75
100
AcDbEntity
  8
0
100
AcDbBlockBegin
  2
*D4
 70
     1
 10
0.0
 20
0.0
 30
0.0
  3
*D4
  1

  0
LINE
  5
77
330
75
100
AcDbEntity
  8
BEM
100
AcDbLine
 10
39.49999999999992
 20
144.5
 30
0.0
 11
39.49999999999992
 21
172.1173929987187
 31
0.0
  0
LINE
  5
78
330
75
100
AcDbEntity
  8
BEM
100
AcDbLine
 10
15.49999999999991
 20
144.5
 30
0.0
 11
15.49999999999992
 21
172.1173929987187
 31
0.0
  0
LINE
  5
79
330
75
100
AcDbEntity
  8
BEM
100
AcDbLine
 10
35.99999999999992
 20
170.1173929987187
 30
0.0
 11
18.99999999999991
 21
170.1173929987187
 31
0.0
  0
SOLID
  5
7A
330
75
100
AcDbEntity
  8
BEM
100
AcDbTrace
 10
35.99999999999992
 20
170.700726332052
 30
0.0
 11
35.99999999999992
 21
169.5340596653853
 31
0.0
 12
39.49999999999992
 22
170.1173929987187
 32
0.0
 13
39.49999999999992
 23
170.1173929987187
 33
0.0
  0
SOLID
  5
7B
330
75
100
AcDbEntity
  8
BEM
100
AcDbTrace
 10
18.99999999999991
 20
170.700726332052
 30
0.0
 11
18.99999999999991
 21
169.5340596653853
 31
0.0
 12
15.49999999999992
 22
170.1173929987187
 32
0.0
 13
15.49999999999992
 23
170.1173929987187
 33
0.0
  0
MTEXT
  5
7C
330
75
100
AcDbEntity
  8
BEM
 62
     7
100
AcDbMText
 10
27.49999999999993
 20
173.3673929987187
 30
0.0
 40
3.5
 41
0.0
 71
     5
 72
     1
  1
\A1;24
  7
ROMANS
 73
     1
 44
1.0
1001
ACAD
1000
MTEXTBEGIN
1070
    73
1070
     1
1070
    44
1040
1.0
1070
    74
1070
     0
1000
MTEXTEND
  0
POINT
  5
7D
330
75
100
AcDbEntity
  8
Defpoints
 62
     0
100
AcDbPoint
 10
39.49999999999992
 20
144.5
 30
0.0
  0
POINT
  5
7E
330
75
100
AcDbEntity
  8
Defpoints
 62
     0
100
AcDbPoint
 10
15.49999999999991
 20
144.5
 30
0.0
  0
POINT
  5
7F
330
75
100
AcDbEntity
  8
Defpoints
 62
     0
100
AcDbPoint
 10
15.49999999999992
 20
170.1173929987187
 30
0.0
  0
ENDBLK
  5
80
330
75
100
AcDbEntity
  8
0
100
AcDbBlockEnd
  0
BLOCK
  5
90
330
86
100
AcDbEntity
  8
0
100
AcDbBlockBegin
  2
*D5
 70
     1
 10
0.0
 20
0.0
 30
0.0
  3
*D5
  1

  0
LINE
  5
CC
330
86
100
AcDbEntity
  8
BEM
100
AcDbLine
 10
19.53982616914898
 20
152.3309606755152
 30
0.0
 11
31.53982616914952
 21
152.3309606755152
 31
0.0
  0
LINE
  5
CD
330
86
100
AcDbEntity
  8
BEM
100
AcDbLine
 10
31.53982616914952
 20
152.3309606755152
 30
0.0
 11
35.86436852872904
 21
148.0766162507466
 31
0.0
  0
LINE
  5
CE
330
86
100
AcDbEntity
  8
BEM
100
AcDbLine
 10
43.13563147127079
 20
140.9233837492533
 30
0.0
 11
45.63067267704492
 21
138.4688431850155
 31
0.0
  0
MTEXT
  5
CF
330
86
100
AcDbEntity
  8
BEM
 62
     7
100
AcDbMText
 10
24.78982616914896
 20
155.5809606755151
 30
0.0
 40
3.5
 41
0.0
 71
     5
 72
     1
  1
\A1;%%c3.2\C7;\H3.5;
  7
ROMANS
 73
     1
 44
1.0
1001
ACAD
1000
MTEXTBEGIN
1070
    73
1070
     1
1070
    44
1040
1.0
1070
    74
1070
     0
1000
MTEXTEND
  0
LINE
  5
D0
330
86
100
AcDbEntity
  8
BEM
100
AcDbLine
 10
40.64059026549666
 20
143.3779243134912
 30
0.0
 11
38.35940973450317
 21
145.6220756865088
 31
0.0
  0
SOLID
  5
D1
330
86
100
AcDbEntity
  8
BEM
100
AcDbTrace
 10
43.54472156531044
 20
141.3392239502157
 30
0.0
 11
42.72654137723113
 21
140.507543548291
 31
0.0
 12
40.64059026549666
 22
143.3779243134912
 32
0.0
 13
40.64059026549666
 23
143.3779243134912
 33
0.0
  0
SOLID
  5
D2
330
86
100
AcDbEntity
  8
BEM
100
AcDbTrace
 10
36.27345862276869
 20
148.492456451709
 30
0.0
 11
35.45527843468939
 21
147.6607760497842
 31
0.0
 12
38.35940973450317
 22
145.6220756865088
 32
0.0
 13
38.35940973450317
 23
145.6220756865088
 33
0.0
  0
POINT
  5
D3
330
86
100
AcDbEntity
  8
Defpoints
 62
     0
100
AcDbPoint
 10
38.35940973450317
 20
145.6220756865088
 30
0.0
  0
POINT
  5
D4
330
86
100
AcDbEntity
  8
Defpoints
 62
     0
100
AcDbPoint
 10
40.64059026549666
 20
143.3779243134912
 30
0.0
  0
ENDBLK
  5
91
330
86
100
AcDbEntity
  8
0
100
AcDbBlockEnd
  0
ENDSEC
  0
SECTION
  2
ENTITIES
  0
CIRCLE
  5
2A
330
2
100
AcDbEntity
  8
0
100
AcDbCircle
 10
15.49999999999991
 20
144.5
 30
0.0
 40
1.6
  0
CIRCLE
  5
2B
330
2
100
AcDbEntity
  8
0
100
AcDbCircle
 10
15.49999999999991
 20
120.5
 30
0.0
 40
1.6
  0
CIRCLE
  5
2E
330
2
100
AcDbEntity
  8
0
100
AcDbCircle
 10
39.49999999999992
 20
120.5
 30
0.0
 40
1.6
  0
LWPOLYLINE
  5
2F
330
2
100
AcDbEntity
  8
ver1
100
AcDbPolyline
 90
        8
 70
     1
 43
0.0
 10
23.72508278236452
 20
146.5
 42
0.2671058508675355
 10
13.49999999999993
 20
136.2749172176354
 10
13.49999999999993
 20
128.7250827823646
 42
0.2671058508675341
 10
23.72508278236448
 20
118.5
 10
31.27491721763535
 20
118.5
 42
0.2671058508675363
 10
41.49999999999993
 20
128.7250827823646
 10
41.49999999999992
 20
136.2749172176352
 42
0.2671058508675372
 10
31.27491721763531
 20
146.5
  0
LWPOLYLINE
  5
32
330
2
100
AcDbEntity
  8
ver1
100
AcDbPolyline
 90
        8
 70
     1
 43
0.0
 10
13.49999999999993
 20
125.9939033455901
 10
20.99390334559005
 20
118.5
 10
34.00609665440979
 20
118.5
 10
41.49999999999993
 20
125.9939033455901
 10
41.49999999999993
 20
139.0060966544099
 10
34.00609665440978
 20
146.5
 10
20.99390334559005
 20
146.5
 10
13.49999999999993
 20
139.0060966544099
  0
MTEXT
  5
33
330
2
100
AcDbEntity
  8
BEM
100
AcDbMText
 10
27.49999999999993
 20
182.6297050765749
 30
0.0
 40
5.0
 41
85.1263555061676
 71
     8
 72
     5
  1
{\C7;Lochbild SLM-30\PHole layout SLM-30}
 73
     1
 44
1.0
1001
ACAD
1000
MTEXTBEGIN
1070
    73
1070
     1
1070
    44
1040
1.0
1070
    74
1070
     0
1000
MTEXTEND
  0
LINE
  5
34
330
2
100
AcDbEntity
  8
sym1
100
AcDbLine
 10
27.49999999999993
 20
150.5
 30
0.0
 11
27.49999999999993
 21
114.5
 31
0.0
  0
DIMENSION
  5
37
330
2
100
AcDbEntity
  8
BEM
100
AcDbDimension
  2
*D2
 10
-10.76334768180255
 20
144.5
 30
0.0
 11
-14.01334768180257
 21
132.5
 31
0.0
 71
     5
 42
24.0
  3
1zu1
100
AcDbAlignedDimension
 13
15.49999999999991
 23
120.5
 33
0.0
 14
15.49999999999991
 24
144.5
 34
0.0
 50
90.0
100
AcDbRotatedDimension
  0
CIRCLE
  5
45
102
{ACAD_REACTORS
330
49
102
}
330
2
100
AcDbEntity
  8
0
100
AcDbCircle
 10
27.49999999999993
 20
132.5
 30
0.0
 40
14.0
  0
CIRCLE
  5
46
102
{ACAD_REACTORS
330
54
330
74
102
}
330
2
100
AcDbEntity
  8
0
100
AcDbCircle
 10
39.49999999999992
 20
144.5
 30
0.0
 40
1.6
  0
DIMENSION
  5
47
102
{ACAD_XDICTIONARY
360
48
102
}
102
{ACAD_REACTORS
330
49
102
}
330
2
100
AcDbEntity
  8
BEM
100
AcDbDimension
  2
*D3
 10
15.19443853769396
 20
125.8236868634395
 30
0.0
 11
28.27129501308375
 21
132.9184617698094
 31
0.0
 70
   131
 71
     5
 42
28.0
  3
1zu1
100
AcDbDiametricDimension
 15
39.80556146230589
 25
139.1763131365605
 35
0.0
 40
0.0
1001
ACAD
1000
DSTYLE
1002
{
1070
   288
1070
     1
1002
}
  0
DIMENSION
  5
52
102
{ACAD_XDICTIONARY
360
53
102
}
102
{ACAD_REACTORS
330
54
102
}
330
2
100
AcDbEntity
  8
BEM
100
AcDbDimension
  2
*D5
 10
40.64059026549666
 20
143.3779243134912
 30
0.0
 11
24.78982616914896
 21
152.3309606755151
 31
0.0
 70
   163
  1
<>
 71
     5
 42
3.200000000000031
  3
1zu1
100
AcDbDiametricDimension
 15
38.35940973450317
 25
145.6220756865088
 35
0.0
 40
0.0
1001
ACAD
1000
DSTYLE
1002
{
1070
     3
1000
%%c<>\C7;\H3.5;
1070
    47
1040
0.0
1070
    48
1040
0.0
1070
    71
1070
     0
1070
    72
1070
     0
1070
    74
1070
     1
1070
   288
1070
     1
1002
}
  0
LINE
  5
61
330
2
100
AcDbEntity
  8
sym1
100
AcDbLine
 10
45.49999999999989
 20
132.5
 30
0.0
 11
9.499999999999914
 21
132.5
 31
0.0
  0
DIMENSION
  5
72
102
{ACAD_XDICTIONARY
360
73
102
}
102
{ACAD_REACTORS
330
74
102
}
330
2
100
AcDbEntity
  8
BEM
100
AcDbDimension
  2
*D4
 10
15.49999999999992
 20
170.1173929987187
 30
0.0
 11
27.49999999999993
 21
173.3673929987187
 31
0.0
 71
     5
 42
24.0
  3
1zu1
100
AcDbAlignedDimension
 13
39.49999999999992
 23
144.5
 33
0.0
 14
15.49999999999991
 24
144.5
 34
0.0
100
AcDbRotatedDimension
  0
ENDSEC
  0
SECTION
  2
OBJECTS
  0
DICTIONARY
  5
7
330
0
100
AcDbDictionary
281
     1
  3
ACAD_COLOR
350
26
  3
ACAD_GROUP
350
22
  3
ACAD_LAYOUT
350
B
  3
ACAD_MATERIAL
350
25
  3
ACAD_MLINESTYLE
350
23
  3
ACAD_PLOTSETTINGS
350
24
  3
ACAD_PLOTSTYLENAME
350
6
  3
ACDBHEADERROUNDTRIPXREC
350
D7
  3
AcDbVariableDictionary
350
9F
  3
ASE_INDEX_DICTIONARY
350
9C
  3
DWGPROPS
350
D6
  0
DICTIONARY
  5
48
330
47
100
AcDbDictionary
280
     1
281
     1
  3
ACAD_DIMASSOC
360
49
  0
DICTIONARY
  5
53
330
52
100
AcDbDictionary
280
     1
281
     1
  3
ACAD_DIMASSOC
360
54
  0
DICTIONARY
  5
73
330
72
100
AcDbDictionary
280
     1
281
     1
  3
ACAD_DIMASSOC
360
74
  0
DICTIONARY
  5
26
102
{ACAD_REACTORS
330
7
102
}
330
7
100
AcDbDictionary
281
     1
  0
DICTIONARY
  5
22
102
{ACAD_REACTORS
330
7
102
}
330
7
100
AcDbDictionary
281
     1
  0
DICTIONARY
  5
B
102
{ACAD_REACTORS
330
7
102
}
330
7
100
AcDbDictionary
281
     1
  3
DIN-A3
350
F
  3
Model
350
A
  0
DICTIONARY
  5
25
102
{ACAD_REACTORS
330
7
102
}
330
7
100
AcDbDictionary
281
     1
  0
DICTIONARY
  5
23
102
{ACAD_REACTORS
330
7
102
}
330
7
100
AcDbDictionary
281
     1
  3
Standard
350
28
  0
DICTIONARY
  5
24
102
{ACAD_REACTORS
330
7
102
}
330
7
100
AcDbDictionary
281
     1
  0
ACDBDICTIONARYWDFLT
  5
6
102
{ACAD_REACTORS
330
7
102
}
330
7
100
AcDbDictionary
281
     1
  3
Normal
350
5
100
AcDbDictionaryWithDefault
340
5
  0
DICTIONARY
  5
D7
102
{ACAD_REACTORS
330
7
102
}
330
7
100
AcDbDictionary
281
     1
  3
COLORDICT
350
D9
  3
MATERIALDICT
350
D8
  0
DICTIONARY
  5
9F
102
{ACAD_REACTORS
330
7
102
}
330
7
100
AcDbDictionary
281
     1
  3
DIMASSOC
350
A1
  3
HIDETEXT
350
A0
  3
PROJECTNAME
350
A2
  0
DICTIONARY
  5
9C
102
{ACAD_REACTORS
330
7
102
}
330
7
100
AcDbDictionary
281
     1
  3
ASEBlockHierarchyIndexRecord
350
9E
1001
DCO15
1040
1828002747.898
  0
XRECORD
  5
D6
102
{ACAD_REACTORS
330
7
102
}
330
7
100
AcDbXrecord
280
     1
  1
DWGPROPS COOKIE
  2

  3

  4

  6

  7

  8

  9

300
=
301
=
302
=
303
=
304
=
305
=
306
=
307
=
308
=
309
=
 40
6.35135162037037
 41
2452694.760215926
 42
2456960.651063634
  1

 90
        0
  0
DIMASSOC
  5
49
102
{ACAD_REACTORS
330
48
102
}
330
48
100
AcDbDimAssoc
330
47
 90
        2
 70
     0
 71
     0
  1
AcDbOsnapPointRef
 72
     3
331
45
 73
     2
 91
        0
 40
0.0
 10
37.49999999999992
 20
112.5
 30
0.0
 75
     0
  0
DIMASSOC
  5
54
102
{ACAD_REACTORS
330
53
102
}
330
53
100
AcDbDimAssoc
330
52
 90
        2
 70
     0
 71
     0
  1
AcDbOsnapPointRef
 72
     3
331
46
 73
     2
 91
        0
 40
0.0
 10
53.49999999999992
 20
128.5
 30
0.0
 75
     0
  0
DIMASSOC
  5
74
102
{ACAD_REACTORS
330
73
102
}
330
73
100
AcDbDimAssoc
330
72
 90
        1
 70
     0
 71
     0
  1
AcDbOsnapPointRef
 72
     3
331
46
 73
     2
 91
        0
 40
0.0
 10
53.49999999999992
 20
128.5
 30
0.0
 75
     0
  0
LAYOUT
  5
F
102
{ACAD_XDICTIONARY
360
DC
102
}
102
{ACAD_REACTORS
330
B
102
}
330
B
100
AcDbPlotSettings
  1

  2
HP LaserJet 5000 N PCL 6
  4
A4
  6

 40
4.233333110809326
 41
4.233341693878172
 42
7.789321899414062
 43
4.23333740234375
 44
209.9733276367186
 45
296.9259948730469
 46
0.0
 47
4.259999999999998
 48
0.0
 49
0.0
140
420.0
141
297.0
142
1.0
143
1.50037378534397
 70
   692
 72
     1
 73
     1
 74
     4
  7
mittel-pdf.ctb
 75
     0
147
0.6665005812339913
148
0.0
149
0.0
100
AcDbLayout
  1
DIN-A3
 70
     1
 71
     1
 10
-12.74318078855802
 20
-6.351582024086956
 11
432.7567981061398
 21
308.6868943834866
 12
0.0
 22
0.0
 32
0.0
 14
0.0
 24
0.0
 34
0.0
 15
420.0
 25
297.0
 35
0.0
146
0.0
 13
0.0
 23
0.0
 33
0.0
 16
1.0
 26
0.0
 36
0.0
 17
0.0
 27
1.0
 37
0.0
 76
     0
330
C
  0
LAYOUT
  5
A
102
{ACAD_XDICTIONARY
360
DA
102
}
102
{ACAD_REACTORS
330
B
102
}
330
B
100
AcDbPlotSettings
  1

  2
HP LaserJet 5000 N PCL 6
  4
A4
  6

 40
4.233333110809326
 41
4.233341693878172
 42
7.789321899414062
 43
4.23333740234375
 44
209.9733276367186
 45
296.9259948730469
 46
0.0
 47
0.0
 48
0.0
 49
0.0
140
0.0
141
0.0
142
1.0
143
1.0
 70
 11952
 72
     1
 73
     1
 74
     0
  7
mittel.ctb
 75
     0
147
1.0
148
73.55786430362087
149
47.31986355289772
100
AcDbLayout
  1
Model
 70
     1
 71
     0
 10
0.0
 20
0.0
 11
12.0
 21
9.0
 12
0.0
 22
0.0
 32
0.0
 14
0.0
 24
0.0
 34
0.0
 15
0.0
 25
0.0
 35
0.0
146
0.0
 13
0.0
 23
0.0
 33
0.0
 16
1.0
 26
0.0
 36
0.0
 17
0.0
 27
1.0
 37
0.0
 76
     0
330
2
  0
MLINESTYLE
  5
28
102
{ACAD_REACTORS
330
23
102
}
330
23
100
AcDbMlineStyle
  2
STANDARD
 70
     0
  3

 62
   256
 51
90.0
 52
90.0
 71
     2
 49
0.5
 62
   256
  6
BYLAYER
 49
-0.5
 62
   256
  6
BYLAYER
  0
ACDBPLACEHOLDER
  5
5
102
{ACAD_REACTORS
330
6
102
}
330
6
  0
XRECORD
  5
D9
102
{ACAD_REACTORS
330
D7
102
}
330
D7
100
AcDbXrecord
280
     1
340
26
  0
XRECORD
  5
D8
102
{ACAD_REACTORS
330
D7
102
}
330
D7
100
AcDbXrecord
280
     1
340
25
  0
DICTIONARYVAR
  5
A1
102
{ACAD_REACTORS
330
9F
102
}
330
9F
100
DictionaryVariables
280
     0
  1
2
  0
DICTIONARYVAR
  5
A0
102
{ACAD_REACTORS
330
9F
102
}
330
9F
100
DictionaryVariables
280
     0
  1
1
  0
DICTIONARYVAR
  5
A2
102
{ACAD_REACTORS
330
9F
102
}
330
9F
100
DictionaryVariables
280
     0
  1

  0
XRECORD
  5
9E
102
{ACAD_REACTORS
330
9C
102
}
330
9C
100
AcDbXrecord
280
     1
  0
DICTIONARY
  5
DC
330
F
100
AcDbDictionary
280
     1
281
     1
  3
ACAD_XREC_ROUNDTRIP
360
DD
  0
DICTIONARY
  5
DA
330
A
100
AcDbDictionary
280
     1
281
     1
  3
ACAD_XREC_ROUNDTRIP
360
DB
  0
XRECORD
  5
DD
102
{ACAD_REACTORS
330
DC
102
}
330
DC
100
AcDbXrecord
280
     1
102
SHADEPLOT
 70
     0
102
SHADEPLOTRESLEVEL
 70
     2
102
SHADEPLOTCUSTOMDPI
 70
   300
  0
XRECORD
  5
DB
102
{ACAD_REACTORS
330
DA
102
}
330
DA
100
AcDbXrecord
280
     1
102
SHADEPLOT
 70
     0
102
SHADEPLOTRESLEVEL
 70
     2
102
SHADEPLOTCUSTOMDPI
 70
   300
  0
ENDSEC
  0
EOF
