  0
SECTION
  2
HEADER
  9
$ACADVER
  1
AC1009
  9
$INSBASE
 10
0.5431296442935718
 20
10.68795317483176
 30
0.0
  9
$EXTMIN
 10
-44.50000000000005
 20
-13.42796073572987
 30
0.0
  9
$EXTMAX
 10
168.5423496625782
 20
227.2748438807578
 30
0.0
  9
$LIMMIN
 10
0.0
 20
0.0
  9
$LIMMAX
 10
420.0
 20
297.0
  9
$ORTHOMODE
 70
     1
  9
$REGENMODE
 70
     1
  9
$FILLMODE
 70
     1
  9
$QTEXTMODE
 70
     0
  9
$MIRRTEXT
 70
     1
  9
$DRAGMODE
 70
     2
  9
$LTSCALE
 40
0.5
  9
$OSMODE
 70
     0
  9
$ATTMODE
 70
     1
  9
$TEXTSIZE
 40
2.5
  9
$TRACEWID
 40
1.0
  9
$TEXTSTYLE
  7
STANDARD
  9
$CLAYER
  8
BEM
  9
$CELTYPE
  6
BYLAYER
  9
$CECOLOR
 62
   256
  9
$DIMSCALE
 40
1.0
  9
$DIMASZ
 40
3.5
  9
$DIMEXO
 40
0.0
  9
$DIMDLI
 40
10.0
  9
$DIMRND
 40
0.0
  9
$DIMDLE
 40
0.0
  9
$DIMEXE
 40
2.0
  9
$DIMTP
 40
0.0
  9
$DIMTM
 40
0.000000001
  9
$DIMTXT
 40
3.5
  9
$DIMCEN
 40
1.5
  9
$DIMTSZ
 40
0.0
  9
$DIMTOL
 70
     0
  9
$DIMLIM
 70
     0
  9
$DIMTIH
 70
     0
  9
$DIMTOH
 70
     0
  9
$DIMSE1
 70
     0
  9
$DIMSE2
 70
     0
  9
$DIMTAD
 70
     1
  9
$DIMZIN
 70
     8
  9
$DIMBLK
  1

  9
$DIMASO
 70
     1
  9
$DIMSHO
 70
     1
  9
$DIMPOST
  1

  9
$DIMAPOST
  1

  9
$DIMALT
 70
     0
  9
$DIMALTD
 70
     2
  9
$DIMALTF
 40
25.399999999999999
  9
$DIMLFAC
 40
1.0
  9
$DIMTOFL
 70
     1
  9
$DIMTVP
 40
0.0
  9
$DIMTIX
 70
     0
  9
$DIMSOXD
 70
     0
  9
$DIMSAH
 70
     0
  9
$DIMBLK1
  1

  9
$DIMBLK2
  1

  9
$DIMSTYLE
  2
1ZU1
  9
$DIMCLRD
 70
   256
  9
$DIMCLRE
 70
   256
  9
$DIMCLRT
 70
     7
  9
$DIMTFAC
 40
0.7
  9
$DIMGAP
 40
1.5
  9
$LUNITS
 70
     2
  9
$LUPREC
 70
     4
  9
$SKETCHINC
 40
1.0
  9
$FILLETRAD
 40
0.5
  9
$AUNITS
 70
     0
  9
$AUPREC
 70
     0
  9
$MENU
  1
.
  9
$ELEVATION
 40
0.0
  9
$PELEVATION
 40
0.0
  9
$THICKNESS
 40
0.0
  9
$LIMCHECK
 70
     0
  9
$BLIPMODE
 70
     0
  9
$CHAMFERA
 40
10.0
  9
$CHAMFERB
 40
10.0
  9
$SKPOLY
 70
     0
  9
$TDCREATE
 40
2452694.801882592
  9
$TDUPDATE
 40
2453476.4712188891
  9
$TDINDWG
 40
0.9458107176
  9
$TDUSRTIMER
 40
0.9458107176
  9
$USRTIMER
 70
     1
  9
$ANGBASE
 50
0.0
  9
$ANGDIR
 70
     0
  9
$PDMODE
 70
     0
  9
$PDSIZE
 40
0.0
  9
$PLINEWID
 40
0.0
  9
$COORDS
 70
     2
  9
$SPLFRAME
 70
     0
  9
$SPLINETYPE
 70
     6
  9
$SPLINESEGS
 70
     8
  9
$ATTDIA
 70
     0
  9
$ATTREQ
 70
     1
  9
$HANDLING
 70
     1
  9
$HANDSEED
  5
880
  9
$SURFTAB1
 70
     6
  9
$SURFTAB2
 70
     6
  9
$SURFTYPE
 70
     6
  9
$SURFU
 70
     6
  9
$SURFV
 70
     6
  9
$UCSNAME
  2

  9
$UCSORG
 10
0.0
 20
0.0
 30
0.0
  9
$UCSXDIR
 10
1.0
 20
0.0
 30
0.0
  9
$UCSYDIR
 10
0.0
 20
1.0
 30
0.0
  9
$PUCSNAME
  2

  9
$PUCSORG
 10
0.0
 20
0.0
 30
0.0
  9
$PUCSXDIR
 10
1.0
 20
0.0
 30
0.0
  9
$PUCSYDIR
 10
0.0
 20
1.0
 30
0.0
  9
$USERI1
 70
     0
  9
$USERI2
 70
     0
  9
$USERI3
 70
     0
  9
$USERI4
 70
     0
  9
$USERI5
 70
     0
  9
$USERR1
 40
3.0
  9
$USERR2
 40
1.0
  9
$USERR3
 40
1.0
  9
$USERR4
 40
0.0
  9
$USERR5
 40
0.0
  9
$WORLDVIEW
 70
     1
  9
$SHADEDGE
 70
     3
  9
$SHADEDIF
 70
    70
  9
$TILEMODE
 70
     1
  9
$MAXACTVP
 70
    64
  9
$PLIMCHECK
 70
     0
  9
$PEXTMIN
 10
0.0
 20
0.0
 30
0.0
  9
$PEXTMAX
 10
420.0
 20
297.0
 30
0.0
  9
$PLIMMIN
 10
-12.74318078855802
 20
-6.351582024086956
  9
$PLIMMAX
 10
432.7567981061398
 20
308.68689438348662
  9
$UNITMODE
 70
     0
  9
$VISRETAIN
 70
     1
  9
$PLINEGEN
 70
     0
  9
$PSLTSCALE
 70
     1
  0
ENDSEC
  0
SECTION
  2
TABLES
  0
TABLE
  2
VPORT
 70
     2
  0
VPORT
  2
*ACTIVE
 70
     0
 10
0.0
 20
0.0
 11
1.0
 21
1.0
 12
81.454023745143218
 22
94.525072333758004
 13
0.0
 23
0.0
 14
10.0
 24
10.0
 15
10.0
 25
10.0
 16
0.0
 26
0.0
 36
1.0
 17
0.0
 27
0.0
 37
0.0
 40
306.17718763572731
 41
1.674342105263158
 42
50.0
 43
0.0
 44
0.0
 50
0.0
 51
0.0
 71
     0
 72
   100
 73
     1
 74
     3
 75
     0
 76
     0
 77
     0
 78
     2
  0
ENDTAB
  0
TABLE
  2
LTYPE
 70
     3
  0
LTYPE
  2
CONTINUOUS
 70
     0
  3
Solid line
 72
    65
 73
     0
 40
0.0
  0
LTYPE
  2
ACAD_ISO04W100
 70
     0
  3
ISO Lang gestrichelt punktiert ____ . ____ . __
 72
    65
 73
     4
 40
30.0
 49
24.0
 49
-3.0
 49
0.0
 49
-3.0
  0
LTYPE
  2
VERDECKT
 70
     0
  3
Verdeckt __ __ __ __ __ __ __ __ __ __ __ __ __
 72
    65
 73
     2
 40
9.5249999999999986
 49
6.3499999999999988
 49
-3.1749999999999989
  0
ENDTAB
  0
TABLE
  2
LAYER
 70
     5
  0
LAYER
  2
0
 70
     0
 62
     7
  6
CONTINUOUS
  0
LAYER
  2
DEFPOINTS
 70
     0
 62
     7
  6
CONTINUOUS
  0
LAYER
  2
BEM
 70
     0
 62
     3
  6
CONTINUOUS
  0
LAYER
  2
VER1
 70
     0
 62
     8
  6
VERDECKT
  0
LAYER
  2
SYM1
 70
     0
 62
     6
  6
ACAD_ISO04W100
  0
ENDTAB
  0
TABLE
  2
STYLE
 70
     2
  0
STYLE
  2
STANDARD
 70
     0
 40
0.0
 41
1.0
 50
0.0
 71
     0
 42
2.5
  3
txt
  4

  0
STYLE
  2
ROMANS
 70
     0
 40
0.0
 41
1.0
 50
0.0
 71
     0
 42
3.5
  3
C:\ACAD13\COM\FONTS\ROMANS.SHX
  4

  0
ENDTAB
  0
TABLE
  2
VIEW
 70
     0
  0
ENDTAB
  0
TABLE
  2
UCS
 70
     0
  0
ENDTAB
  0
TABLE
  2
APPID
 70
     1
  0
APPID
  2
ACAD
 70
     0
  0
ENDTAB
  0
TABLE
  2
DIMSTYLE
 70
     2
  0
DIMSTYLE
  2
ISO-25
 70
     0
  3

  4

  5

  6

  7

 40
1.0
 41
2.5
 42
0.625
 43
3.75
 44
1.25
 45
0.0
 46
0.0
 47
0.0
 48
0.0
140
2.5
141
2.5
142
0.0
143
0.03937007874016
144
1.0
145
0.0
146
1.0
147
0.625
 71
     0
 72
     0
 73
     0
 74
     0
 75
     0
 76
     0
 77
     1
 78
     8
170
     0
171
     3
172
     1
173
     0
174
     0
175
     0
176
     0
177
     0
178
     0
  0
DIMSTYLE
  2
1ZU1
 70
     0
  3

  4

  5

  6

  7

 40
1.0
 41
3.5
 42
0.0
 43
10.0
 44
2.0
 45
0.0
 46
0.0
 47
0.0
 48
0.000000001
140
3.5
141
1.5
142
0.0
143
25.399999999999999
144
1.0
145
0.0
146
0.7
147
1.5
 71
     0
 72
     0
 73
     0
 74
     0
 75
     0
 76
     0
 77
     1
 78
     8
170
     0
171
     2
172
     1
173
     0
174
     0
175
     0
176
   256
177
   256
178
     7
  0
ENDTAB
  0
ENDSEC
  0
SECTION
  2
BLOCKS
  0
BLOCK
  8
0
  2
$MODEL_SPACE
 70
     0
 10
0.0
 20
0.0
 30
0.0
  3
$MODEL_SPACE
  1

  0
ENDBLK
  5
9
  8
0
  0
BLOCK
 67
     1
  8
0
  2
$PAPER_SPACE
 70
     0
 10
0.0
 20
0.0
 30
0.0
  3
$PAPER_SPACE
  1

  0
ENDBLK
  5
E
 67
     1
  8
0
  0
BLOCK
  8
0
  2
*D0
 70
     1
 10
0.0
 20
0.0
 30
0.0
  3
*D0
  1

  0
LINE
  5
6F4
  8
BEM
 10
46.499999999999908
 20
116.5
 30
0.0
 11
46.499999999999908
 21
99.902281145866368
 31
0.0
  0
LINE
  5
6F5
  8
BEM
 10
45.999999999999908
 20
116.5
 30
0.0
 11
45.999999999999908
 21
99.902281145866368
 31
0.0
  0
LINE
  5
6F6
  8
BEM
 10
49.999999999999922
 20
101.9022811458663
 30
0.0
 11
53.499999999999908
 21
101.9022811458663
 31
0.0
  0
LINE
  5
6F7
  8
BEM
 10
42.499999999999922
 20
101.9022811458663
 30
0.0
 11
-44.50000000000005
 21
101.9022811458663
 31
0.0
  0
LINE
  5
6F8
  8
BEM
 10
46.499999999999908
 20
101.9022811458663
 30
0.0
 11
45.999999999999908
 21
101.9022811458663
 31
0.0
  0
SOLID
  5
6F9
  8
BEM
 10
49.999999999999922
 20
102.4856144791997
 30
0.0
 11
49.999999999999922
 21
101.318947812533
 31
0.0
 12
46.499999999999908
 22
101.9022811458663
 32
0.0
 13
46.499999999999908
 23
101.9022811458663
 33
0.0
  0
SOLID
  5
6FA
  8
BEM
 10
42.499999999999922
 20
102.4856144791997
 30
0.0
 11
42.499999999999922
 21
101.318947812533
 31
0.0
 12
45.999999999999908
 22
101.9022811458663
 32
0.0
 13
45.999999999999908
 23
101.9022811458663
 33
0.0
  0
INSERT
  5
6FB
  8
BEM
  2
*U51
 10
0.0
 20
0.0
 30
0.0
  0
POINT
  5
6FC
  8
DEFPOINTS
 62
     0
 10
46.499999999999908
 20
116.5
 30
0.0
  0
POINT
  5
6FD
  8
DEFPOINTS
 62
     0
 10
45.999999999999908
 20
116.5
 30
0.0
  0
POINT
  5
6FE
  8
DEFPOINTS
 62
     0
 10
45.999999999999908
 20
101.9022811458663
 30
0.0
  0
ENDBLK
  5
1DF
  8
0
  0
BLOCK
  8
0
  2
*D1
 70
     1
 10
0.0
 20
0.0
 30
0.0
  3
*D1
  1

  0
LINE
  5
6EB
  8
BEM
 10
26.03982616914891
 20
156.33096067551531
 30
0.0
 11
35.539826169148867
 21
156.33096067551531
 31
0.0
  0
LINE
  5
6EC
  8
BEM
 10
35.539826169148867
 20
156.33096067551531
 30
0.0
 11
39.222786504386967
 21
152.7077838244077
 31
0.0
  0
LINE
  5
6ED
  8
BEM
 10
47.777213495612841
 20
144.2922161755923
 30
0.0
 11
50.272254701387048
 21
141.83767561135451
 31
0.0
  0
INSERT
  5
6EE
  8
BEM
  2
*U50
 10
0.0
 20
0.0
 30
0.0
  0
LINE
  5
6EF
  8
BEM
 10
45.28217228983862
 20
146.74675673983009
 30
0.0
 11
41.717827710161181
 21
150.25324326016991
 31
0.0
  0
SOLID
  5
6F0
  8
BEM
 10
48.186303589652482
 20
144.70805637655471
 30
0.0
 11
47.3681234015732
 21
143.87637597463001
 31
0.0
 12
45.28217228983862
 22
146.74675673983009
 32
0.0
 13
45.28217228983862
 23
146.74675673983009
 33
0.0
  0
SOLID
  5
6F1
  8
BEM
 10
39.631876598426622
 20
153.12362402536999
 30
0.0
 11
38.813696410347347
 21
152.29194362344529
 31
0.0
 12
41.717827710161181
 22
150.25324326016991
 32
0.0
 13
41.717827710161181
 23
150.25324326016991
 33
0.0
  0
POINT
  5
6F2
  8
DEFPOINTS
 62
     0
 10
41.717827710161181
 20
150.25324326016991
 30
0.0
  0
POINT
  5
6F3
  8
DEFPOINTS
 62
     0
 10
45.28217228983862
 20
146.74675673983009
 30
0.0
  0
ENDBLK
  5
1EB
  8
0
  0
BLOCK
  8
0
  2
*D2
 70
     1
 10
0.0
 20
0.0
 30
0.0
  3
*D2
  1

  0
LINE
  5
5E5
  8
BEM
 10
107.6610868247991
 20
52.542764619182719
 30
0.0
 11
122.48107470633801
 21
56.477109583996423
 31
0.0
  0
INSERT
  5
5E6
  8
BEM
  2
*U33
 10
0.0
 20
0.0
 30
0.0
  0
SOLID
  5
5E7
  8
BEM
 10
122.3313985391984
 20
57.040913470794088
 30
0.0
 11
122.63075087347769
 21
55.913305697198751
 31
0.0
 12
125.86389802712399
 22
57.375166586834332
 32
0.0
 13
125.86389802712399
 23
57.375166586834332
 33
0.0
  0
POINT
  5
5E8
  8
DEFPOINTS
 62
     0
 10
125.86389802712399
 20
57.375166586834332
 30
0.0
  0
POINT
  5
5E9
  8
DEFPOINTS
 62
     0
 10
89.136101972875693
 20
47.624833413165661
 30
0.0
  0
ENDBLK
  5
20E
  8
0
  0
BLOCK
  8
0
  2
*D3
 70
     1
 10
0.0
 20
0.0
 30
0.0
  3
*D3
  1

  0
LINE
  5
758
  8
BEM
 10
73.181051748760794
 20
27.68665875883892
 30
0.0
 11
87.498734657433687
 21
37.157582714353602
 31
0.0
  0
INSERT
  5
759
  8
BEM
  2
*U55
 10
0.0
 20
0.0
 30
0.0
  0
SOLID
  5
75A
  8
BEM
 10
87.176907144382184
 20
37.644105919988107
 30
0.0
 11
87.820562170485132
 21
36.67105950871909
 31
0.0
 12
90.41787389124076
 22
39.088547792662411
 32
0.0
 13
90.41787389124076
 23
39.088547792662411
 33
0.0
  0
POINT
  5
75B
  8
DEFPOINTS
 62
     0
 10
90.41787389124076
 20
39.088547792662411
 30
0.0
  0
POINT
  5
75C
  8
DEFPOINTS
 62
     0
 10
90.000854000696933
 20
38.812695638618322
 30
0.0
  0
ENDBLK
  5
217
  8
0
  0
BLOCK
  8
0
  2
*D4
 70
     1
 10
0.0
 20
0.0
 30
0.0
  3
*D4
  1

  0
LINE
  5
705
  8
BEM
 10
123.4999999999999
 20
36.5
 30
0.0
 11
149.1610005550969
 21
36.499999999999993
 31
0.0
  0
LINE
  5
706
  8
BEM
 10
123.4999999999999
 20
68.5
 30
0.0
 11
149.1610005550969
 21
68.5
 31
0.0
  0
LINE
  5
707
  8
BEM
 10
147.1610005550969
 20
40.0
 30
0.0
 11
147.1610005550969
 21
65.0
 31
0.0
  0
SOLID
  5
708
  8
BEM
 10
146.57766722176359
 20
40.0
 30
0.0
 11
147.74433388843019
 21
40.0
 31
0.0
 12
147.1610005550969
 22
36.499999999999993
 32
0.0
 13
147.1610005550969
 23
36.499999999999993
 33
0.0
  0
SOLID
  5
709
  8
BEM
 10
146.57766722176359
 20
65.0
 30
0.0
 11
147.7443338884303
 21
65.0
 31
0.0
 12
147.1610005550969
 22
68.5
 32
0.0
 13
147.1610005550969
 23
68.5
 33
0.0
  0
INSERT
  5
70A
  8
BEM
  2
*U52
 10
0.0
 20
0.0
 30
0.0
  0
POINT
  5
70B
  8
DEFPOINTS
 62
     0
 10
123.4999999999999
 20
36.5
 30
0.0
  0
POINT
  5
70C
  8
DEFPOINTS
 62
     0
 10
123.4999999999999
 20
68.5
 30
0.0
  0
POINT
  5
70D
  8
DEFPOINTS
 62
     0
 10
147.1610005550969
 20
68.5
 30
0.0
  0
ENDBLK
  5
223
  8
0
  0
BLOCK
  8
0
  2
*D5
 70
     1
 10
0.0
 20
0.0
 30
0.0
  3
*D5
  1

  0
LINE
  5
70E
  8
BEM
 10
123.4999999999999
 20
74.25
 30
0.0
 11
149.1610005550969
 21
74.25
 31
0.0
  0
LINE
  5
70F
  8
BEM
 10
123.4999999999999
 20
68.5
 30
0.0
 11
149.1610005550969
 21
68.5
 31
0.0
  0
LINE
  5
710
  8
BEM
 10
147.1610005550969
 20
65.0
 30
0.0
 11
147.1610005550969
 21
61.499999999999993
 31
0.0
  0
LINE
  5
711
  8
BEM
 10
147.1610005550969
 20
77.75
 30
0.0
 11
147.1610005550969
 21
94.916666666666671
 31
0.0
  0
LINE
  5
712
  8
BEM
 10
147.1610005550969
 20
68.5
 30
0.0
 11
147.1610005550969
 21
74.25
 31
0.0
  0
SOLID
  5
713
  8
BEM
 10
146.57766722176359
 20
65.0
 30
0.0
 11
147.74433388843019
 21
65.0
 31
0.0
 12
147.1610005550969
 22
68.5
 32
0.0
 13
147.1610005550969
 23
68.5
 33
0.0
  0
SOLID
  5
714
  8
BEM
 10
146.57766722176359
 20
77.75
 30
0.0
 11
147.74433388843019
 21
77.75
 31
0.0
 12
147.1610005550969
 22
74.25
 32
0.0
 13
147.1610005550969
 23
74.25
 33
0.0
  0
INSERT
  5
715
  8
BEM
  2
*U53
 10
0.0
 20
0.0
 30
0.0
  0
POINT
  5
716
  8
DEFPOINTS
 62
     0
 10
123.4999999999999
 20
74.25
 30
0.0
  0
POINT
  5
717
  8
DEFPOINTS
 62
     0
 10
123.4999999999999
 20
68.5
 30
0.0
  0
POINT
  5
718
  8
DEFPOINTS
 62
     0
 10
147.1610005550969
 20
68.5
 30
0.0
  0
ENDBLK
  5
231
  8
0
  0
BLOCK
  8
0
  2
*D6
 70
     1
 10
0.0
 20
0.0
 30
0.0
  3
*D6
  1

  0
LINE
  5
722
  8
BEM
 10
148.30429647975919
 20
21.677603570902349
 30
0.0
 11
136.30429647975919
 21
21.67760357090236
 31
0.0
  0
LINE
  5
723
  8
BEM
 10
136.30429647975919
 20
21.67760357090236
 30
0.0
 11
127.258841521035
 21
32.14872312766208
 31
0.0
  0
LINE
  5
724
  8
BEM
 10
119.74115847896481
 20
40.851276872337877
 30
0.0
 11
117.4531679879
 21
43.49988018593487
 31
0.0
  0
INSERT
  5
725
  8
BEM
  2
*U54
 10
0.0
 20
0.0
 30
0.0
  0
LINE
  5
726
  8
BEM
 10
122.02914897002969
 20
38.202673558740898
 30
0.0
 11
124.97085102997021
 21
34.797326441259067
 31
0.0
  0
SOLID
  5
727
  8
BEM
 10
120.1825923645643
 20
41.23260862084868
 30
0.0
 11
119.2997245933653
 21
40.469945123827081
 31
0.0
 12
122.02914897002969
 22
38.202673558740898
 32
0.0
 13
122.02914897002969
 23
38.202673558740898
 33
0.0
  0
SOLID
  5
728
  8
BEM
 10
127.7002754066345
 20
32.53005487617289
 30
0.0
 11
126.8174076354355
 21
31.767391379151281
 31
0.0
 12
124.97085102997021
 22
34.797326441259067
 32
0.0
 13
124.97085102997021
 23
34.797326441259067
 33
0.0
  0
POINT
  5
729
  8
DEFPOINTS
 62
     0
 10
124.97085102997021
 20
34.797326441259067
 30
0.0
  0
POINT
  5
72A
  8
DEFPOINTS
 62
     0
 10
122.02914897002969
 20
38.202673558740898
 30
0.0
  0
ENDBLK
  5
23D
  8
0
  0
BLOCK
  8
0
  2
*D7
 70
     1
 10
0.0
 20
0.0
 30
0.0
  3
*D7
  1

  0
LINE
  5
5D3
  8
BEM
 10
102.8490381559732
 20
81.288453280764884
 30
0.0
 11
114.8490381559732
 21
81.288453280764884
 31
0.0
  0
LINE
  5
5D4
  8
BEM
 10
114.8490381559732
 20
81.288453280764884
 30
0.0
 11
118.1897486286346
 21
78.666980966228849
 31
0.0
  0
LINE
  5
5D5
  8
BEM
 10
128.8102513713653
 20
70.333019033771222
 30
0.0
 11
131.5637150454065
 21
68.172362236467407
 31
0.0
  0
INSERT
  5
5D6
  8
BEM
  2
*U31
 10
0.0
 20
0.0
 30
0.0
  0
LINE
  5
5D7
  8
BEM
 10
126.056787697324
 20
72.493675831075024
 30
0.0
 11
120.9432123026758
 21
76.506324168925033
 31
0.0
  0
SOLID
  5
5D8
  8
BEM
 10
129.17036083758251
 20
70.791929646111441
 30
0.0
 11
128.45014190514789
 21
69.874108421431004
 31
0.0
 12
126.056787697324
 22
72.493675831075024
 32
0.0
 13
126.056787697324
 23
72.493675831075024
 33
0.0
  0
SOLID
  5
5D9
  8
BEM
 10
118.5498580948519
 20
79.125891578569053
 30
0.0
 11
117.82963916241729
 21
78.20807035388863
 31
0.0
 12
120.9432123026758
 22
76.506324168925033
 32
0.0
 13
120.9432123026758
 23
76.506324168925033
 33
0.0
  0
POINT
  5
5DA
  8
DEFPOINTS
 62
     0
 10
120.9432123026758
 20
76.506324168925033
 30
0.0
  0
POINT
  5
5DB
  8
DEFPOINTS
 62
     0
 10
126.056787697324
 20
72.493675831075024
 30
0.0
  0
ENDBLK
  5
257
  8
0
  0
BLOCK
  8
0
  2
*D8
 70
     1
 10
0.0
 20
0.0
 30
0.0
  3
*D8
  1

  0
LINE
  5
5DC
  8
BEM
 10
123.4999999999999
 20
36.5
 30
0.0
 11
123.4999999999999
 21
9.3869822429076066
 31
0.0
  0
LINE
  5
5DD
  8
BEM
 10
91.499999999999929
 20
36.499999999999993
 30
0.0
 11
91.499999999999929
 21
9.3869822429076066
 31
0.0
  0
LINE
  5
5DE
  8
BEM
 10
119.9999999999999
 20
11.3869822429076
 30
0.0
 11
94.999999999999915
 21
11.3869822429076
 31
0.0
  0
SOLID
  5
5DF
  8
BEM
 10
119.9999999999999
 20
11.970315576240941
 30
0.0
 11
119.9999999999999
 21
10.803648909574269
 31
0.0
 12
123.4999999999999
 22
11.3869822429076
 32
0.0
 13
123.4999999999999
 23
11.3869822429076
 33
0.0
  0
SOLID
  5
5E0
  8
BEM
 10
94.999999999999915
 20
11.970315576240941
 30
0.0
 11
94.999999999999915
 21
10.803648909574269
 31
0.0
 12
91.499999999999929
 22
11.3869822429076
 32
0.0
 13
91.499999999999929
 23
11.3869822429076
 33
0.0
  0
INSERT
  5
5E1
  8
BEM
  2
*U32
 10
0.0
 20
0.0
 30
0.0
  0
POINT
  5
5E2
  8
DEFPOINTS
 62
     0
 10
123.4999999999999
 20
36.5
 30
0.0
  0
POINT
  5
5E3
  8
DEFPOINTS
 62
     0
 10
91.499999999999929
 20
36.499999999999993
 30
0.0
  0
POINT
  5
5E4
  8
DEFPOINTS
 62
     0
 10
91.499999999999929
 20
11.3869822429076
 30
0.0
  0
ENDBLK
  5
263
  8
0
  0
BLOCK
  8
0
  2
*D9
 70
     1
 10
0.0
 20
0.0
 30
0.0
  3
*D9
  1

  0
LINE
  5
690
  8
BEM
 10
110.3776752880579
 20
124.2746243721944
 30
0.0
 11
98.211008621391272
 21
124.2746243721944
 31
0.0
  0
LINE
  5
691
  8
BEM
 10
98.211008621391272
 20
124.2746243721944
 30
0.0
 11
96.759371404979916
 21
121.0898560302378
 31
0.0
  0
INSERT
  5
692
  8
BEM
  2
*U42
 10
0.0
 20
0.0
 30
0.0
  0
LINE
  5
693
  8
BEM
 10
95.100357443366931
 20
117.4501207822874
 30
0.0
 11
95.307734188568531
 21
117.9050876882811
 31
0.0
  0
SOLID
  5
694
  8
BEM
 10
96.228576681320476
 20
121.3317955663063
 30
0.0
 11
97.29016612863937
 21
120.8479164941692
 31
0.0
 12
95.307734188568531
 22
117.9050876882811
 32
0.0
 13
95.307734188568531
 23
117.9050876882811
 33
0.0
  0
POINT
  5
695
  8
DEFPOINTS
 62
     0
 10
95.307734188568531
 20
117.9050876882811
 30
0.0
  0
POINT
  5
696
  8
DEFPOINTS
 62
     0
 10
95.100357443366931
 20
117.4501207822874
 30
0.0
  0
ENDBLK
  5
295
  8
0
  0
BLOCK
  8
0
  2
*D10
 70
     1
 10
0.0
 20
0.0
 30
0.0
  3
*D10
  1

  0
LINE
  5
697
  8
BEM
 10
91.499999999999915
 20
148.5
 30
0.0
 11
91.499999999999915
 21
172.11739299871871
 31
0.0
  0
LINE
  5
698
  8
BEM
 10
123.4999999999999
 20
148.5
 30
0.0
 11
123.4999999999999
 21
172.11739299871871
 31
0.0
  0
LINE
  5
699
  8
BEM
 10
94.999999999999915
 20
170.11739299871871
 30
0.0
 11
119.9999999999999
 21
170.11739299871871
 31
0.0
  0
SOLID
  5
69A
  8
BEM
 10
94.999999999999915
 20
170.700726332052
 30
0.0
 11
94.999999999999915
 21
169.53405966538531
 31
0.0
 12
91.499999999999915
 22
170.11739299871871
 32
0.0
 13
91.499999999999915
 23
170.11739299871871
 33
0.0
  0
SOLID
  5
69B
  8
BEM
 10
119.9999999999999
 20
170.700726332052
 30
0.0
 11
119.9999999999999
 21
169.53405966538531
 31
0.0
 12
123.4999999999999
 22
170.11739299871871
 32
0.0
 13
123.4999999999999
 23
170.11739299871871
 33
0.0
  0
INSERT
  5
69C
  8
BEM
  2
*U43
 10
0.0
 20
0.0
 30
0.0
  0
POINT
  5
69D
  8
DEFPOINTS
 62
     0
 10
91.499999999999915
 20
148.5
 30
0.0
  0
POINT
  5
69E
  8
DEFPOINTS
 62
     0
 10
123.4999999999999
 20
148.5
 30
0.0
  0
POINT
  5
69F
  8
DEFPOINTS
 62
     0
 10
123.4999999999999
 20
170.11739299871871
 30
0.0
  0
ENDBLK
  5
2A1
  8
0
  0
BLOCK
  8
0
  2
*D11
 70
     1
 10
0.0
 20
0.0
 30
0.0
  3
*D11
  1

  0
LINE
  5
6A0
  8
BEM
 10
123.4999999999999
 20
116.5
 30
0.0
 11
149.1610005550969
 21
116.5
 31
0.0
  0
LINE
  5
6A1
  8
BEM
 10
123.4999999999999
 20
148.5
 30
0.0
 11
149.1610005550969
 21
148.5
 31
0.0
  0
LINE
  5
6A2
  8
BEM
 10
147.1610005550969
 20
120.0
 30
0.0
 11
147.1610005550969
 21
145.0
 31
0.0
  0
SOLID
  5
6A3
  8
BEM
 10
146.57766722176359
 20
120.0
 30
0.0
 11
147.7443338884303
 21
120.0
 31
0.0
 12
147.1610005550969
 22
116.5
 32
0.0
 13
147.1610005550969
 23
116.5
 33
0.0
  0
SOLID
  5
6A4
  8
BEM
 10
146.57766722176359
 20
145.0
 30
0.0
 11
147.7443338884303
 21
145.0
 31
0.0
 12
147.1610005550969
 22
148.5
 32
0.0
 13
147.1610005550969
 23
148.5
 33
0.0
  0
INSERT
  5
6A5
  8
BEM
  2
*U44
 10
0.0
 20
0.0
 30
0.0
  0
POINT
  5
6A6
  8
DEFPOINTS
 62
     0
 10
123.4999999999999
 20
116.5
 30
0.0
  0
POINT
  5
6A7
  8
DEFPOINTS
 62
     0
 10
123.4999999999999
 20
148.5
 30
0.0
  0
POINT
  5
6A8
  8
DEFPOINTS
 62
     0
 10
147.1610005550969
 20
148.5
 30
0.0
  0
ENDBLK
  5
2AD
  8
0
  0
BLOCK
  8
0
  2
*D12
 70
     1
 10
0.0
 20
0.0
 30
0.0
  3
*D12
  1

  0
LINE
  5
6A9
  8
BEM
 10
92.912060548542925
 20
145.0909842728154
 30
0.0
 11
97.460269595674717
 21
134.1106363067214
 31
0.0
  0
LINE
  5
6AA
  8
BEM
 10
94.909015727184453
 20
147.08793945145689
 30
0.0
 11
105.8893636932783
 21
142.53973040432481
 31
0.0
  0
ARC
  5
6AB
  8
BEM
 10
91.499999999999915
 20
148.5
 30
0.0
 40
13.574935028775251
 50
262.87262175466452
 51
277.68631087733178
  0
ARC
  5
6AC
  8
BEM
 10
91.499999999999915
 20
148.5
 30
0.0
 40
13.574935028775251
 50
352.31368912266612
 51
7.1273782453335421
  0
ARC
  5
6AD
  8
BEM
 10
91.499999999999915
 20
148.5
 30
0.0
 40
13.574935028775251
 50
292.4999999999992
 51
337.49999999999881
  0
SOLID
  5
6AE
  8
BEM
 10
93.163745944062725
 20
135.61024378947531
 30
0.0
 11
93.467533310575945
 21
134.4838227549335
 31
0.0
 12
96.694902730944563
 22
135.95839537174399
 32
0.0
 13
96.694902730944563
 23
135.95839537174399
 33
0.0
  0
SOLID
  5
6AF
  8
BEM
 10
105.5161772450663
 20
146.5324666894235
 30
0.0
 11
104.3897562105246
 21
146.83625405593679
 31
0.0
 12
104.0416046282558
 22
143.30509726905501
 32
0.0
 13
104.0416046282558
 23
143.30509726905501
 33
0.0
  0
INSERT
  5
6B0
  8
BEM
  2
*U45
 10
0.0
 20
0.0
 30
0.0
  0
POINT
  5
6B1
  8
DEFPOINTS
 62
     0
 10
99.763896846817502
 20
137.7302799506846
 30
0.0
  0
POINT
  5
6B2
  8
DEFPOINTS
 62
     0
 10
92.361037722821365
 20
146.42127105184949
 30
0.0
  0
POINT
  5
6B3
  8
DEFPOINTS
 62
     0
 10
94.909015727184453
 20
147.08793945145689
 30
0.0
  0
POINT
  5
6B4
  8
DEFPOINTS
 62
     0
 10
93.578728948150314
 20
147.63896227717851
 30
0.0
  0
POINT
  5
6B5
  8
DEFPOINTS
 62
     0
 10
92.912060548542925
 20
145.0909842728154
 30
0.0
  0
ENDBLK
  5
2BD
  8
0
  0
BLOCK
  8
0
  2
*D13
 70
     1
 10
0.0
 20
0.0
 30
0.0
  3
*D13
  1

  0
LINE
  5
6C4
  8
BEM
 10
107.6610868247992
 20
132.54276461918269
 30
0.0
 11
122.48107470633801
 21
136.47710958399639
 31
0.0
  0
INSERT
  5
6C5
  8
BEM
  2
*U46
 10
0.0
 20
0.0
 30
0.0
  0
SOLID
  5
6C6
  8
BEM
 10
122.3313985391984
 20
137.0409134707941
 30
0.0
 11
122.63075087347769
 21
135.91330569719869
 31
0.0
 12
125.86389802712409
 22
137.3751665868343
 32
0.0
 13
125.86389802712409
 23
137.3751665868343
 33
0.0
  0
POINT
  5
6C7
  8
DEFPOINTS
 62
     0
 10
125.86389802712409
 20
137.3751665868343
 30
0.0
  0
POINT
  5
6C8
  8
DEFPOINTS
 62
     0
 10
89.136101972875807
 20
127.6248334131657
 30
0.0
  0
ENDBLK
  5
2C5
  8
0
  0
BLOCK
  8
0
  2
*D14
 70
     1
 10
0.0
 20
0.0
 30
0.0
  3
*D14
  1

  0
LINE
  5
6C9
  8
BEM
 10
105.1402754723108
 20
155.21687456574179
 30
0.0
 11
117.1402754723108
 21
155.21687456574179
 31
0.0
  0
LINE
  5
6CA
  8
BEM
 10
117.1402754723108
 20
155.21687456574179
 30
0.0
 11
119.546657726031
 21
152.67535445978541
 31
0.0
  0
LINE
  5
6CB
  8
BEM
 10
127.4533422739688
 20
144.3246455402145
 30
0.0
 11
129.859724527689
 21
141.78312543425821
 31
0.0
  0
INSERT
  5
6CC
  8
BEM
  2
*U47
 10
0.0
 20
0.0
 30
0.0
  0
LINE
  5
6CD
  8
BEM
 10
125.0469600202486
 20
146.86616564617091
 30
0.0
 11
121.9530399797512
 21
150.133834353829
 31
0.0
  0
SOLID
  5
6CE
  8
BEM
 10
127.8769289582949
 20
144.72570924916789
 30
0.0
 11
127.0297555896428
 21
143.92358183126109
 31
0.0
 12
125.0469600202486
 22
146.86616564617091
 32
0.0
 13
125.0469600202486
 23
146.86616564617091
 33
0.0
  0
SOLID
  5
6CF
  8
BEM
 10
119.970244410357
 20
153.0764181687388
 30
0.0
 11
119.1230710417049
 21
152.27429075083199
 31
0.0
 12
121.9530399797512
 22
150.133834353829
 32
0.0
 13
121.9530399797512
 23
150.133834353829
 33
0.0
  0
POINT
  5
6D0
  8
DEFPOINTS
 62
     0
 10
121.9530399797512
 20
150.133834353829
 30
0.0
  0
POINT
  5
6D1
  8
DEFPOINTS
 62
     0
 10
125.0469600202486
 20
146.86616564617091
 30
0.0
  0
ENDBLK
  5
2D1
  8
0
  0
BLOCK
  8
0
  2
*D15
 70
     1
 10
0.0
 20
0.0
 30
0.0
  3
*D15
  1

  0
LINE
  5
7F0
  8
BEM
 10
-9.4651786750978122
 20
75.993805909680304
 30
0.0
 11
2.7014879915688459
 21
75.993805909680304
 31
0.0
  0
LINE
  5
7F1
  8
BEM
 10
2.7014879915688459
 20
75.993805909680304
 30
0.0
 11
9.6948226230958472
 21
72.460707460814106
 31
0.0
  0
TEXT
  8
BEM
  40
3.5
  5
87F
  62
7
  72
0
  71
0
 10
-11.1318
 20
73.0488
 30
0.000000
  1
R0.5
  7
ROMANS
  0
SOLID
  5
7F3
  8
BEM
 10
9.9578648276827728
 20
72.981367211883665
 30
0.0
 11
9.4317804185089251
 21
71.940047709744533
 31
0.0
 12
12.818781129513271
 22
70.882454233292535
 32
0.0
 13
12.818781129513271
 23
70.882454233292535
 33
0.0
  0
POINT
  5
7F4
  8
DEFPOINTS
 62
     0
 10
12.818781129513271
 20
70.882454233292535
 30
0.0
  0
POINT
  5
7F5
  8
DEFPOINTS
 62
     0
 10
12.37250134288219
 20
71.107918980081351
 30
0.0
  0
ENDBLK
  5
2F5
  8
0
  0
BLOCK
  8
0
  2
*D16
 70
     1
 10
0.0
 20
0.0
 30
0.0
  3
*D16
  1

  0
LINE
  5
5FF
  8
BEM
 10
-6.0198582004376027
 20
83.347482883440193
 30
0.0
 11
5.9801417995623964
 21
83.347482883440193
 31
0.0
  0
LINE
  5
600
  8
BEM
 10
5.9801417995623964
 20
83.347482883440193
 30
0.0
 11
11.651237888023971
 21
77.095496797258619
 31
0.0
  0
LINE
  5
601
  8
BEM
 10
20.721345114006141
 20
67.096339087272014
 30
0.0
 11
23.072854394816339
 21
64.503964866164353
 31
0.0
  0
INSERT
  5
602
  8
BEM
  2
*U34
 10
0.0
 20
0.0
 30
0.0
  0
LINE
  5
603
  8
BEM
 10
18.369835833195939
 20
69.688713308379647
 30
0.0
 11
14.002747168834169
 21
74.503122576150943
 31
0.0
  0
SOLID
  5
604
  8
BEM
 10
21.153407484190751
 20
67.488257300740372
 30
0.0
 11
20.289282743821531
 21
66.704420873803642
 31
0.0
 12
18.369835833195939
 22
69.688713308379647
 32
0.0
 13
18.369835833195939
 23
69.688713308379647
 33
0.0
  0
SOLID
  5
605
  8
BEM
 10
12.083300258208579
 20
77.487415010726977
 30
0.0
 11
11.219175517839361
 21
76.703578583790247
 31
0.0
 12
14.002747168834169
 22
74.503122576150943
 32
0.0
 13
14.002747168834169
 23
74.503122576150943
 33
0.0
  0
POINT
  5
606
  8
DEFPOINTS
 62
     0
 10
14.002747168834169
 20
74.503122576150943
 30
0.0
  0
POINT
  5
607
  8
DEFPOINTS
 62
     0
 10
18.369835833195939
 20
69.688713308379647
 30
0.0
  0
ENDBLK
  5
301
  8
0
  0
BLOCK
  8
0
  2
*D17
 70
     1
 10
0.0
 20
0.0
 30
0.0
  3
*D17
  1

  0
LINE
  5
608
  8
BEM
 10
-14.85089464549111
 20
23.63562315529385
 30
0.0
 11
-2.8508946454911128
 21
23.63562315529385
 31
0.0
  0
LINE
  5
609
  8
BEM
 10
-2.8508946454911128
 20
23.63562315529385
 30
0.0
 11
7.218437677967187
 21
32.661937457186362
 31
0.0
  0
LINE
  5
60A
  8
BEM
 10
15.781562322032659
 20
40.338062542813667
 30
0.0
 11
18.38773069196564
 21
42.674274525395923
 31
0.0
  0
INSERT
  5
60B
  8
BEM
  2
*U35
 10
0.0
 20
0.0
 30
0.0
  0
LINE
  5
60C
  8
BEM
 10
13.175393952099681
 20
38.001850560231432
 30
0.0
 11
9.824606047900172
 21
34.998149439768603
 31
0.0
  0
SOLID
  5
60D
  8
BEM
 10
15.392193658268949
 20
40.7724239378025
 30
0.0
 11
16.170930985796371
 21
39.903701147824847
 31
0.0
 12
13.175393952099681
 22
38.001850560231432
 32
0.0
 13
13.175393952099681
 23
38.001850560231432
 33
0.0
  0
SOLID
  5
60E
  8
BEM
 10
6.8290690142034807
 20
33.096298852175181
 30
0.0
 11
7.6078063417308943
 21
32.227576062197528
 31
0.0
 12
9.824606047900172
 22
34.998149439768603
 32
0.0
 13
9.824606047900172
 23
34.998149439768603
 33
0.0
  0
POINT
  5
60F
  8
DEFPOINTS
 62
     0
 10
9.824606047900172
 20
34.998149439768603
 30
0.0
  0
POINT
  5
610
  8
DEFPOINTS
 62
     0
 10
13.175393952099681
 20
38.001850560231432
 30
0.0
  0
ENDBLK
  5
30D
  8
0
  0
BLOCK
  8
0
  2
*D18
 70
     1
 10
0.0
 20
0.0
 30
0.0
  3
*D18
  1

  0
LINE
  5
611
  8
BEM
 10
11.499999999999901
 20
36.499999999999993
 30
0.0
 11
11.499999999999901
 21
9.3869822429076066
 31
0.0
  0
LINE
  5
612
  8
BEM
 10
43.499999999999908
 20
36.5
 30
0.0
 11
43.499999999999908
 21
9.3869822429076066
 31
0.0
  0
LINE
  5
613
  8
BEM
 10
14.999999999999901
 20
11.3869822429076
 30
0.0
 11
39.999999999999922
 21
11.3869822429076
 31
0.0
  0
SOLID
  5
614
  8
BEM
 10
14.999999999999901
 20
11.970315576240941
 30
0.0
 11
14.999999999999901
 21
10.803648909574269
 31
0.0
 12
11.499999999999901
 22
11.3869822429076
 32
0.0
 13
11.499999999999901
 23
11.3869822429076
 33
0.0
  0
SOLID
  5
615
  8
BEM
 10
39.999999999999922
 20
11.970315576240941
 30
0.0
 11
39.999999999999922
 21
10.803648909574269
 31
0.0
 12
43.499999999999908
 22
11.3869822429076
 32
0.0
 13
43.499999999999908
 23
11.3869822429076
 33
0.0
  0
INSERT
  5
616
  8
BEM
  2
*U36
 10
0.0
 20
0.0
 30
0.0
  0
POINT
  5
617
  8
DEFPOINTS
 62
     0
 10
11.499999999999901
 20
36.499999999999993
 30
0.0
  0
POINT
  5
618
  8
DEFPOINTS
 62
     0
 10
43.499999999999908
 20
36.5
 30
0.0
  0
POINT
  5
619
  8
DEFPOINTS
 62
     0
 10
43.499999999999908
 20
11.3869822429076
 30
0.0
  0
ENDBLK
  5
319
  8
0
  0
BLOCK
  8
0
  2
*D19
 70
     1
 10
0.0
 20
0.0
 30
0.0
  3
*D19
  1

  0
ARC
  5
61A
  8
BEM
 10
27.499999999999918
 20
52.5
 30
0.0
 40
14.043737475244081
 50
271.63711239624621
 51
300.49999999999989
  0
LINE
  5
61B
  8
BEM
 10
27.901217133927151
 20
38.461994903654663
 30
0.0
 11
13.407135750262571
 21
38.047742753740863
 31
0.0
  0
ARC
  5
61C
  8
BEM
 10
27.499999999999918
 20
52.5
 30
0.0
 40
14.043737475244081
 50
271.86690025636392
 51
286.1834501281819
  0
ARC
  5
61D
  8
BEM
 10
27.499999999999918
 20
52.5
 30
0.0
 40
14.043737475244081
 50
329.31654987181798
 51
343.63309974363602
  0
ARC
  5
61E
  8
BEM
 10
27.499999999999918
 20
52.5
 30
0.0
 40
14.043737475244081
 50
300.49999999999989
 51
315.0
  0
SOLID
  5
61F
  8
BEM
 10
31.183057250202239
 20
39.548348622769453
 30
0.0
 11
31.64530720477963
 21
38.477164189254708
 31
0.0
 12
34.627735528035167
 22
40.399506269744251
 32
0.0
 13
34.627735528035167
 23
40.399506269744251
 33
0.0
  0
SOLID
  5
620
  8
BEM
 10
40.038273366842937
 20
44.975692923900972
 30
0.0
 11
39.116946830627143
 21
45.69142228949643
 31
0.0
 12
37.430422001948642
 22
42.569577998051273
 32
0.0
 13
37.430422001948642
 23
42.569577998051273
 33
0.0
  0
INSERT
  5
621
  8
BEM
  2
*U37
 10
0.0
 20
0.0
 30
0.0
  0
POINT
  5
622
  8
DEFPOINTS
 62
     0
 10
36.558396329740063
 20
41.768177311988183
 30
0.0
  0
POINT
  5
623
  8
DEFPOINTS
 62
     0
 10
43.499999999999908
 20
36.500000000000007
 30
0.0
  0
POINT
  5
624
  8
DEFPOINTS
 62
     0
 10
27.499999999999918
 20
52.5
 30
0.0
  0
POINT
  5
625
  8
DEFPOINTS
 62
     0
 10
38.984282181178571
 20
33.003557689079202
 30
0.0
  0
POINT
  5
626
  8
DEFPOINTS
 62
     0
 10
27.499999999999918
 20
52.5
 30
0.0
  0
ENDBLK
  5
329
  8
0
  0
BLOCK
  8
0
  2
*D20
 70
     1
 10
0.0
 20
0.0
 30
0.0
  3
*D20
  1

  0
LINE
  5
66D
  8
BEM
 10
27.33938613338011
 20
52.544508017561022
 30
0.0
 11
12.56291040435814
 21
56.639245633176422
 31
0.0
  0
INSERT
  5
66E
  8
BEM
  2
*U39
 10
0.0
 20
0.0
 30
0.0
  0
SOLID
  5
66F
  8
BEM
 10
12.718688465821771
 20
57.20139416634575
 30
0.0
 11
12.407132342894499
 21
56.077097100007123
 31
0.0
 12
9.1900192053422511
 22
57.573914001958208
 32
0.0
 13
9.1900192053422511
 23
57.573914001958208
 33
0.0
  0
POINT
  5
670
  8
DEFPOINTS
 62
     0
 10
9.1900192053422511
 20
57.573914001958208
 30
0.0
  0
POINT
  5
671
  8
DEFPOINTS
 62
     0
 10
45.809980794657612
 20
47.426085998041749
 30
0.0
  0
ENDBLK
  5
331
  8
0
  0
BLOCK
  8
0
  2
*D21
 70
     1
 10
0.0
 20
0.0
 30
0.0
  3
*D21
  1

  0
LINE
  5
62C
  8
BEM
 10
11.499999999999909
 20
36.499999999999979
 30
0.0
 11
-12.763347681802561
 21
36.499999999999979
 31
0.0
  0
LINE
  5
62D
  8
BEM
 10
11.49999999999992
 20
68.499999999999986
 30
0.0
 11
-12.76334768180255
 21
68.499999999999986
 31
0.0
  0
LINE
  5
62E
  8
BEM
 10
-10.763347681802561
 20
39.999999999999979
 30
0.0
 11
-10.763347681802561
 21
64.999999999999986
 31
0.0
  0
SOLID
  5
62F
  8
BEM
 10
-11.346681015135889
 20
39.999999999999979
 30
0.0
 11
-10.18001434846923
 21
39.999999999999979
 31
0.0
 12
-10.763347681802561
 22
36.499999999999979
 32
0.0
 13
-10.763347681802561
 23
36.499999999999979
 33
0.0
  0
SOLID
  5
630
  8
BEM
 10
-11.346681015135889
 20
64.999999999999986
 30
0.0
 11
-10.18001434846922
 21
64.999999999999986
 31
0.0
 12
-10.76334768180255
 22
68.499999999999986
 32
0.0
 13
-10.76334768180255
 23
68.499999999999986
 33
0.0
  0
INSERT
  5
631
  8
BEM
  2
*U38
 10
0.0
 20
0.0
 30
0.0
  0
POINT
  5
632
  8
DEFPOINTS
 62
     0
 10
11.499999999999909
 20
36.499999999999979
 30
0.0
  0
POINT
  5
633
  8
DEFPOINTS
 62
     0
 10
11.49999999999992
 20
68.499999999999986
 30
0.0
  0
POINT
  5
634
  8
DEFPOINTS
 62
     0
 10
-10.76334768180255
 20
68.499999999999986
 30
0.0
  0
ENDBLK
  5
33D
  8
0
  0
BLOCK
  8
0
  2
*D22
 70
     1
 10
0.0
 20
0.0
 30
0.0
  3
*D22
  1

  0
LINE
  5
672
  8
BEM
 10
63.489451039603111
 20
82.923982325804928
 30
0.0
 11
44.656117706269768
 21
82.923982325804928
 31
0.0
  0
LINE
  5
673
  8
BEM
 10
44.656117706269768
 20
82.923982325804928
 30
0.0
 11
40.333475530774102
 21
75.258379221438446
 31
0.0
  0
INSERT
  5
674
  8
BEM
  2
*U40
 10
0.0
 20
0.0
 30
0.0
  0
LINE
  5
675
  8
BEM
 10
27.499999999999911
 20
52.5
 30
0.0
 11
38.614317285579013
 21
72.209691810768462
 31
0.0
  0
SOLID
  5
676
  8
BEM
 10
39.825360962329107
 20
75.54490559563763
 30
0.0
 11
40.841590099219097
 21
74.971852847239262
 31
0.0
 12
38.614317285579013
 22
72.209691810768462
 32
0.0
 13
38.614317285579013
 23
72.209691810768462
 33
0.0
  0
POINT
  5
677
  8
DEFPOINTS
 62
     0
 10
38.614317285579013
 20
72.209691810768462
 30
0.0
  0
POINT
  5
678
  8
DEFPOINTS
 62
     0
 10
27.499999999999911
 20
52.5
 30
0.0
  0
ENDBLK
  5
347
  8
0
  0
BLOCK
  8
0
  2
*D23
 70
     1
 10
0.0
 20
0.0
 30
0.0
  3
*D23
  1

  0
LINE
  5
687
  8
BEM
 10
11.499999999999909
 20
116.5
 30
0.0
 11
-12.76334768180255
 21
116.5
 31
0.0
  0
LINE
  5
688
  8
BEM
 10
11.499999999999909
 20
148.5
 30
0.0
 11
-12.76334768180255
 21
148.5
 31
0.0
  0
LINE
  5
689
  8
BEM
 10
-10.76334768180255
 20
120.0
 30
0.0
 11
-10.76334768180255
 21
145.0
 31
0.0
  0
SOLID
  5
68A
  8
BEM
 10
-11.346681015135889
 20
120.0
 30
0.0
 11
-10.18001434846922
 21
120.0
 31
0.0
 12
-10.76334768180255
 22
116.5
 32
0.0
 13
-10.76334768180255
 23
116.5
 33
0.0
  0
SOLID
  5
68B
  8
BEM
 10
-11.34668101513588
 20
145.0
 30
0.0
 11
-10.180014348469211
 21
145.0
 31
0.0
 12
-10.76334768180255
 22
148.5
 32
0.0
 13
-10.76334768180255
 23
148.5
 33
0.0
  0
INSERT
  5
68C
  8
BEM
  2
*U41
 10
0.0
 20
0.0
 30
0.0
  0
POINT
  5
68D
  8
DEFPOINTS
 62
     0
 10
11.499999999999909
 20
116.5
 30
0.0
  0
POINT
  5
68E
  8
DEFPOINTS
 62
     0
 10
11.499999999999909
 20
148.5
 30
0.0
  0
POINT
  5
68F
  8
DEFPOINTS
 62
     0
 10
-10.76334768180255
 20
148.5
 30
0.0
  0
ENDBLK
  5
482
  8
0
  0
BLOCK
  8
0
  2
*D24
 70
     1
 10
0.0
 20
0.0
 30
0.0
  3
*D24
  1

  0
LINE
  5
6E6
  8
BEM
 10
27.661086824799231
 20
132.54276461918269
 30
0.0
 11
42.481074706338042
 21
136.47710958399639
 31
0.0
  0
INSERT
  5
6E7
  8
BEM
  2
*U49
 10
0.0
 20
0.0
 30
0.0
  0
SOLID
  5
6E8
  8
BEM
 10
42.331398539198389
 20
137.0409134707941
 30
0.0
 11
42.630750873477687
 21
135.91330569719869
 31
0.0
 12
45.863898027124073
 22
137.3751665868343
 32
0.0
 13
45.863898027124073
 23
137.3751665868343
 33
0.0
  0
POINT
  5
6E9
  8
DEFPOINTS
 62
     0
 10
45.863898027124073
 20
137.3751665868343
 30
0.0
  0
POINT
  5
6EA
  8
DEFPOINTS
 62
     0
 10
9.1361019728757107
 20
127.6248334131657
 30
0.0
  0
ENDBLK
  5
4B0
  8
0
  0
BLOCK
  8
0
  2
*D25
 70
     1
 10
0.0
 20
0.0
 30
0.0
  3
*D25
  1

  0
LINE
  5
6DD
  8
BEM
 10
43.499999999999908
 20
148.5
 30
0.0
 11
43.499999999999908
 21
172.11739299871871
 31
0.0
  0
LINE
  5
6DE
  8
BEM
 10
11.499999999999909
 20
148.5
 30
0.0
 11
11.499999999999909
 21
172.11739299871871
 31
0.0
  0
LINE
  5
6DF
  8
BEM
 10
39.999999999999922
 20
170.11739299871871
 30
0.0
 11
14.99999999999992
 21
170.11739299871871
 31
0.0
  0
SOLID
  5
6E0
  8
BEM
 10
39.999999999999922
 20
170.700726332052
 30
0.0
 11
39.999999999999922
 21
169.53405966538531
 31
0.0
 12
43.499999999999908
 22
170.11739299871871
 32
0.0
 13
43.499999999999908
 23
170.11739299871871
 33
0.0
  0
SOLID
  5
6E1
  8
BEM
 10
14.99999999999992
 20
170.700726332052
 30
0.0
 11
14.99999999999992
 21
169.53405966538531
 31
0.0
 12
11.499999999999909
 22
170.11739299871871
 32
0.0
 13
11.499999999999909
 23
170.11739299871871
 33
0.0
  0
INSERT
  5
6E2
  8
BEM
  2
*U48
 10
0.0
 20
0.0
 30
0.0
  0
POINT
  5
6E3
  8
DEFPOINTS
 62
     0
 10
43.499999999999908
 20
148.5
 30
0.0
  0
POINT
  5
6E4
  8
DEFPOINTS
 62
     0
 10
11.499999999999909
 20
148.5
 30
0.0
  0
POINT
  5
6E5
  8
DEFPOINTS
 62
     0
 10
11.499999999999909
 20
170.11739299871871
 30
0.0
  0
ENDBLK
  5
4D3
  8
0
  0
BLOCK
  8
0
  2
*U26
 70
     1
 10
0.0
 20
0.0
 30
0.0
  3
*U26
  1

  0
TEXT
  5
7AD
  8
BEM
 62
     7
 10
6.2499999999999183
 20
-3.4279607357298678
 30
0.0
 40
5.0
  1
Lochbild 3
  0
TEXT
  5
7AE
  8
BEM
 62
     7
 10
-1.6666666666667489
 20
-11.761294069063201
 30
0.0
 40
5.0
  1
Hole layout 3
  0
ENDBLK
  5
7B0
  8
0
  0
BLOCK
  8
0
  2
*U27
 70
     1
 10
0.0
 20
0.0
 30
0.0
  3
*U27
  1

  0
TEXT
  5
7BB
  8
BEM
 62
     7
 10
86.249999999999915
 20
-3.4279607357298678
 30
0.0
 40
5.0
  1
Lochbild 4
  0
TEXT
  5
7BC
  8
BEM
 62
     7
 10
78.333333333333243
 20
-11.761294069063201
 30
0.0
 40
5.0
  1
Hole layout 4
  0
ENDBLK
  5
7BE
  8
0
  0
BLOCK
  8
0
  2
*U28
 70
     1
 10
0.0
 20
0.0
 30
0.0
  3
*U28
  1

  0
TEXT
  5
806
  8
BEM
 62
     7
 10
-30.207650337421882
 20
222.27484388075769
 30
0.0
 40
5.0
  1
Empfohlene Lochbilder für Axiallüfter 40 mm
  0
TEXT
  5
807
  8
BEM
 62
     7
 10
-33.124317004088553
 20
213.9415105474244
 30
0.0
 40
5.0
  1
Recommended hole layouts vor Axialfan 40 mm
  0
ENDBLK
  5
809
  8
0
  0
BLOCK
  8
0
  2
*U29
 70
     1
 10
0.0
 20
0.0
 30
0.0
  3
*U29
  1

  0
TEXT
  5
80B
  8
BEM
 62
     7
 10
7.083333333333246
 20
192.62970507657491
 30
0.0
 40
5.0
  1
Lochbild 1
  0
TEXT
  5
80C
  8
BEM
 62
     7
 10
-0.8333333333334174
 20
184.29637174324159
 30
0.0
 40
5.0
  1
Hole layout 1
  0
ENDBLK
  5
80E
  8
0
  0
BLOCK
  8
0
  2
*U30
 70
     1
 10
0.0
 20
0.0
 30
0.0
  3
*U30
  1

  0
TEXT
  5
810
  8
BEM
 62
     7
 10
86.249999999999915
 20
192.62970507657491
 30
0.0
 40
5.0
  1
Lochbild 2
  0
TEXT
  5
811
  8
BEM
 62
     7
 10
78.333333333333243
 20
184.29637174324159
 30
0.0
 40
5.0
  1
Hole layout 2
  0
ENDBLK
  5
813
  8
0
  0
BLOCK
  8
0
  2
*U31
 70
     1
 10
0.0
 20
0.0
 30
0.0
  3
*U31
  1

  0
TEXT
  5
815
  8
BEM
 62
     7
 10
102.5157048226399
 20
82.788453280764884
 30
0.0
 40
3.5
  1
\U+2205
  7
ROMANS
  0
TEXT
  5
816
  8
BEM
 62
     7
 10
105.6823714893065
 20
82.788453280764884
 30
0.0
 40
3.5
  1
6.5
  7
ROMANS
  0
ENDBLK
  5
818
  8
0
  0
BLOCK
  8
0
  2
*U32
 70
     1
 10
0.0
 20
0.0
 30
0.0
  3
*U32
  1

  0
TEXT
  5
81A
  8
BEM
 62
     7
 10
104.1666666666666
 20
12.8869822429076
 30
0.0
 40
3.5
  1
32
  7
ROMANS
  0
ENDBLK
  5
81C
  8
0
  0
BLOCK
  8
0
  2
*U33
 70
     1
 10
0.0
 20
0.0
 30
0.0
  3
*U33
  1

  0
TEXT
  5
81E
  8
BEM
 62
     7
 10
108.4038130257496
 20
54.291898376656029
 30
0.0
 40
3.5
  1
\U+220538
 50
14.867685116221759
  7
ROMANS
  0
ENDBLK
  5
820
  8
0
  0
BLOCK
  8
0
  2
*U34
 70
     1
 10
0.0
 20
0.0
 30
0.0
  3
*U34
  1

  0
TEXT
  5
822
  8
BEM
 62
     7
 10
-6.3531915337709419
 20
84.847482883440193
 30
0.0
 40
3.5
  1
\U+2205
  7
ROMANS
  0
TEXT
  5
823
  8
BEM
 62
     7
 10
-3.1865248671042772
 20
84.847482883440193
 30
0.0
 40
3.5
  1
6.5
  7
ROMANS
  0
ENDBLK
  5
825
  8
0
  0
BLOCK
  8
0
  2
*U35
 70
     1
 10
0.0
 20
0.0
 30
0.0
  3
*U35
  1

  0
TEXT
  5
827
  8
BEM
 62
     7
 10
-15.18422797882444
 20
25.13562315529385
 30
0.0
 40
3.5
  1
\U+2205
  7
ROMANS
  0
TEXT
  5
828
  8
BEM
 62
     7
 10
-12.017561312157779
 20
25.13562315529385
 30
0.0
 40
3.5
  1
4.5
  7
ROMANS
  0
ENDBLK
  5
82A
  8
0
  0
BLOCK
  8
0
  2
*U36
 70
     1
 10
0.0
 20
0.0
 30
0.0
  3
*U36
  1

  0
TEXT
  5
82C
  8
BEM
 62
     7
 10
24.166666666666579
 20
12.8869822429076
 30
0.0
 40
3.5
  1
32
  7
ROMANS
  0
ENDBLK
  5
82E
  8
0
  0
BLOCK
  8
0
  2
*U37
 70
     1
 10
0.0
 20
0.0
 30
0.0
  3
*U37
  1

  0
TEXT
  5
830
  8
BEM
 62
     7
 10
13.86407798936337
 20
39.561415039979053
 30
0.0
 40
3.5
  1
14.5°
 50
1.6371123962461891
  7
ROMANS
  0
ENDBLK
  5
832
  8
0
  0
BLOCK
  8
0
  2
*U38
 70
     1
 10
0.0
 20
0.0
 30
0.0
  3
*U38
  1

  0
TEXT
  5
834
  8
BEM
 62
     7
 10
-12.26334768180257
 20
49.16666666666665
 30
0.0
 40
3.5
  1
32
 50
90.0
  7
ROMANS
  0
ENDBLK
  5
836
  8
0
  0
BLOCK
  8
0
  2
*U39
 70
     1
 10
0.0
 20
0.0
 30
0.0
  3
*U39
  1

  0
TEXT
  5
838
  8
BEM
 62
     7
 10
17.46067082776198
 20
56.838545941045631
 30
0.0
 40
3.5
  1
\U+220538
 50
344.5113128537356
  7
ROMANS
  0
ENDBLK
  5
83A
  8
0
  0
BLOCK
  8
0
  2
*U40
 70
     1
 10
0.0
 20
0.0
 30
0.0
  3
*U40
  1

  0
TEXT
  5
83C
  8
BEM
 62
     7
 10
45.489451039603118
 20
84.423982325804957
 30
0.0
 40
3.5
  1
R22.63
  7
ROMANS
  0
ENDBLK
  5
83E
  8
0
  0
BLOCK
  8
0
  2
*U41
 70
     1
 10
0.0
 20
0.0
 30
0.0
  3
*U41
  1

  0
TEXT
  5
840
  8
BEM
 62
     7
 10
-12.26334768180257
 20
129.1666666666666
 30
0.0
 40
3.5
  1
32
 50
90.0
  7
ROMANS
  0
ENDBLK
  5
842
  8
0
  0
BLOCK
  8
0
  2
*U42
 70
     1
 10
0.0
 20
0.0
 30
0.0
  3
*U42
  1

  0
TEXT
  5
844
  8
BEM
 62
     7
 10
99.044341954724615
 20
125.77462437219449
 30
0.0
 40
3.5
  1
R0.5
  7
ROMANS
  0
ENDBLK
  5
846
  8
0
  0
BLOCK
  8
0
  2
*U43
 70
     1
 10
0.0
 20
0.0
 30
0.0
  3
*U43
  1

  0
TEXT
  5
848
  8
BEM
 62
     7
 10
104.1666666666666
 20
171.61739299871871
 30
0.0
 40
3.5
  1
32
  7
ROMANS
  0
ENDBLK
  5
84A
  8
0
  0
BLOCK
  8
0
  2
*U44
 70
     1
 10
0.0
 20
0.0
 30
0.0
  3
*U44
  1

  0
TEXT
  5
84C
  8
BEM
 62
     7
 10
145.6610005550969
 20
129.16666666666671
 30
0.0
 40
3.5
  1
32
 50
90.0
  7
ROMANS
  0
ENDBLK
  5
84E
  8
0
  0
BLOCK
  8
0
  2
*U45
 70
     1
 10
0.0
 20
0.0
 30
0.0
  3
*U45
  1

  0
TEXT
  5
850
  8
BEM
 62
     7
 10
97.209841316487527
 20
137.13330443401969
 30
0.0
 40
3.5
  1
45°
 50
45.000000000000227
  7
ROMANS
  0
ENDBLK
  5
852
  8
0
  0
BLOCK
  8
0
  2
*U46
 70
     1
 10
0.0
 20
0.0
 30
0.0
  3
*U46
  1

  0
TEXT
  5
854
  8
BEM
 62
     7
 10
108.4038130257497
 20
134.29189837665601
 30
0.0
 40
3.5
  1
\U+220538
 50
14.867685116221759
  7
ROMANS
  0
ENDBLK
  5
856
  8
0
  0
BLOCK
  8
0
  2
*U47
 70
     1
 10
0.0
 20
0.0
 30
0.0
  3
*U47
  1

  0
TEXT
  5
858
  8
BEM
 62
     7
 10
104.8069421389774
 20
156.71687456574179
 30
0.0
 40
3.5
  1
\U+2205
  7
ROMANS
  0
TEXT
  5
859
  8
BEM
 62
     7
 10
107.9736088056441
 20
156.71687456574179
 30
0.0
 40
3.5
  1
4.5
  7
ROMANS
  0
ENDBLK
  5
85B
  8
0
  0
BLOCK
  8
0
  2
*U48
 70
     1
 10
0.0
 20
0.0
 30
0.0
  3
*U48
  1

  0
TEXT
  5
85D
  8
BEM
 62
     7
 10
24.166666666666579
 20
171.61739299871871
 30
0.0
 40
3.5
  1
32
  7
ROMANS
  0
ENDBLK
  5
85F
  8
0
  0
BLOCK
  8
0
  2
*U49
 70
     1
 10
0.0
 20
0.0
 30
0.0
  3
*U49
  1

  0
TEXT
  5
861
  8
BEM
 62
     7
 10
28.40381302574977
 20
134.29189837665601
 30
0.0
 40
3.5
  1
\U+220538
 50
14.867685116221709
  7
ROMANS
  0
ENDBLK
  5
863
  8
0
  0
BLOCK
  8
0
  2
*U50
 70
     1
 10
0.0
 20
0.0
 30
0.0
  3
*U50
  1

  0
TEXT
  5
865
  8
BEM
 62
     7
 10
25.706492835815592
 20
157.8309606755152
 30
0.0
 40
3.5
  1
\U+2205
  7
ROMANS
  0
TEXT
  5
866
  8
BEM
 62
     7
 10
28.87315950248226
 20
157.8309606755152
 30
0.0
 40
3.5
  1
5
  7
ROMANS
  0
ENDBLK
  5
868
  8
0
  0
BLOCK
  8
0
  2
*U51
 70
     1
 10
0.0
 20
0.0
 30
0.0
  3
*U51
  1

  0
TEXT
  5
86A
  8
BEM
 62
     7
 10
-43.666666666666721
 20
104.9022811458663
 30
0.0
 40
3.5
  1
Fase / Chamfer 0.5
  7
ROMANS
  0
TEXT
  5
86B
  8
BEM
 62
     7
 10
12.833333333333229
 20
104.9022811458663
 30
0.0
 40
3.5
  1
x45° (4x)
  7
ROMANS
  0
ENDBLK
  5
86D
  8
0
  0
BLOCK
  8
0
  2
*U52
 70
     1
 10
0.0
 20
0.0
 30
0.0
  3
*U52
  1

  0
TEXT
  5
86F
  8
BEM
 62
     7
 10
145.6610005550969
 20
49.166666666666679
 30
0.0
 40
3.5
  1
32
 50
90.0
  7
ROMANS
  0
ENDBLK
  5
871
  8
0
  0
BLOCK
  8
0
  2
*U53
 70
     1
 10
0.0
 20
0.0
 30
0.0
  3
*U53
  1

  0
TEXT
  5
873
  8
BEM
 62
     7
 10
145.6610005550969
 20
82.250000000000014
 30
0.0
 40
3.5
  1
5.75
 50
90.0
  7
ROMANS
  0
ENDBLK
  5
875
  8
0
  0
BLOCK
  8
0
  2
*U54
 70
     1
 10
0.0
 20
0.0
 30
0.0
  3
*U54
  1

  0
TEXT
  5
877
  8
BEM
 62
     7
 10
137.47096314642579
 20
23.17760357090236
 30
0.0
 40
3.5
  1
\U+2205
  7
ROMANS
  0
TEXT
  5
878
  8
BEM
 62
     7
 10
140.6376298130925
 20
23.17760357090236
 30
0.0
 40
3.5
  1
4.5
  7
ROMANS
  0
ENDBLK
  5
87A
  8
0
  0
BLOCK
  8
0
  2
*U55
 70
     1
 10
0.0
 20
0.0
 30
0.0
  3
*U55
  1

  0
TEXT
  5
87C
  8
BEM
 62
     7
 10
73.048528437534898
 20
29.397472020544051
 30
0.0
 40
3.5
  1
R0.5
 50
33.484014367544603
  7
ROMANS
  0
ENDBLK
  5
87E
  8
0
  0
ENDSEC
  0
SECTION
  2
ENTITIES
  0
DIMENSION
  5
27
  8
BEM
  2
*D8
 10
91.499999999999929
 20
11.3869822429076
 30
0.0
 11
107.4999999999999
 21
14.63698224290761
 31
0.0
 70
     0
 13
123.4999999999999
 23
36.5
 33
0.0
 14
91.499999999999929
 24
36.499999999999993
 34
0.0
  0
DIMENSION
  5
35
  8
BEM
  2
*D25
 10
11.499999999999909
 20
170.11739299871871
 30
0.0
 11
27.499999999999918
 21
173.36739299871871
 31
0.0
 70
     0
 13
43.499999999999908
 23
148.5
 33
0.0
 14
11.499999999999909
 24
148.5
 34
0.0
  0
DIMENSION
  5
44
  8
BEM
  2
*D7
 10
126.056787697324
 20
72.493675831075024
 30
0.0
 11
108.0990381559732
 21
81.288453280764884
 31
0.0
 70
   131
  1
<>
 15
120.9432123026758
 25
76.506324168925033
 35
0.0
 40
0.0
1001
ACAD
1000
DSTYLE
1002
{
1070
     3
1000
%%c<>\C7;\H3.5;
1070
    47
1040
0.0
1070
    48
1040
0.0
1070
    71
1070
     0
1070
    72
1070
     0
1070
    74
1070
     1
1070
   288
1070
     1
1002
}
  0
DIMENSION
  5
51
  8
BEM
  2
*D0
 10
45.999999999999908
 20
101.9022811458663
 30
0.0
 11
-2.7500000000000702
 21
106.068947812533
 31
0.0
 70
     0
  1
Fase / Chamfer <>x45° (4x)
 13
46.499999999999908
 23
116.5
 33
0.0
 14
45.999999999999908
 24
116.5
 34
0.0
1001
ACAD
1000
DSTYLE
1002
{
1070
     3
1000
<>\C7;\H3.5;
1070
    47
1040
0.0
1070
    48
1040
0.0
1070
    71
1070
     0
1070
    72
1070
     0
1070
    74
1070
     0
1002
}
  0
POLYLINE
  5
62
  8
0
 66
     1
 10
0.0
 20
0.0
 30
0.0
 70
     1
  0
VERTEX
  5
779
  8
0
 10
119.5817030038986
 20
117.836015121203
 30
0.0
 42
-0.2772550796203326
  0
VERTEX
  5
77A
  8
0
 10
120.09098427281531
 20
117.912060548543
 30
0.0
  0
VERTEX
  5
77B
  8
0
 10
121.00167872988401
 20
117.5348385532472
 30
0.0
 42
-0.3616214947864779
  0
VERTEX
  5
77C
  8
0
 10
121.2993666475739
 20
116.9687353711749
 30
0.0
 42
3.3785761645806578
  0
VERTEX
  5
77D
  8
0
 10
123.031264628825
 20
118.7006333524259
 30
0.0
 42
-0.3616214947864845
  0
VERTEX
  5
77E
  8
0
 10
122.4651614467527
 20
118.9983212701158
 30
0.0
  0
VERTEX
  5
77F
  8
0
 10
122.0879394514569
 20
119.9090157271845
 30
0.0
 42
-0.2772550796203297
  0
VERTEX
  5
780
  8
0
 10
122.1639848787968
 20
120.4182969961012
 30
0.0
 42
0.3588910536704854
  0
VERTEX
  5
781
  8
0
 10
122.1639848787968
 20
144.5817030038987
 30
0.0
 42
-0.2772550796203216
  0
VERTEX
  5
782
  8
0
 10
122.0879394514569
 20
145.0909842728154
 30
0.0
  0
VERTEX
  5
783
  8
0
 10
122.4651614467527
 20
146.00167872988411
 30
0.0
 42
-0.3616214947864823
  0
VERTEX
  5
784
  8
0
 10
123.031264628825
 20
146.299366647574
 30
0.0
 42
3.3785761645806942
  0
VERTEX
  5
785
  8
0
 10
121.2993666475739
 20
148.03126462882511
 30
0.0
 42
-0.3616214947864789
  0
VERTEX
  5
786
  8
0
 10
121.00167872988401
 20
147.4651614467528
 30
0.0
  0
VERTEX
  5
787
  8
0
 10
120.09098427281531
 20
147.08793945145689
 30
0.0
 42
-0.2772550796203296
  0
VERTEX
  5
788
  8
0
 10
119.5817030038986
 20
147.1639848787969
 30
0.0
 42
0.3588910536704857
  0
VERTEX
  5
789
  8
0
 10
95.418296996101191
 20
147.1639848787969
 30
0.0
 42
-0.2772550796203358
  0
VERTEX
  5
78A
  8
0
 10
94.909015727184467
 20
147.08793945145689
 30
0.0
  0
VERTEX
  5
78B
  8
0
 10
93.998321270115781
 20
147.4651614467528
 30
0.0
 42
-0.3616214947864829
  0
VERTEX
  5
78C
  8
0
 10
93.700633352425896
 20
148.03126462882511
 30
0.0
 42
3.3785761645806769
  0
VERTEX
  5
78D
  8
0
 10
91.968735371174787
 20
146.299366647574
 30
0.0
 42
-0.3616214947864776
  0
VERTEX
  5
78E
  8
0
 10
92.534838553247084
 20
146.00167872988411
 30
0.0
  0
VERTEX
  5
78F
  8
0
 10
92.912060548542939
 20
145.0909842728154
 30
0.0
 42
-0.2772550796203208
  0
VERTEX
  5
790
  8
0
 10
92.83601512120299
 20
144.5817030038987
 30
0.0
 42
0.3588910536704857
  0
VERTEX
  5
791
  8
0
 10
92.836015121203005
 20
120.4182969961012
 30
0.0
 42
-0.277255079620333
  0
VERTEX
  5
792
  8
0
 10
92.912060548542939
 20
119.9090157271845
 30
0.0
  0
VERTEX
  5
793
  8
0
 10
92.534838553247084
 20
118.9983212701158
 30
0.0
 42
-0.3616214947864804
  0
VERTEX
  5
794
  8
0
 10
91.968735371174816
 20
118.7006333524259
 30
0.0
 42
3.378576164580672
  0
VERTEX
  5
795
  8
0
 10
93.700633352425896
 20
116.9687353711748
 30
0.0
 42
-0.3616214947864795
  0
VERTEX
  5
796
  8
0
 10
93.998321270115781
 20
117.5348385532471
 30
0.0
  0
VERTEX
  5
797
  8
0
 10
94.909015727184467
 20
117.912060548543
 30
0.0
 42
-0.2772550796203308
  0
VERTEX
  5
798
  8
0
 10
95.418296996101191
 20
117.836015121203
 30
0.0
 42
0.3588910536704859
  0
SEQEND
  5
799
  8
0
  0
CIRCLE
  5
63
  8
0
 10
43.499999999999908
 20
148.5
 30
0.0
 40
3.0
  0
CIRCLE
  5
64
  8
0
 10
43.499999999999908
 20
116.5
 30
0.0
 40
3.0
  0
LINE
  5
65
  8
SYM1
 10
129.49999999999989
 20
132.49999999999989
 30
0.0
 11
85.499999999999915
 21
132.49999999999989
 31
0.0
  0
LINE
  5
68
  8
SYM1
 10
49.499999999999922
 20
132.5
 30
0.0
 11
5.4999999999999138
 21
132.5
 31
0.0
  0
DIMENSION
  5
69
  8
BEM
  2
*D14
 10
125.0469600202486
 20
146.86616564617091
 30
0.0
 11
110.3902754723108
 21
158.46687456574179
 31
0.0
 70
     3
  1
<>
 15
121.9530399797512
 25
150.133834353829
 35
0.0
 40
0.0
1001
ACAD
1000
DSTYLE
1002
{
1070
     3
1000
%%c<>\C7;\H3.5;
1070
    47
1040
0.0
1070
    48
1040
0.0
1070
    71
1070
     0
1070
    72
1070
     0
1070
    74
1070
     1
1070
   288
1070
     1
1002
}
  0
DIMENSION
  5
76
  8
BEM
  2
*D13
 10
89.136101972875807
 20
127.6248334131657
 30
0.0
 11
113.37966910517559
 21
134.06090860017059
 31
0.0
 70
   131
 15
125.86389802712409
 25
137.3751665868343
 35
0.0
 40
0.0
1001
ACAD
1000
DSTYLE
1002
{
1070
   288
1070
     1
1002
}
  0
POLYLINE
  5
7F
  8
VER1
 66
     1
 10
0.0
 20
0.0
 30
0.0
 70
     1
  0
VERTEX
  5
79A
  8
VER1
 10
126.4999999999999
 20
126.2550020016016
 30
0.0
  0
VERTEX
  5
79B
  8
VER1
 10
126.4999999999999
 20
138.74499799839839
 30
0.0
 42
0.2382808915813475
  0
VERTEX
  5
79C
  8
VER1
 10
113.7449979983983
 20
151.5
 30
0.0
  0
VERTEX
  5
79D
  8
VER1
 10
101.2550020016015
 20
151.5
 30
0.0
 42
0.2382808915813475
  0
VERTEX
  5
79E
  8
VER1
 10
88.499999999999915
 20
138.74499799839839
 30
0.0
  0
VERTEX
  5
79F
  8
VER1
 10
88.499999999999915
 20
126.2550020016016
 30
0.0
 42
0.2382808915813474
  0
VERTEX
  5
7A0
  8
VER1
 10
101.2550020016015
 20
113.5
 30
0.0
  0
VERTEX
  5
7A1
  8
VER1
 10
113.7449979983983
 20
113.5
 30
0.0
 42
0.2382808915813474
  0
SEQEND
  5
7A2
  8
VER1
  0
POLYLINE
  5
82
  8
VER1
 66
     1
 10
0.0
 20
0.0
 30
0.0
 70
     1
  0
VERTEX
  5
7A3
  8
VER1
 10
46.499999999999929
 20
126.2550020016016
 30
0.0
  0
VERTEX
  5
7A4
  8
VER1
 10
46.499999999999929
 20
138.74499799839839
 30
0.0
 42
0.2382808915813475
  0
VERTEX
  5
7A5
  8
VER1
 10
33.744997998398333
 20
151.5
 30
0.0
  0
VERTEX
  5
7A6
  8
VER1
 10
21.255002001601529
 20
151.5
 30
0.0
 42
0.2382808915813475
  0
VERTEX
  5
7A7
  8
VER1
 10
8.4999999999999272
 20
138.74499799839839
 30
0.0
  0
VERTEX
  5
7A8
  8
VER1
 10
8.4999999999999272
 20
126.2550020016016
 30
0.0
 42
0.2382808915813474
  0
VERTEX
  5
7A9
  8
VER1
 10
21.255002001601522
 20
113.5
 30
0.0
  0
VERTEX
  5
7AA
  8
VER1
 10
33.744997998398333
 20
113.5
 30
0.0
 42
0.2382808915813474
  0
SEQEND
  5
7AB
  8
VER1
  0
CIRCLE
  5
83
  8
0
 10
43.499999999999908
 20
116.5
 30
0.0
 40
2.5
  0
DIMENSION
  5
84
  8
BEM
  2
*D1
 10
45.28217228983862
 20
146.74675673983009
 30
0.0
 11
28.789826169148931
 21
156.3309606755152
 31
0.0
 70
   131
  1
<>
 15
41.717827710161181
 25
150.25324326016991
 35
0.0
 40
0.0
1001
ACAD
1000
DSTYLE
1002
{
1070
     3
1000
%%c<>\C7;\H3.5;
1070
    47
1040
0.0
1070
    48
1040
0.0
1070
    71
1070
     0
1070
    72
1070
     0
1070
    74
1070
     1
1070
   288
1070
     1
1002
}
  0
DIMENSION
  5
93
  8
BEM
  2
*D24
 10
9.1361019728757107
 20
127.6248334131657
 30
0.0
 11
33.379669105175623
 21
134.06090860017059
 31
0.0
 70
   131
 15
45.863898027124073
 25
137.3751665868343
 35
0.0
 40
0.0
1001
ACAD
1000
DSTYLE
1002
{
1070
   288
1070
     1
1002
}
  0
CIRCLE
  5
9E
  8
0
 10
43.499999999999908
 20
148.5
 30
0.0
 40
2.5
  0
CIRCLE
  5
9F
  8
0
 10
27.499999999999918
 20
132.5
 30
0.0
 40
19.0
  0
DIMENSION
  5
A0
  8
BEM
  2
*D12
 10
92.912060548542939
 20
145.0909842728154
 30
0.0
 11
98.800831574157229
 21
141.1991684258424
 31
0.0
 70
     2
 13
94.909015727184467
 23
147.08793945145689
 33
0.0
 14
93.578728948150314
 24
147.63896227717851
 34
0.0
 15
92.361037722821365
 25
146.4212710518496
 35
0.0
 16
99.763896846817502
 26
137.7302799506846
 36
0.0
  0
DIMENSION
  5
B1
  8
BEM
  2
*D11
 10
147.1610005550969
 20
148.5
 30
0.0
 11
143.9110005550969
 21
132.5
 31
0.0
 70
     0
 13
123.4999999999999
 23
116.5
 33
0.0
 14
123.4999999999999
 24
148.5
 34
0.0
 50
90.0
  0
LINE
  5
BE
  8
SYM1
 10
107.4999999999999
 20
154.49999999999989
 30
0.0
 11
107.4999999999999
 21
110.4999999999999
 31
0.0
  0
INSERT
  5
BF
  8
BEM
  2
*U26
 10
0.0
 20
0.0
 30
0.0
  0
DIMENSION
  5
C1
  8
BEM
  2
*D10
 10
123.4999999999999
 20
170.11739299871871
 30
0.0
 11
107.4999999999999
 21
173.36739299871871
 31
0.0
 70
     0
 13
91.499999999999915
 23
148.5
 33
0.0
 14
123.4999999999999
 24
148.5
 34
0.0
  0
DIMENSION
  5
CE
  8
BEM
  2
*D9
 10
95.100357443366931
 20
117.4501207822874
 30
0.0
 11
105.0443419547246
 21
127.52462437219449
 31
0.0
 70
     4
  1
<>
 15
95.307734188568531
 25
117.9050876882811
 35
0.0
 40
0.0
1001
ACAD
1000
DSTYLE
1002
{
1070
     3
1000
R<>\C7;\H3.5;
1070
    47
1040
0.0
1070
    48
1040
0.0
1070
    71
1070
     0
1070
    72
1070
     0
1070
    74
1070
     1
1070
   288
1070
     1
1002
}
  0
DIMENSION
  5
D9
  8
BEM
  2
*D23
 10
-10.76334768180255
 20
148.5
 30
0.0
 11
-14.01334768180257
 21
132.5
 31
0.0
 70
     0
 13
11.499999999999909
 23
116.5
 33
0.0
 14
11.499999999999909
 24
148.5
 34
0.0
 50
90.0
  0
LINE
  5
E8
  8
SYM1
 10
27.499999999999918
 20
154.5
 30
0.0
 11
27.499999999999918
 21
110.5
 31
0.0
  0
CIRCLE
  5
E9
  8
0
 10
11.499999999999909
 20
116.5
 30
0.0
 40
3.0
  0
CIRCLE
  5
EA
  8
0
 10
11.499999999999909
 20
116.5
 30
0.0
 40
2.5
  0
CIRCLE
  5
EC
  8
0
 10
11.499999999999909
 20
148.5
 30
0.0
 40
3.0
  0
CIRCLE
  5
ED
  8
0
 10
11.499999999999909
 20
148.5
 30
0.0
 40
2.5
  0
LINE
  5
EE
  8
SYM1
 10
27.499999999999918
 20
74.5
 30
0.0
 11
27.499999999999918
 21
30.5
 31
0.0
  0
DIMENSION
  5
EF
  8
BEM
  2
*D22
 10
27.499999999999911
 20
52.5
 30
0.0
 11
54.822784372936439
 21
82.923982325804957
 31
0.0
 70
   132
  1
<>
 15
38.614317285579013
 25
72.209691810768462
 35
0.0
 40
0.0
1001
ACAD
1000
DSTYLE
1002
{
1070
     3
1000
R<>\C7;\H3.5;
1070
    47
1040
0.0
1070
    48
1040
0.0
1070
    71
1070
     0
1070
    72
1070
     0
1070
    74
1070
     1
1070
   288
1070
     1
1002
}
  0
CIRCLE
  5
FC
  8
SYM1
 10
27.499999999999918
 20
52.5
 30
0.0
 40
22.62741699796954
  0
DIMENSION
  5
FD
  8
BEM
  2
*D21
 10
-10.76334768180255
 20
68.499999999999986
 30
0.0
 11
-14.01334768180257
 21
52.499999999999993
 31
0.0
 70
     0
 13
11.499999999999909
 23
36.499999999999979
 33
0.0
 14
11.49999999999992
 24
68.499999999999986
 34
0.0
 50
90.0
  0
POLYLINE
  5
10A
  8
VER1
 66
     1
 10
0.0
 20
0.0
 30
0.0
 70
     1
  0
VERTEX
  5
7B1
  8
VER1
 10
46.499999999999929
 20
46.255002001601603
 30
0.0
  0
VERTEX
  5
7B2
  8
VER1
 10
46.499999999999929
 20
58.744997998398397
 30
0.0
 42
0.2382808915813475
  0
VERTEX
  5
7B3
  8
VER1
 10
33.74499799839834
 20
71.5
 30
0.0
  0
VERTEX
  5
7B4
  8
VER1
 10
21.255002001601529
 20
71.5
 30
0.0
 42
0.2382808915813475
  0
VERTEX
  5
7B5
  8
VER1
 10
8.4999999999999272
 20
58.744997998398397
 30
0.0
  0
VERTEX
  5
7B6
  8
VER1
 10
8.4999999999999272
 20
46.255002001601603
 30
0.0
 42
0.2382808915813474
  0
VERTEX
  5
7B7
  8
VER1
 10
21.255002001601529
 20
33.5
 30
0.0
  0
VERTEX
  5
7B8
  8
VER1
 10
33.74499799839834
 20
33.5
 30
0.0
 42
0.2382808915813474
  0
SEQEND
  5
7B9
  8
VER1
  0
CIRCLE
  5
10B
  8
0
 10
27.499999999999918
 20
52.5
 30
0.0
 40
19.0
  0
DIMENSION
  5
10C
  8
BEM
  2
*D20
 10
45.809980794657612
 20
47.426085998041749
 30
0.0
 11
21.63759386837706
 21
54.124542640977829
 31
0.0
 70
   131
 15
9.1900192053422511
 25
57.573914001958208
 35
0.0
 40
0.0
1001
ACAD
1000
DSTYLE
1002
{
1070
   288
1070
     1
1002
}
  0
INSERT
  5
117
  8
BEM
  2
*U27
 10
0.0
 20
0.0
 30
0.0
  0
LINE
  5
118
  8
SYM1
 10
49.499999999999922
 20
52.5
 30
0.0
 11
5.4999999999999138
 21
52.5
 31
0.0
  0
DIMENSION
  5
119
  8
BEM
  2
*D19
 10
27.499999999999918
 20
52.5
 30
0.0
 11
20.561326822286588
 21
41.503542242277739
 31
0.0
 70
     2
 13
27.499999999999918
 23
52.5
 33
0.0
 14
38.984282181178571
 24
33.003557689079202
 34
0.0
 15
43.499999999999908
 25
36.5
 35
0.0
 16
36.558396329740063
 26
41.768177311988183
 36
0.0
  0
DIMENSION
  5
12C
  8
BEM
  2
*D18
 10
43.499999999999908
 20
11.3869822429076
 30
0.0
 11
27.499999999999911
 21
14.63698224290761
 31
0.0
 70
     0
 13
11.499999999999901
 23
36.499999999999993
 33
0.0
 14
43.499999999999908
 24
36.5
 34
0.0
  0
DIMENSION
  5
139
  8
BEM
  2
*D17
 10
13.175393952099681
 20
38.001850560231432
 30
0.0
 11
-9.6008946454911133
 21
23.63562315529385
 31
0.0
 70
   131
  1
<>
 15
9.824606047900172
 25
34.998149439768603
 35
0.0
 40
0.0
1001
ACAD
1000
DSTYLE
1002
{
1070
     3
1000
%%c<>\C7;\H3.5;
1070
    47
1040
0.0
1070
    48
1040
0.0
1070
    71
1070
     0
1070
    72
1070
     0
1070
    74
1070
     1
1070
   288
1070
     1
1002
}
  0
POLYLINE
  5
146
  8
0
 66
     1
 10
0.0
 20
0.0
 30
0.0
 70
     1
  0
VERTEX
  5
7BF
  8
0
 10
8.7736112424732937
 20
37.858263539674148
 30
0.0
 42
-0.5902450876578456
  0
VERTEX
  5
7C0
  8
0
 10
9.3662481072060757
 20
37.213864735085501
 30
0.0
 42
3.2963614960556318
  0
VERTEX
  5
7C1
  8
0
 10
11.34312234874665
 20
38.744524315425693
 30
0.0
 42
-0.5902450876578451
  0
VERTEX
  5
7C2
  8
0
 10
10.867633587216259
 20
39.479628872923399
 30
0.0
 42
4.6957595648708601
  0
SEQEND
  5
7C3
  8
0
  0
POLYLINE
  5
147
  8
0
 66
     1
 10
0.0
 20
0.0
 30
0.0
 70
     1
  0
VERTEX
  5
7C4
  8
0
 10
42.14173646032576
 20
33.773611242473358
 30
0.0
 42
-0.5902450876578456
  0
VERTEX
  5
7C5
  8
0
 10
42.786135264914421
 20
34.366248107206147
 30
0.0
 42
3.2963614960556318
  0
VERTEX
  5
7C6
  8
0
 10
41.255475684574222
 20
36.343122348746718
 30
0.0
 42
-0.5902450876578451
  0
VERTEX
  5
7C7
  8
0
 10
40.520371127076508
 20
35.867633587216332
 30
0.0
 42
4.6957595648708601
  0
SEQEND
  5
7C8
  8
0
  0
LINE
  5
148
  8
BEM
 10
27.499999999999918
 20
52.5
 30
0.0
 11
38.984282181178571
 21
33.003557689079202
 31
0.0
  0
LINE
  5
149
  8
BEM
 10
43.499999999999908
 20
36.5
 30
0.0
 11
27.499999999999918
 21
52.5
 31
0.0
  0
DIMENSION
  5
15B
  8
BEM
  2
*D6
 10
122.02914897002969
 20
38.202673558740898
 30
0.0
 11
143.05429647975919
 21
21.67760357090236
 31
0.0
 70
   131
  1
<>
 15
124.97085102997021
 25
34.797326441259067
 35
0.0
 40
0.0
1001
ACAD
1000
DSTYLE
1002
{
1070
     3
1000
%%c<>\C7;\H3.5;
1070
    47
1040
0.0
1070
    48
1040
0.0
1070
    71
1070
     0
1070
    72
1070
     0
1070
    74
1070
     1
1070
   288
1070
     1
1002
}
  0
DIMENSION
  5
16A
  8
BEM
  2
*D5
 10
147.1610005550969
 20
68.5
 30
0.0
 11
147.1610005550969
 21
88.083333333333357
 31
0.0
 70
   128
 13
123.4999999999999
 23
74.25
 33
0.0
 14
123.4999999999999
 24
68.5
 34
0.0
 50
90.0
  0
DIMENSION
  5
179
  8
BEM
  2
*D4
 10
147.1610005550969
 20
68.5
 30
0.0
 11
143.9110005550969
 21
52.500000000000021
 31
0.0
 70
     0
 13
123.4999999999999
 23
36.5
 33
0.0
 14
123.4999999999999
 24
68.5
 34
0.0
 50
90.0
  0
DIMENSION
  5
188
  8
BEM
  2
*D3
 10
90.000854000696933
 20
38.812695638618322
 30
0.0
 11
78.880323586193683
 21
31.456638197441841
 31
0.0
 70
   132
 15
90.41787389124076
 25
39.088547792662411
 35
0.0
 40
0.0
1001
ACAD
1000
DSTYLE
1002
{
1070
   288
1070
     1
1002
}
  0
POLYLINE
  5
194
  8
0
 66
     1
 10
0.0
 20
0.0
 30
0.0
 70
     1
  0
VERTEX
  5
7C9
  8
0
 10
121.230677367985
 20
39.367273740144377
 30
0.0
 42
-0.3485248871256829
  0
VERTEX
  5
7CA
  8
0
 10
121.84640951854099
 20
39.452118923251241
 30
0.0
 42
0.0306392113436934
  0
VERTEX
  5
7CB
  8
0
 10
122.2007401339373
 20
39.27100288680252
 30
0.0
 42
-0.1940907811865911
  0
VERTEX
  5
7CC
  8
0
 10
122.4627937669525
 20
39.00403735480085
 30
0.0
  0
VERTEX
  5
7CD
  8
0
 10
122.4651614467527
 20
38.998321270115852
 30
0.0
 42
-0.3616214947864731
  0
VERTEX
  5
7CE
  8
0
 10
122.275363193134
 20
38.387528725945451
 30
0.0
 42
3.3785761645806498
  0
VERTEX
  5
7CF
  8
0
 10
124.7246368068658
 20
38.38752872594543
 30
0.0
 42
-0.361621494786485
  0
VERTEX
  5
7D0
  8
0
 10
124.5348385532471
 20
38.998321270115873
 30
0.0
  0
VERTEX
  5
7D1
  8
0
 10
124.5372062330473
 20
39.00403735480085
 30
0.0
 42
-0.1940907811865895
  0
VERTEX
  5
7D2
  8
0
 10
124.7992598660625
 20
39.271002886802499
 30
0.0
 42
0.5874622643289114
  0
VERTEX
  5
7D3
  8
0
 10
125.3504169773332
 20
44.921789102829187
 30
0.0
 42
-0.3485248871256737
  0
VERTEX
  5
7D4
  8
0
 10
125.17009403763301
 20
45.516607078131429
 30
0.0
 42
1.4704728150586039
  0
VERTEX
  5
7D5
  8
0
 10
89.829905962366837
 20
45.516607078131429
 30
0.0
 42
-0.3485248871256814
  0
VERTEX
  5
7D6
  8
0
 10
89.649583022666647
 20
44.92178910282918
 30
0.0
 42
0.587462264328908
  0
VERTEX
  5
7D7
  8
0
 10
90.200740133937288
 20
39.271002886802499
 30
0.0
 42
-0.1940907811865923
  0
VERTEX
  5
7D8
  8
0
 10
90.462793766952515
 20
39.004037354800829
 30
0.0
  0
VERTEX
  5
7D9
  8
0
 10
90.465161446752745
 20
38.998321270115873
 30
0.0
 42
-0.3616214947864819
  0
VERTEX
  5
7DA
  8
0
 10
90.275363193133956
 20
38.38752872594543
 30
0.0
 42
3.378576164580636
  0
VERTEX
  5
7DB
  8
0
 10
92.724636806865874
 20
38.387528725945451
 30
0.0
 42
-0.3616214947864733
  0
VERTEX
  5
7DC
  8
0
 10
92.534838553247084
 20
38.998321270115852
 30
0.0
  0
VERTEX
  5
7DD
  8
0
 10
92.537206233047286
 20
39.004037354800822
 30
0.0
 42
-0.1940907811865951
  0
VERTEX
  5
7DE
  8
0
 10
92.799259866062528
 20
39.271002886802499
 30
0.0
 42
0.0306392113436948
  0
VERTEX
  5
7DF
  8
0
 10
93.153590481458764
 20
39.452118923251241
 30
0.0
 42
-0.3485248871256771
  0
VERTEX
  5
7E0
  8
0
 10
93.769322632014806
 20
39.367273740144377
 30
0.0
 42
0.4273113104983958
  0
SEQEND
  5
7E1
  8
0
  0
LINE
  5
195
  8
SYM1
 10
107.4999999999999
 20
74.5
 30
0.0
 11
107.4999999999999
 21
30.5
 31
0.0
  0
POLYLINE
  5
196
  8
VER1
 66
     1
 10
0.0
 20
0.0
 30
0.0
 70
     1
  0
VERTEX
  5
7E2
  8
VER1
 10
126.4999999999999
 20
46.255002001601603
 30
0.0
  0
VERTEX
  5
7E3
  8
VER1
 10
126.4999999999999
 20
58.744997998398397
 30
0.0
 42
0.2382808915813475
  0
VERTEX
  5
7E4
  8
VER1
 10
113.7449979983983
 20
71.5
 30
0.0
  0
VERTEX
  5
7E5
  8
VER1
 10
101.2550020016015
 20
71.5
 30
0.0
 42
0.2382808915813475
  0
VERTEX
  5
7E6
  8
VER1
 10
88.499999999999943
 20
58.744997998398397
 30
0.0
  0
VERTEX
  5
7E7
  8
VER1
 10
88.499999999999943
 20
46.255002001601603
 30
0.0
 42
0.2382808915813474
  0
VERTEX
  5
7E8
  8
VER1
 10
101.2550020016015
 20
33.5
 30
0.0
  0
VERTEX
  5
7E9
  8
VER1
 10
113.7449979983983
 20
33.5
 30
0.0
 42
0.2382808915813474
  0
SEQEND
  5
7EA
  8
VER1
  0
POLYLINE
  5
197
  8
0
 66
     1
 10
0.0
 20
0.0
 30
0.0
 70
     1
  0
VERTEX
  5
7EB
  8
0
 10
12.858263539674081
 20
71.226388757526621
 30
0.0
 42
-0.5902450876578456
  0
VERTEX
  5
7EC
  8
0
 10
12.213864735085419
 20
70.633751892793825
 30
0.0
 42
3.2963614960556318
  0
VERTEX
  5
7ED
  8
0
 10
13.74452431542562
 20
68.656877651253254
 30
0.0
 42
-0.5902450876578451
  0
VERTEX
  5
7EE
  8
0
 10
14.47962887292333
 20
69.132366412783654
 30
0.0
 42
4.6957595648708601
  0
SEQEND
  5
7EF
  8
0
  0
DIMENSION
  5
198
  8
BEM
  2
*D16
 10
18.369835833195939
 20
69.688713308379647
 30
0.0
 11
-0.7698582004376107
 21
83.347482883440193
 31
0.0
 70
   131
  1
<>
 15
14.002747168834169
 25
74.503122576150943
 35
0.0
 40
0.0
1001
ACAD
1000
DSTYLE
1002
{
1070
     3
1000
%%c<>\C7;\H3.5;
1070
    47
1040
0.0
1070
    48
1040
0.0
1070
    71
1070
     0
1070
    72
1070
     0
1070
    74
1070
     1
1070
   288
1070
     1
1002
}
  0
DIMENSION
  5
1A5
  8
BEM
  2
*D15
 10
12.37250134288219
 20
71.107918980081351
 30
0.0
 11
2.7014879915688459
 21
75.993805909680304
 31
0.0
 70
   132
  1
<>
 15
12.818781129513271
 25
70.882454233292535
 35
0.0
 40
0.0
1001
ACAD
1000
DSTYLE
1002
{
1070
   287
1070
     4
1070
     3
1000
R<>\C7;\H3.5;
1070
    47
1040
0.0
1070
    48
1040
0.0
1070
    71
1070
     0
1070
    72
1070
     0
1070
    74
1070
     1
1070
   279
1070
     1
1070
   288
1070
     1
1002
}
  0
POLYLINE
  5
1B1
  8
0
 66
     1
 10
0.0
 20
0.0
 30
0.0
 70
     1
  0
VERTEX
  5
7F6
  8
0
 10
46.226388757526557
 20
67.141736460325845
 30
0.0
 42
-0.5902450876578456
  0
VERTEX
  5
7F7
  8
0
 10
45.633751892793782
 20
67.786135264914506
 30
0.0
 42
3.2963614960556318
  0
VERTEX
  5
7F8
  8
0
 10
43.656877651253211
 20
66.255475684574307
 30
0.0
 42
-0.5902450876578451
  0
VERTEX
  5
7F9
  8
0
 10
44.13236641278359
 20
65.520371127076601
 30
0.0
 42
4.6957595648708601
  0
SEQEND
  5
7FA
  8
0
  0
LINE
  5
1B2
  8
SYM1
 10
129.49999999999989
 20
52.5
 30
0.0
 11
85.499999999999915
 21
52.5
 31
0.0
  0
DIMENSION
  5
1B3
  8
BEM
  2
*D2
 10
89.136101972875693
 20
47.624833413165661
 30
0.0
 11
113.37966910517549
 21
54.060908600170599
 31
0.0
 70
   131
 15
125.86389802712399
 25
57.375166586834332
 35
0.0
 40
0.0
1001
ACAD
1000
DSTYLE
1002
{
1070
   288
1070
     1
1002
}
  0
POLYLINE
  5
1BE
  8
0
 66
     1
 10
0.0
 20
0.0
 30
0.0
 70
     1
  0
VERTEX
  5
7FB
  8
0
 10
92.721094713926576
 20
70.389822134387344
 30
0.0
 42
-0.5989583665998948
  0
VERTEX
  5
7FC
  8
0
 10
92.793455882159293
 20
71.268478260869557
 30
0.0
 42
4.8177304112817456
  0
VERTEX
  5
7FD
  8
0
 10
90.206544117840565
 20
71.268478260869557
 30
0.0
 42
-0.5989583665998861
  0
VERTEX
  5
7FE
  8
0
 10
90.27890528607324
 20
70.389822134387344
 30
0.0
 42
3.3902547338649249
  0
SEQEND
  5
7FF
  8
0
  0
POLYLINE
  5
1C0
  8
0
 66
     1
 10
0.0
 20
0.0
 30
0.0
 70
     1
  0
VERTEX
  5
800
  8
0
 10
122.2789052860732
 20
70.389822134387344
 30
0.0
 42
0.5989583665998948
  0
VERTEX
  5
801
  8
0
 10
122.20654411784049
 20
71.268478260869557
 30
0.0
 42
-4.8177304112817456
  0
VERTEX
  5
802
  8
0
 10
124.79345588215919
 20
71.268478260869557
 30
0.0
 42
0.5989583665998861
  0
VERTEX
  5
803
  8
0
 10
124.7210947139266
 20
70.389822134387344
 30
0.0
 42
-3.3902547338649249
  0
SEQEND
  5
804
  8
0
  0
INSERT
  5
1C1
  8
BEM
  2
*U28
 10
0.0
 20
0.0
 30
0.0
  0
INSERT
  5
1C2
  8
BEM
  2
*U29
 10
0.0
 20
0.0
 30
0.0
  0
INSERT
  5
1C3
  8
BEM
  2
*U30
 10
0.0
 20
0.0
 30
0.0
  0
ENDSEC
  0
EOF
