  0
SECTION
  2
HEADER
  9
$ACADVER
  1
AC1015
  9
$ACADMAINTVER
 70
    20
  9
$DWGCODEPAGE
  3
ANSI_1252
  9
$INSBASE
 10
0.0
 20
0.0
 30
0.0
  9
$EXTMIN
 10
-59.50000000000006
 20
95.38496904483221
 30
0.0
  9
$EXTMAX
 10
54.12346521145967
 20
214.2088319524276
 30
0.0
  9
$LIMMIN
 10
0.0
 20
0.0
  9
$LIMMAX
 10
420.0
 20
297.0
  9
$ORTHOMODE
 70
     1
  9
$REGENMODE
 70
     1
  9
$FILLMODE
 70
     1
  9
$QTEXTMODE
 70
     0
  9
$MIRRTEXT
 70
     1
  9
$LTSCALE
 40
0.5
  9
$ATTMODE
 70
     1
  9
$TEXTSIZE
 40
2.5
  9
$TRACEWID
 40
1.0
  9
$TEXTSTYLE
  7
Arial
  9
$CLAYER
  8
BEM
  9
$CELTYPE
  6
ByLayer
  9
$CECOLOR
 62
   256
  9
$CELTSCALE
 40
1.0
  9
$DISPSILH
 70
     0
  9
$DIMSCALE
 40
1.0
  9
$DIMASZ
 40
3.5
  9
$DIMEXO
 40
0.0
  9
$DIMDLI
 40
10.0
  9
$DIMRND
 40
0.0
  9
$DIMDLE
 40
0.0
  9
$DIMEXE
 40
2.0
  9
$DIMTP
 40
0.0
  9
$DIMTM
 40
0.000000001
  9
$DIMTXT
 40
3.5
  9
$DIMCEN
 40
1.5
  9
$DIMTSZ
 40
0.0
  9
$DIMTOL
 70
     0
  9
$DIMLIM
 70
     0
  9
$DIMTIH
 70
     0
  9
$DIMTOH
 70
     0
  9
$DIMSE1
 70
     0
  9
$DIMSE2
 70
     0
  9
$DIMTAD
 70
     1
  9
$DIMZIN
 70
     8
  9
$DIMBLK
  1

  9
$DIMASO
 70
     1
  9
$DIMSHO
 70
     1
  9
$DIMPOST
  1

  9
$DIMAPOST
  1

  9
$DIMALT
 70
     0
  9
$DIMALTD
 70
     2
  9
$DIMALTF
 40
25.4
  9
$DIMLFAC
 40
1.0
  9
$DIMTOFL
 70
     1
  9
$DIMTVP
 40
0.0
  9
$DIMTIX
 70
     0
  9
$DIMSOXD
 70
     0
  9
$DIMSAH
 70
     0
  9
$DIMBLK1
  1

  9
$DIMBLK2
  1

  9
$DIMSTYLE
  2
1zu1
  9
$DIMCLRD
 70
   256
  9
$DIMCLRE
 70
   256
  9
$DIMCLRT
 70
     7
  9
$DIMTFAC
 40
0.7
  9
$DIMGAP
 40
1.5
  9
$DIMJUST
 70
     0
  9
$DIMSD1
 70
     0
  9
$DIMSD2
 70
     0
  9
$DIMTOLJ
 70
     1
  9
$DIMTZIN
 70
     8
  9
$DIMALTZ
 70
     0
  9
$DIMALTTZ
 70
     0
  9
$DIMUPT
 70
     0
  9
$DIMDEC
 70
     2
  9
$DIMTDEC
 70
     2
  9
$DIMALTU
 70
     2
  9
$DIMALTTD
 70
     2
  9
$DIMTXSTY
  7
ROMANS
  9
$DIMAUNIT
 70
     0
  9
$DIMADEC
 70
     2
  9
$DIMALTRND
 40
0.0
  9
$DIMAZIN
 70
     2
  9
$DIMDSEP
 70
    46
  9
$DIMATFIT
 70
     3
  9
$DIMFRAC
 70
     0
  9
$DIMLDRBLK
  1

  9
$DIMLUNIT
 70
     2
  9
$DIMLWD
 70
    -1
  9
$DIMLWE
 70
    -1
  9
$DIMTMOVE
 70
     0
  9
$LUNITS
 70
     2
  9
$LUPREC
 70
     4
  9
$SKETCHINC
 40
1.0
  9
$FILLETRAD
 40
0.5
  9
$AUNITS
 70
     0
  9
$AUPREC
 70
     0
  9
$MENU
  1
.
  9
$ELEVATION
 40
0.0
  9
$PELEVATION
 40
0.0
  9
$THICKNESS
 40
0.0
  9
$LIMCHECK
 70
     0
  9
$CHAMFERA
 40
10.0
  9
$CHAMFERB
 40
10.0
  9
$CHAMFERC
 40
20.0
  9
$CHAMFERD
 40
0.0
  9
$SKPOLY
 70
     0
  9
$TDCREATE
 40
2452694.760215926
  9
$TDUCREATE
 40
2452694.718549260
  9
$TDUPDATE
 40
2456960.666867847
  9
$TDUUPDATE
 40
2456960.625201181
  9
$TDINDWG
 40
2.5373755671
  9
$TDUSRTIMER
 40
2.5373755671
  9
$USRTIMER
 70
     1
  9
$ANGBASE
 50
0.0
  9
$ANGDIR
 70
     0
  9
$PDMODE
 70
     0
  9
$PDSIZE
 40
0.0
  9
$PLINEWID
 40
0.0
  9
$SPLFRAME
 70
     0
  9
$SPLINETYPE
 70
     6
  9
$SPLINESEGS
 70
     8
  9
$HANDSEED
  5
B1
  9
$SURFTAB1
 70
     6
  9
$SURFTAB2
 70
     6
  9
$SURFTYPE
 70
     6
  9
$SURFU
 70
     6
  9
$SURFV
 70
     6
  9
$UCSBASE
  2

  9
$UCSNAME
  2

  9
$UCSORG
 10
0.0
 20
0.0
 30
0.0
  9
$UCSXDIR
 10
1.0
 20
0.0
 30
0.0
  9
$UCSYDIR
 10
0.0
 20
1.0
 30
0.0
  9
$UCSORTHOREF
  2

  9
$UCSORTHOVIEW
 70
     0
  9
$UCSORGTOP
 10
0.0
 20
0.0
 30
0.0
  9
$UCSORGBOTTOM
 10
0.0
 20
0.0
 30
0.0
  9
$UCSORGLEFT
 10
0.0
 20
0.0
 30
0.0
  9
$UCSORGRIGHT
 10
0.0
 20
0.0
 30
0.0
  9
$UCSORGFRONT
 10
0.0
 20
0.0
 30
0.0
  9
$UCSORGBACK
 10
0.0
 20
0.0
 30
0.0
  9
$PUCSBASE
  2

  9
$PUCSNAME
  2

  9
$PUCSORG
 10
0.0
 20
0.0
 30
0.0
  9
$PUCSXDIR
 10
1.0
 20
0.0
 30
0.0
  9
$PUCSYDIR
 10
0.0
 20
1.0
 30
0.0
  9
$PUCSORTHOREF
  2

  9
$PUCSORTHOVIEW
 70
     0
  9
$PUCSORGTOP
 10
0.0
 20
0.0
 30
0.0
  9
$PUCSORGBOTTOM
 10
0.0
 20
0.0
 30
0.0
  9
$PUCSORGLEFT
 10
0.0
 20
0.0
 30
0.0
  9
$PUCSORGRIGHT
 10
0.0
 20
0.0
 30
0.0
  9
$PUCSORGFRONT
 10
0.0
 20
0.0
 30
0.0
  9
$PUCSORGBACK
 10
0.0
 20
0.0
 30
0.0
  9
$USERI1
 70
     0
  9
$USERI2
 70
     0
  9
$USERI3
 70
     0
  9
$USERI4
 70
     0
  9
$USERI5
 70
     0
  9
$USERR1
 40
3.0
  9
$USERR2
 40
1.0
  9
$USERR3
 40
1.0
  9
$USERR4
 40
0.0
  9
$USERR5
 40
0.0
  9
$WORLDVIEW
 70
     1
  9
$SHADEDGE
 70
     3
  9
$SHADEDIF
 70
    70
  9
$TILEMODE
 70
     1
  9
$MAXACTVP
 70
    64
  9
$PINSBASE
 10
0.0
 20
0.0
 30
0.0
  9
$PLIMCHECK
 70
     0
  9
$PEXTMIN
 10
1.000000000000000E+20
 20
1.000000000000000E+20
 30
1.000000000000000E+20
  9
$PEXTMAX
 10
-1.000000000000000E+20
 20
-1.000000000000000E+20
 30
-1.000000000000000E+20
  9
$PLIMMIN
 10
-12.74318078855802
 20
-6.351582024086956
  9
$PLIMMAX
 10
432.7567981061398
 20
308.6868943834866
  9
$UNITMODE
 70
     0
  9
$VISRETAIN
 70
     1
  9
$PLINEGEN
 70
     0
  9
$PSLTSCALE
 70
     1
  9
$TREEDEPTH
 70
  3020
  9
$CMLSTYLE
  2
Standard
  9
$CMLJUST
 70
     0
  9
$CMLSCALE
 40
20.0
  9
$PROXYGRAPHICS
 70
     1
  9
$MEASUREMENT
 70
     1
  9
$CELWEIGHT
370
    -1
  9
$ENDCAPS
280
     0
  9
$JOINSTYLE
280
     0
  9
$LWDISPLAY
290
     0
  9
$INSUNITS
 70
     4
  9
$HYPERLINKBASE
  1

  9
$STYLESHEET
  1

  9
$XEDIT
290
     1
  9
$CEPSNTYPE
380
     0
  9
$PSTYLEMODE
290
     1
  9
$FINGERPRINTGUID
  2
{E6FFC3F2-70B4-4732-BDD3-06AAED10F260}
  9
$VERSIONGUID
  2
{3574A6F5-15FA-46C6-9E86-EAC52F7A0EDA}
  9
$EXTNAMES
290
     1
  9
$PSVPSCALE
 40
0.0
  9
$OLESTARTUP
290
     0
  0
ENDSEC
  0
SECTION
  2
CLASSES
  0
CLASS
  1
ACDBDICTIONARYWDFLT
  2
AcDbDictionaryWithDefault
  3
ObjectDBX Classes
 90
        0
280
     0
281
     0
  0
CLASS
  1
DICTIONARYVAR
  2
AcDbDictionaryVar
  3
ObjectDBX Classes
 90
        0
280
     0
281
     0
  0
CLASS
  1
DIMASSOC
  2
AcDbDimAssoc
  3
"AcDbDimAssoc|Product Desc:     AcDim ARX App For Dimension|Company:          Autodesk, Inc.|WEB Address:      www.autodesk.com"
 90
        0
280
     0
281
     0
  0
CLASS
  1
ACDBPLACEHOLDER
  2
AcDbPlaceHolder
  3
ObjectDBX Classes
 90
        0
280
     0
281
     0
  0
CLASS
  1
LAYOUT
  2
AcDbLayout
  3
ObjectDBX Classes
 90
        0
280
     0
281
     0
  0
ENDSEC
  0
SECTION
  2
TABLES
  0
TABLE
  2
VPORT
  5
19
330
0
100
AcDbSymbolTable
 70
     2
  0
VPORT
  5
A8
330
19
100
AcDbSymbolTableRecord
100
AcDbViewportTableRecord
  2
*Active
 70
     0
 10
0.0
 20
0.0
 11
1.0
 21
1.0
 12
11.79215140232258
 22
152.6787945180948
 13
0.0
 23
0.0
 14
10.0
 24
10.0
 15
10.0
 25
10.0
 16
0.0
 26
0.0
 36
1.0
 17
0.0
 27
0.0
 37
0.0
 40
122.0650337508959
 41
2.031903190319031
 42
50.0
 43
0.0
 44
0.0
 50
0.0
 51
0.0
 71
     0
 72
   100
 73
     1
 74
     3
 75
     0
 76
     0
 77
     0
 78
     2
281
     0
 65
     1
110
0.0
120
0.0
130
0.0
111
1.0
121
0.0
131
0.0
112
0.0
122
1.0
132
0.0
 79
     0
146
0.0
  0
ENDTAB
  0
TABLE
  2
LTYPE
  5
14
330
0
100
AcDbSymbolTable
 70
     3
  0
LTYPE
  5
15
330
14
100
AcDbSymbolTableRecord
100
AcDbLinetypeTableRecord
  2
ByBlock
 70
     0
  3

 72
    65
 73
     0
 40
0.0
  0
LTYPE
  5
16
330
14
100
AcDbSymbolTableRecord
100
AcDbLinetypeTableRecord
  2
ByLayer
 70
     0
  3

 72
    65
 73
     0
 40
0.0
  0
LTYPE
  5
8
330
14
100
AcDbSymbolTableRecord
100
AcDbLinetypeTableRecord
  2
Continuous
 70
     0
  3
Solid line
 72
    65
 73
     0
 40
0.0
  0
LTYPE
  5
40
330
14
100
AcDbSymbolTableRecord
100
AcDbLinetypeTableRecord
  2
ACAD_ISO04W100
 70
     0
  3
ISO Lang gestrichelt punktiert ____ . ____ . __
 72
    65
 73
     4
 40
30.0
 49
24.0
 74
     0
 49
-3.0
 74
     0
 49
0.0
 74
     0
 49
-3.0
 74
     0
  0
LTYPE
  5
2C
330
14
100
AcDbSymbolTableRecord
100
AcDbLinetypeTableRecord
  2
VERDECKT
 70
     0
  3
Verdeckt __ __ __ __ __ __ __ __ __ __ __ __ __
 72
    65
 73
     2
 40
9.524999999999996
 49
6.349999999999997
 74
     0
 49
-3.174999999999998
 74
     0
  0
ENDTAB
  0
TABLE
  2
LAYER
  5
10
330
0
100
AcDbSymbolTable
 70
     5
  0
LAYER
  5
4
330
10
100
AcDbSymbolTableRecord
100
AcDbLayerTableRecord
  2
0
 70
     0
 62
     7
  6
Continuous
370
    -3
390
5
  0
LAYER
  5
36
330
10
100
AcDbSymbolTableRecord
100
AcDbLayerTableRecord
  2
Defpoints
 70
     0
 62
     7
  6
Continuous
290
     0
370
    -3
390
5
  0
LAYER
  5
27
330
10
100
AcDbSymbolTableRecord
100
AcDbLayerTableRecord
  2
BEM
 70
     0
 62
     3
  6
Continuous
370
    -3
390
5
  0
LAYER
  5
2B
330
10
100
AcDbSymbolTableRecord
100
AcDbLayerTableRecord
  2
ver1
 70
     0
 62
     8
  6
VERDECKT
370
    -3
390
5
  0
LAYER
  5
3F
330
10
100
AcDbSymbolTableRecord
100
AcDbLayerTableRecord
  2
sym1
 70
     0
 62
     6
  6
ACAD_ISO04W100
370
    -3
390
5
  0
ENDTAB
  0
TABLE
  2
STYLE
  5
11
330
0
100
AcDbSymbolTable
 70
     3
  0
STYLE
  5
12
330
11
100
AcDbSymbolTableRecord
100
AcDbTextStyleTableRecord
  2
Standard
 70
     0
 40
0.0
 41
1.0
 50
0.0
 71
     0
 42
2.5
  3
txt
  4

  0
STYLE
  5
1F
330
11
100
AcDbSymbolTableRecord
100
AcDbTextStyleTableRecord
  2
ROMANS
 70
     0
 40
0.0
 41
1.0
 50
0.0
 71
     0
 42
3.5
  3
C:\ACAD13\COM\FONTS\ROMANS.SHX
  4

  0
STYLE
  5
28
330
11
100
AcDbSymbolTableRecord
100
AcDbTextStyleTableRecord
  2
Arial
 70
     0
 40
0.0
 41
1.0
 50
0.0
 71
     0
 42
2.5
  3
ARIAL.TTF
  4

1001
ACAD
1000
Arial
1071
       34
  0
ENDTAB
  0
TABLE
  2
VIEW
  5
17
330
0
100
AcDbSymbolTable
 70
     0
  0
ENDTAB
  0
TABLE
  2
UCS
  5
18
330
0
100
AcDbSymbolTable
 70
     0
  0
ENDTAB
  0
TABLE
  2
APPID
  5
1B
330
0
100
AcDbSymbolTable
 70
     2
  0
APPID
  5
1C
330
1B
100
AcDbSymbolTableRecord
100
AcDbRegAppTableRecord
  2
ACAD
 70
     0
  0
APPID
  5
A2
330
1B
100
AcDbSymbolTableRecord
100
AcDbRegAppTableRecord
  2
DCO15
 70
     0
  0
ENDTAB
  0
TABLE
  2
DIMSTYLE
  5
1D
330
0
100
AcDbSymbolTable
 70
     2
100
AcDbDimStyleTable
 71
     2
340
1E
340
20
  0
DIMSTYLE
105
20
330
1D
100
AcDbSymbolTableRecord
100
AcDbDimStyleTableRecord
  2
ISO-25
 70
     0
 41
2.5
 42
0.625
 43
3.75
 44
1.25
 73
     0
 74
     0
 77
     1
 78
     8
140
2.5
141
2.5
143
0.03937007874016
147
0.625
171
     3
172
     1
271
     2
272
     2
274
     3
278
    44
283
     0
284
     8
340
12
  0
DIMSTYLE
105
1E
102
{ACAD_REACTORS
330
52
330
41
330
76
330
2D
102
}
330
1D
100
AcDbSymbolTableRecord
100
AcDbDimStyleTableRecord
  2
1zu1
 70
     0
 41
3.5
 42
0.0
 43
10.0
 44
2.0
 48
0.000000001
 73
     0
 74
     0
 77
     1
 78
     8
 79
     2
140
3.5
141
1.5
146
0.7
147
1.5
172
     1
176
   256
177
   256
178
     7
179
     2
271
     2
272
     2
284
     8
340
1F
371
    -1
372
    -1
  0
ENDTAB
  0
TABLE
  2
BLOCK_RECORD
  5
1
330
0
100
AcDbSymbolTable
 70
     6
  0
BLOCK_RECORD
  5
2
330
1
100
AcDbSymbolTableRecord
100
AcDbBlockTableRecord
  2
*Model_Space
340
A
  0
BLOCK_RECORD
  5
C
330
1
100
AcDbSymbolTableRecord
100
AcDbBlockTableRecord
  2
*Paper_Space
340
F
  0
BLOCK_RECORD
  5
68
330
1
100
AcDbSymbolTableRecord
100
AcDbBlockTableRecord
  2
*D0
340
0
  0
BLOCK_RECORD
  5
55
330
1
100
AcDbSymbolTableRecord
100
AcDbBlockTableRecord
  2
*D1
340
0
  0
BLOCK_RECORD
  5
44
330
1
100
AcDbSymbolTableRecord
100
AcDbBlockTableRecord
  2
*D2
340
0
  0
BLOCK_RECORD
  5
79
330
1
100
AcDbSymbolTableRecord
100
AcDbBlockTableRecord
  2
*D3
340
0
  0
BLOCK_RECORD
  5
30
330
1
100
AcDbSymbolTableRecord
100
AcDbBlockTableRecord
  2
*D4
340
0
  0
BLOCK_RECORD
  5
8B
330
1
100
AcDbSymbolTableRecord
100
AcDbBlockTableRecord
  2
*D5
340
0
  0
ENDTAB
  0
ENDSEC
  0
SECTION
  2
BLOCKS
  0
BLOCK
  5
3
330
2
100
AcDbEntity
  8
0
100
AcDbBlockBegin
  2
*Model_Space
 70
     0
 10
0.0
 20
0.0
 30
0.0
  3
*Model_Space
  1

  0
ENDBLK
  5
9
330
2
100
AcDbEntity
  8
0
100
AcDbBlockEnd
  0
BLOCK
  5
D
330
C
100
AcDbEntity
 67
     1
  8
0
100
AcDbBlockBegin
  2
*Paper_Space
 70
     0
 10
0.0
 20
0.0
 30
0.0
  3
*Paper_Space
  1

  0
ENDBLK
  5
E
330
C
100
AcDbEntity
 67
     1
  8
0
100
AcDbBlockEnd
  0
BLOCK
  5
69
330
68
100
AcDbEntity
  8
0
100
AcDbBlockBegin
  2
*D0
 70
     1
 10
0.0
 20
0.0
 30
0.0
  3
*D0
  1

  0
LINE
  5
6A
330
68
100
AcDbEntity
  8
BEM
100
AcDbLine
 10
35.49999999999992
 20
112.5
 30
0.0
 11
35.49999999999992
 21
95.38496904483221
 31
0.0
  0
LINE
  5
6B
330
68
100
AcDbEntity
  8
BEM
100
AcDbLine
 10
34.99999999999992
 20
112.5
 30
0.0
 11
34.99999999999992
 21
95.38496904483221
 31
0.0
  0
LINE
  5
6C
330
68
100
AcDbEntity
  8
BEM
100
AcDbLine
 10
38.99999999999991
 20
97.38496904483223
 30
0.0
 11
42.49999999999992
 21
97.38496904483223
 31
0.0
  0
LINE
  5
6D
330
68
100
AcDbEntity
  8
BEM
100
AcDbLine
 10
31.49999999999991
 20
97.38496904483223
 30
0.0
 11
-59.50000000000006
 21
97.38496904483223
 31
0.0
  0
LINE
  5
6E
330
68
100
AcDbEntity
  8
BEM
100
AcDbLine
 10
35.49999999999992
 20
97.38496904483223
 30
0.0
 11
34.99999999999992
 21
97.38496904483223
 31
0.0
  0
SOLID
  5
6F
330
68
100
AcDbEntity
  8
BEM
100
AcDbTrace
 10
38.99999999999991
 20
97.96830237816557
 30
0.0
 11
38.99999999999991
 21
96.80163571149893
 31
0.0
 12
35.49999999999992
 22
97.38496904483223
 32
0.0
 13
35.49999999999992
 23
97.38496904483223
 33
0.0
  0
SOLID
  5
70
330
68
100
AcDbEntity
  8
BEM
100
AcDbTrace
 10
31.49999999999991
 20
97.96830237816557
 30
0.0
 11
31.49999999999991
 21
96.80163571149893
 31
0.0
 12
34.99999999999992
 22
97.38496904483223
 32
0.0
 13
34.99999999999992
 23
97.38496904483223
 33
0.0
  0
MTEXT
  5
71
330
68
100
AcDbEntity
  8
BEM
 62
     7
100
AcDbMText
 10
-17.75000000000007
 20
101.5516357114989
 30
0.0
 40
3.5
 41
0.0
 71
     5
 72
     1
  1
\A1;Fase / Chamfer 0.5\C7;\H3.5;x45° (4x)
  7
ROMANS
 73
     1
 44
1.0
1001
ACAD
1000
MTEXTBEGIN
1070
    73
1070
     1
1070
    44
1040
1.0
1070
    74
1070
     0
1000
MTEXTEND
  0
POINT
  5
72
330
68
100
AcDbEntity
  8
Defpoints
 62
     0
100
AcDbPoint
 10
35.49999999999992
 20
112.5
 30
0.0
  0
POINT
  5
73
330
68
100
AcDbEntity
  8
Defpoints
 62
     0
100
AcDbPoint
 10
34.99999999999992
 20
112.5
 30
0.0
  0
POINT
  5
74
330
68
100
AcDbEntity
  8
Defpoints
 62
     0
100
AcDbPoint
 10
34.99999999999992
 20
97.38496904483223
 30
0.0
  0
ENDBLK
  5
75
330
68
100
AcDbEntity
  8
0
100
AcDbBlockEnd
  0
BLOCK
  5
56
330
55
100
AcDbEntity
  8
0
100
AcDbBlockBegin
  2
*D1
 70
     1
 10
0.0
 20
0.0
 30
0.0
  3
*D1
  1

  0
LINE
  5
57
330
55
100
AcDbEntity
  8
BEM
100
AcDbLine
 10
15.03982616914888
 20
160.3309606755152
 30
0.0
 11
24.5398261691489
 21
160.3309606755152
 31
0.0
  0
LINE
  5
58
330
55
100
AcDbEntity
  8
BEM
100
AcDbLine
 10
24.5398261691489
 20
160.3309606755152
 30
0.0
 11
28.22278650438699
 21
156.7077838244076
 31
0.0
  0
LINE
  5
59
330
55
100
AcDbEntity
  8
BEM
100
AcDbLine
 10
36.77721349561283
 20
148.2922161755923
 30
0.0
 11
39.27225470138704
 21
145.8376756113545
 31
0.0
  0
MTEXT
  5
5A
330
55
100
AcDbEntity
  8
BEM
 62
     7
100
AcDbMText
 10
17.78982616914888
 20
163.5809606755152
 30
0.0
 40
3.5
 41
0.0
 71
     5
 72
     1
  1
\A1;%%c5\C7;\H3.5;
  7
ROMANS
 73
     1
 44
1.0
1001
ACAD
1000
MTEXTBEGIN
1070
    73
1070
     1
1070
    44
1040
1.0
1070
    74
1070
     0
1000
MTEXTEND
  0
LINE
  5
5B
330
55
100
AcDbEntity
  8
BEM
100
AcDbLine
 10
34.28217228983863
 20
150.7467567398301
 30
0.0
 11
30.7178277101612
 21
154.2532432601698
 31
0.0
  0
SOLID
  5
5C
330
55
100
AcDbEntity
  8
BEM
100
AcDbTrace
 10
37.18630358965248
 20
148.7080563765547
 30
0.0
 11
36.36812340157321
 21
147.87637597463
 31
0.0
 12
34.28217228983863
 22
150.7467567398301
 32
0.0
 13
34.28217228983863
 23
150.7467567398301
 33
0.0
  0
SOLID
  5
5D
330
55
100
AcDbEntity
  8
BEM
100
AcDbTrace
 10
28.63187659842663
 20
157.12362402537
 30
0.0
 11
27.81369641034735
 21
156.2919436234452
 31
0.0
 12
30.7178277101612
 22
154.2532432601698
 32
0.0
 13
30.7178277101612
 23
154.2532432601698
 33
0.0
  0
POINT
  5
5E
330
55
100
AcDbEntity
  8
Defpoints
 62
     0
100
AcDbPoint
 10
30.7178277101612
 20
154.2532432601698
 30
0.0
  0
POINT
  5
5F
330
55
100
AcDbEntity
  8
Defpoints
 62
     0
100
AcDbPoint
 10
34.28217228983863
 20
150.7467567398301
 30
0.0
  0
ENDBLK
  5
60
330
55
100
AcDbEntity
  8
0
100
AcDbBlockEnd
  0
BLOCK
  5
45
330
44
100
AcDbEntity
  8
0
100
AcDbBlockBegin
  2
*D2
 70
     1
 10
0.0
 20
0.0
 30
0.0
  3
*D2
  1

  0
LINE
  5
46
330
44
100
AcDbEntity
  8
BEM
100
AcDbLine
 10
-7.500000000000083
 20
112.5
 30
0.0
 11
-31.76334768180256
 21
112.5
 31
0.0
  0
LINE
  5
47
330
44
100
AcDbEntity
  8
BEM
100
AcDbLine
 10
-7.500000000000083
 20
152.5
 30
0.0
 11
-31.76334768180255
 21
152.5
 31
0.0
  0
LINE
  5
48
330
44
100
AcDbEntity
  8
BEM
100
AcDbLine
 10
-29.76334768180256
 20
116.0
 30
0.0
 11
-29.76334768180255
 21
149.0
 31
0.0
  0
SOLID
  5
49
330
44
100
AcDbEntity
  8
BEM
100
AcDbTrace
 10
-30.34668101513589
 20
116.0
 30
0.0
 11
-29.18001434846923
 21
116.0
 31
0.0
 12
-29.76334768180256
 22
112.5
 32
0.0
 13
-29.76334768180256
 23
112.5
 33
0.0
  0
SOLID
  5
4A
330
44
100
AcDbEntity
  8
BEM
100
AcDbTrace
 10
-30.34668101513589
 20
149.0
 30
0.0
 11
-29.18001434846922
 21
149.0
 31
0.0
 12
-29.76334768180255
 22
152.5
 32
0.0
 13
-29.76334768180255
 23
152.5
 33
0.0
  0
MTEXT
  5
4B
330
44
100
AcDbEntity
  8
BEM
 62
     7
100
AcDbMText
 10
-33.01334768180258
 20
132.5
 30
0.0
 40
3.5
 41
0.0
 71
     5
 72
     1
  1
\A1;40
  7
ROMANS
 11
0.0000000000000001
 21
1.0
 31
0.0
 73
     1
 44
1.0
1001
ACAD
1000
MTEXTBEGIN
1070
    73
1070
     1
1070
    44
1040
1.0
1070
    74
1070
     0
1000
MTEXTEND
  0
POINT
  5
4C
330
44
100
AcDbEntity
  8
Defpoints
 62
     0
100
AcDbPoint
 10
-7.500000000000083
 20
112.5
 30
0.0
  0
POINT
  5
4D
330
44
100
AcDbEntity
  8
Defpoints
 62
     0
100
AcDbPoint
 10
-7.500000000000083
 20
152.5
 30
0.0
  0
POINT
  5
4E
330
44
100
AcDbEntity
  8
Defpoints
 62
     0
100
AcDbPoint
 10
-29.76334768180255
 20
152.5
 30
0.0
  0
ENDBLK
  5
4F
330
44
100
AcDbEntity
  8
0
100
AcDbBlockEnd
  0
BLOCK
  5
7A
330
79
100
AcDbEntity
  8
0
100
AcDbBlockBegin
  2
*D3
 70
     1
 10
0.0
 20
0.0
 30
0.0
  3
*D3
  1

  0
LINE
  5
7B
330
79
100
AcDbEntity
  8
BEM
100
AcDbLine
 10
32.49999999999992
 20
152.5
 30
0.0
 11
32.49999999999992
 21
176.1173929987187
 31
0.0
  0
LINE
  5
7C
330
79
100
AcDbEntity
  8
BEM
100
AcDbLine
 10
-7.500000000000083
 20
152.5
 30
0.0
 11
-7.500000000000082
 21
176.1173929987187
 31
0.0
  0
LINE
  5
7D
330
79
100
AcDbEntity
  8
BEM
100
AcDbLine
 10
28.99999999999991
 20
174.1173929987187
 30
0.0
 11
-4.000000000000084
 21
174.1173929987187
 31
0.0
  0
SOLID
  5
7E
330
79
100
AcDbEntity
  8
BEM
100
AcDbTrace
 10
28.99999999999991
 20
174.700726332052
 30
0.0
 11
28.99999999999991
 21
173.5340596653853
 31
0.0
 12
32.49999999999992
 22
174.1173929987187
 32
0.0
 13
32.49999999999992
 23
174.1173929987187
 33
0.0
  0
SOLID
  5
7F
330
79
100
AcDbEntity
  8
BEM
100
AcDbTrace
 10
-4.000000000000084
 20
174.700726332052
 30
0.0
 11
-4.000000000000084
 21
173.5340596653853
 31
0.0
 12
-7.500000000000082
 22
174.1173929987187
 32
0.0
 13
-7.500000000000082
 23
174.1173929987187
 33
0.0
  0
MTEXT
  5
80
330
79
100
AcDbEntity
  8
BEM
 62
     7
100
AcDbMText
 10
12.49999999999991
 20
177.3673929987187
 30
0.0
 40
3.5
 41
0.0
 71
     5
 72
     1
  1
\A1;40
  7
ROMANS
 73
     1
 44
1.0
1001
ACAD
1000
MTEXTBEGIN
1070
    73
1070
     1
1070
    44
1040
1.0
1070
    74
1070
     0
1000
MTEXTEND
  0
POINT
  5
81
330
79
100
AcDbEntity
  8
Defpoints
 62
     0
100
AcDbPoint
 10
32.49999999999992
 20
152.5
 30
0.0
  0
POINT
  5
82
330
79
100
AcDbEntity
  8
Defpoints
 62
     0
100
AcDbPoint
 10
-7.500000000000083
 20
152.5
 30
0.0
  0
POINT
  5
83
330
79
100
AcDbEntity
  8
Defpoints
 62
     0
100
AcDbPoint
 10
-7.500000000000082
 20
174.1173929987187
 30
0.0
  0
ENDBLK
  5
84
330
79
100
AcDbEntity
  8
0
100
AcDbBlockEnd
  0
BLOCK
  5
31
330
30
100
AcDbEntity
  8
0
100
AcDbBlockBegin
  2
*D4
 70
     1
 10
0.0
 20
0.0
 30
0.0
  3
*D4
  1

  0
LINE
  5
32
330
30
100
AcDbEntity
  8
BEM
100
AcDbLine
 10
15.83836037312181
 20
134.8076870376231
 30
0.0
 11
29.363175601396
 21
144.1568996150983
 31
0.0
  0
MTEXT
  5
33
330
30
100
AcDbEntity
  8
BEM
 62
     7
100
AcDbMText
 10
18.85732940852951
 20
140.8455070422021
 30
0.0
 40
3.5
 41
0.0
 71
     5
 72
     1
  1
\A1;\U+220548
  7
ROMANS
 11
0.8225939317754191
 21
0.5686292495169917
 31
0.0
 73
     1
 44
1.0
1001
ACAD
1000
MTEXTBEGIN
1070
    73
1070
     1
1070
    44
1040
1.0
1070
    74
1070
     0
1000
MTEXTEND
  0
SOLID
  5
34
330
30
100
AcDbEntity
  8
BEM
100
AcDbTrace
 10
29.03147520584442
 20
144.6367460753006
 30
0.0
 11
29.69487599694757
 21
143.677053154896
 31
0.0
 12
32.24225436260996
 22
146.1471019884077
 32
0.0
 13
32.24225436260996
 23
146.1471019884077
 33
0.0
  0
POINT
  5
35
330
30
100
AcDbEntity
  8
Defpoints
 62
     0
100
AcDbPoint
 10
32.24225436260996
 20
146.1471019884077
 30
0.0
  0
POINT
  5
37
330
30
100
AcDbEntity
  8
Defpoints
 62
     0
100
AcDbPoint
 10
-7.242254362610133
 20
118.8528980115922
 30
0.0
  0
ENDBLK
  5
38
330
30
100
AcDbEntity
  8
0
100
AcDbBlockEnd
  0
BLOCK
  5
95
330
8B
100
AcDbEntity
  8
0
100
AcDbBlockBegin
  2
*D5
 70
     1
 10
0.0
 20
0.0
 30
0.0
  3
*D5
  1

  0
LINE
  5
97
330
8B
100
AcDbEntity
  8
BEM
100
AcDbLine
 10
12.53982616914887
 20
160.3309606755152
 30
0.0
 11
24.53982616914907
 21
160.3309606755152
 31
0.0
  0
LINE
  5
98
330
8B
100
AcDbEntity
  8
BEM
100
AcDbLine
 10
24.53982616914907
 20
160.3309606755152
 30
0.0
 11
28.47229062496442
 21
156.4623297679839
 31
0.0
  0
LINE
  5
99
330
8B
100
AcDbEntity
  8
BEM
100
AcDbLine
 10
36.52770937503536
 20
148.537670232016
 30
0.0
 11
39.02275058080955
 21
146.0831296677782
 31
0.0
  0
MTEXT
  5
9A
330
8B
100
AcDbEntity
  8
BEM
 62
     7
100
AcDbMText
 10
17.78982616914888
 20
163.5809606755152
 30
0.0
 40
3.5
 41
0.0
 71
     5
 72
     1
  1
\A1;%%c4.3\C7;\H3.5;
  7
ROMANS
 73
     1
 44
1.0
1001
ACAD
1000
MTEXTBEGIN
1070
    73
1070
     1
1070
    44
1040
1.0
1070
    74
1070
     0
1000
MTEXTEND
  0
LINE
  5
9B
330
8B
100
AcDbEntity
  8
BEM
100
AcDbLine
 10
34.03266816926119
 20
150.9922107962539
 30
0.0
 11
30.9673318307386
 21
154.0077892037461
 31
0.0
  0
SOLID
  5
9C
330
8B
100
AcDbEntity
  8
BEM
100
AcDbTrace
 10
36.93679946907502
 20
148.9535104329784
 30
0.0
 11
36.11861928099572
 21
148.1218300310537
 31
0.0
 12
34.03266816926119
 22
150.9922107962539
 32
0.0
 13
34.03266816926119
 23
150.9922107962539
 33
0.0
  0
SOLID
  5
9D
330
8B
100
AcDbEntity
  8
BEM
100
AcDbTrace
 10
28.88138071900408
 20
156.8781699689463
 30
0.0
 11
28.06320053092478
 21
156.0464895670215
 31
0.0
 12
30.9673318307386
 22
154.0077892037461
 32
0.0
 13
30.9673318307386
 23
154.0077892037461
 33
0.0
  0
POINT
  5
9E
330
8B
100
AcDbEntity
  8
Defpoints
 62
     0
100
AcDbPoint
 10
30.9673318307386
 20
154.0077892037461
 30
0.0
  0
POINT
  5
9F
330
8B
100
AcDbEntity
  8
Defpoints
 62
     0
100
AcDbPoint
 10
34.03266816926119
 20
150.9922107962539
 30
0.0
  0
ENDBLK
  5
96
330
8B
100
AcDbEntity
  8
0
100
AcDbBlockEnd
  0
ENDSEC
  0
SECTION
  2
ENTITIES
  0
LWPOLYLINE
  5
2A
330
2
100
AcDbEntity
  8
ver1
100
AcDbPolyline
 90
        8
 70
     1
 43
0.0
 10
-11.50000000000008
 20
123.8831560301929
 42
0.2239853684084128
 10
3.883156030192814
 20
108.5
 10
21.11684396980697
 20
108.5
 42
0.223985368408414
 10
36.49999999999993
 20
123.883156030193
 10
36.49999999999993
 20
141.116843969807
 42
0.2239853684084144
 10
21.11684396980693
 20
156.5
 10
3.883156030192902
 20
156.5
 42
0.2239853684084132
 10
-11.50000000000005
 20
141.1168439698071
  0
DIMENSION
  5
2D
102
{ACAD_XDICTIONARY
360
2E
102
}
102
{ACAD_REACTORS
330
2F
102
}
330
2
100
AcDbEntity
  8
BEM
100
AcDbDimension
  2
*D4
 10
-7.242254362610133
 20
118.8528980115922
 30
0.0
 11
20.70537446945973
 21
138.1720767639319
 31
0.0
 70
   131
 71
     5
 42
47.99999999999998
  3
1zu1
100
AcDbDiametricDimension
 15
32.24225436260996
 25
146.1471019884077
 35
0.0
 40
0.0
1001
ACAD
1000
DSTYLE
1002
{
1070
   288
1070
     1
1002
}
  0
MTEXT
  5
39
330
2
100
AcDbEntity
  8
BEM
100
AcDbMText
 10
12.49999999999991
 20
182.6297050765749
 30
0.0
 40
5.0
 41
85.16671850144826
 71
     8
 72
     5
  1
{\C7;Lochbild SLM-40-BA40\PHole cut-out SLM-40-BA40}
  7
Arial
 73
     1
 44
1.0
1001
ACAD
1000
MTEXTBEGIN
1070
    73
1070
     1
1070
    44
1040
1.0
1070
    74
1070
     0
1000
MTEXTEND
  0
CIRCLE
  5
3A
102
{ACAD_REACTORS
330
43
330
78
102
}
330
2
100
AcDbEntity
  8
0
100
AcDbCircle
 10
-7.500000000000083
 20
152.5
 30
0.0
 40
2.149999999999999
  0
CIRCLE
  5
3C
102
{ACAD_REACTORS
330
43
102
}
330
2
100
AcDbEntity
  8
0
100
AcDbCircle
 10
-7.500000000000083
 20
112.5
 30
0.0
 40
2.149999999999999
  0
LINE
  5
3E
330
2
100
AcDbEntity
  8
sym1
100
AcDbLine
 10
12.49999999999991
 20
158.5
 30
0.0
 11
12.49999999999991
 21
106.5
 31
0.0
  0
DIMENSION
  5
41
102
{ACAD_XDICTIONARY
360
42
102
}
102
{ACAD_REACTORS
330
43
102
}
330
2
100
AcDbEntity
  8
BEM
100
AcDbDimension
  2
*D2
 10
-29.76334768180255
 20
152.5
 30
0.0
 11
-33.01334768180258
 21
132.5
 31
0.0
 71
     5
 42
40.0
  3
1zu1
100
AcDbAlignedDimension
 13
-7.500000000000083
 23
112.5
 33
0.0
 14
-7.500000000000083
 24
152.5
 34
0.0
 50
90.0
100
AcDbRotatedDimension
  0
CIRCLE
  5
50
102
{ACAD_REACTORS
330
2F
102
}
330
2
100
AcDbEntity
  8
0
100
AcDbCircle
 10
12.49999999999991
 20
132.5
 30
0.0
 40
24.0
  0
CIRCLE
  5
51
102
{ACAD_REACTORS
330
54
330
78
102
}
330
2
100
AcDbEntity
  8
0
100
AcDbCircle
 10
32.49999999999992
 20
152.5
 30
0.0
 40
2.149999999999999
  0
DIMENSION
  5
52
102
{ACAD_XDICTIONARY
360
53
102
}
102
{ACAD_REACTORS
330
54
102
}
330
2
100
AcDbEntity
  8
BEM
100
AcDbDimension
  2
*D5
 10
34.03266816926119
 20
150.9922107962539
 30
0.0
 11
17.78982616914888
 21
160.3309606755152
 31
0.0
 70
   163
  1
<>
 71
     5
 42
4.300000000000025
  3
1zu1
100
AcDbDiametricDimension
 15
30.9673318307386
 25
154.0077892037461
 35
0.0
 40
0.0
1001
ACAD
1000
DSTYLE
1002
{
1070
     3
1000
%%c<>\C7;\H3.5;
1070
    47
1040
0.0
1070
    48
1040
0.0
1070
    71
1070
     0
1070
    72
1070
     0
1070
    74
1070
     1
1070
   288
1070
     1
1002
}
  0
CIRCLE
  5
61
330
2
100
AcDbEntity
  8
0
100
AcDbCircle
 10
32.49999999999992
 20
112.5
 30
0.0
 40
2.149999999999999
  0
LINE
  5
62
330
2
100
AcDbEntity
  8
sym1
100
AcDbLine
 10
38.49999999999992
 20
132.5
 30
0.0
 11
-13.50000000000008
 21
132.5
 31
0.0
  0
DIMENSION
  5
76
102
{ACAD_XDICTIONARY
360
77
102
}
102
{ACAD_REACTORS
330
78
102
}
330
2
100
AcDbEntity
  8
BEM
100
AcDbDimension
  2
*D3
 10
-7.500000000000082
 20
174.1173929987187
 30
0.0
 11
12.49999999999991
 21
177.3673929987187
 31
0.0
 71
     5
 42
40.0
  3
1zu1
100
AcDbAlignedDimension
 13
32.49999999999992
 23
152.5
 33
0.0
 14
-7.500000000000083
 24
152.5
 34
0.0
100
AcDbRotatedDimension
  0
ENDSEC
  0
SECTION
  2
OBJECTS
  0
DICTIONARY
  5
7
330
0
100
AcDbDictionary
281
     1
  3
ACAD_COLOR
350
26
  3
ACAD_GROUP
350
22
  3
ACAD_LAYOUT
350
B
  3
ACAD_MATERIAL
350
25
  3
ACAD_MLINESTYLE
350
23
  3
ACAD_PLOTSETTINGS
350
24
  3
ACAD_PLOTSTYLENAME
350
6
  3
ACDBHEADERROUNDTRIPXREC
350
AA
  3
AcDbVariableDictionary
350
A4
  3
ASE_INDEX_DICTIONARY
350
A1
  3
DWGPROPS
350
A9
  0
DICTIONARY
  5
2E
330
2D
100
AcDbDictionary
280
     1
281
     1
  3
ACAD_DIMASSOC
360
2F
  0
DICTIONARY
  5
42
330
41
100
AcDbDictionary
280
     1
281
     1
  3
ACAD_DIMASSOC
360
43
  0
DICTIONARY
  5
53
330
52
100
AcDbDictionary
280
     1
281
     1
  3
ACAD_DIMASSOC
360
54
  0
DICTIONARY
  5
77
330
76
100
AcDbDictionary
280
     1
281
     1
  3
ACAD_DIMASSOC
360
78
  0
DICTIONARY
  5
26
102
{ACAD_REACTORS
330
7
102
}
330
7
100
AcDbDictionary
281
     1
  0
DICTIONARY
  5
22
102
{ACAD_REACTORS
330
7
102
}
330
7
100
AcDbDictionary
281
     1
  0
DICTIONARY
  5
B
102
{ACAD_REACTORS
330
7
102
}
330
7
100
AcDbDictionary
281
     1
  3
DIN-A3
350
F
  3
Model
350
A
  0
DICTIONARY
  5
25
102
{ACAD_REACTORS
330
7
102
}
330
7
100
AcDbDictionary
281
     1
  0
DICTIONARY
  5
23
102
{ACAD_REACTORS
330
7
102
}
330
7
100
AcDbDictionary
281
     1
  3
Standard
350
29
  0
DICTIONARY
  5
24
102
{ACAD_REACTORS
330
7
102
}
330
7
100
AcDbDictionary
281
     1
  0
ACDBDICTIONARYWDFLT
  5
6
102
{ACAD_REACTORS
330
7
102
}
330
7
100
AcDbDictionary
281
     1
  3
Normal
350
5
100
AcDbDictionaryWithDefault
340
5
  0
DICTIONARY
  5
AA
102
{ACAD_REACTORS
330
7
102
}
330
7
100
AcDbDictionary
281
     1
  3
COLORDICT
350
AC
  3
MATERIALDICT
350
AB
  0
DICTIONARY
  5
A4
102
{ACAD_REACTORS
330
7
102
}
330
7
100
AcDbDictionary
281
     1
  3
DIMASSOC
350
A6
  3
HIDETEXT
350
A5
  3
PROJECTNAME
350
A7
  0
DICTIONARY
  5
A1
102
{ACAD_REACTORS
330
7
102
}
330
7
100
AcDbDictionary
281
     1
  3
ASEBlockHierarchyIndexRecord
350
A3
1001
DCO15
1040
1828004113.382
  0
XRECORD
  5
A9
102
{ACAD_REACTORS
330
7
102
}
330
7
100
AcDbXrecord
280
     1
  1
DWGPROPS COOKIE
  2

  3

  4

  6

  7

  8

  9

300
=
301
=
302
=
303
=
304
=
305
=
306
=
307
=
308
=
309
=
 40
2.537375567129629
 41
2452694.760215926
 42
2456960.666867847
  1

 90
        0
  0
DIMASSOC
  5
2F
102
{ACAD_REACTORS
330
2E
102
}
330
2E
100
AcDbDimAssoc
330
2D
 90
        2
 70
     0
 71
     0
  1
AcDbOsnapPointRef
 72
     3
331
50
 73
     2
 91
        0
 40
0.0
 10
0.0
 20
0.0
 30
0.0
 75
     0
  0
DIMASSOC
  5
43
102
{ACAD_REACTORS
330
42
102
}
330
42
100
AcDbDimAssoc
330
41
 90
        3
 70
     0
 71
     0
  1
AcDbOsnapPointRef
 72
     3
331
3C
 73
     2
 91
        0
 40
0.0
 10
21.49999999999993
 20
96.5
 30
0.0
 75
     0
  1
AcDbOsnapPointRef
 72
     3
331
3A
 73
     2
 91
        0
 40
0.0
 10
21.49999999999993
 20
128.5
 30
0.0
 75
     0
  0
DIMASSOC
  5
54
102
{ACAD_REACTORS
330
53
102
}
330
53
100
AcDbDimAssoc
330
52
 90
        2
 70
     0
 71
     0
  1
AcDbOsnapPointRef
 72
     3
331
51
 73
     2
 91
        0
 40
0.0
 10
53.49999999999992
 20
128.5
 30
0.0
 75
     0
  0
DIMASSOC
  5
78
102
{ACAD_REACTORS
330
77
102
}
330
77
100
AcDbDimAssoc
330
76
 90
        3
 70
     0
 71
     0
  1
AcDbOsnapPointRef
 72
     3
331
51
 73
     2
 91
        0
 40
0.0
 10
53.49999999999992
 20
128.5
 30
0.0
 75
     0
  1
AcDbOsnapPointRef
 72
     3
331
3A
 73
     2
 91
        0
 40
0.0
 10
21.49999999999993
 20
128.5
 30
0.0
 75
     0
  0
LAYOUT
  5
F
102
{ACAD_XDICTIONARY
360
AF
102
}
102
{ACAD_REACTORS
330
B
102
}
330
B
100
AcDbPlotSettings
  1

  2
HP LaserJet 5000 N PCL 6
  4
A4
  6

 40
4.233333110809326
 41
4.233341693878172
 42
7.789321899414062
 43
4.23333740234375
 44
209.9733276367186
 45
296.9259948730469
 46
0.0
 47
4.259999999999998
 48
0.0
 49
0.0
140
420.0
141
297.0
142
1.0
143
1.50037378534397
 70
   692
 72
     1
 73
     1
 74
     4
  7
fein.ctb
 75
     0
147
0.6665005812339913
148
0.0
149
0.0
100
AcDbLayout
  1
DIN-A3
 70
     1
 71
     1
 10
-12.74318078855802
 20
-6.351582024086956
 11
432.7567981061398
 21
308.6868943834866
 12
0.0
 22
0.0
 32
0.0
 14
1.000000000000000E+20
 24
1.000000000000000E+20
 34
1.000000000000000E+20
 15
-1.000000000000000E+20
 25
-1.000000000000000E+20
 35
-1.000000000000000E+20
146
0.0
 13
0.0
 23
0.0
 33
0.0
 16
1.0
 26
0.0
 36
0.0
 17
0.0
 27
1.0
 37
0.0
 76
     0
330
C
  0
LAYOUT
  5
A
102
{ACAD_XDICTIONARY
360
AD
102
}
102
{ACAD_REACTORS
330
B
102
}
330
B
100
AcDbPlotSettings
  1

  2
Acrobat PDFWriter
  4
A4
  6

 40
7.408333301544186
 41
7.408332347869872
 42
7.408355712890625
 43
7.408340454101562
 44
309.4302062988281
 45
218.7222137451172
 46
40.25999999999998
 47
0.0
 48
0.0
 49
0.0
140
0.0
141
0.0
142
1.0
143
1.181030364383635
 70
 11956
 72
     1
 73
     1
 74
     1
  7
mittel-pdf.ctb
 75
     0
147
0.8467182810510431
148
59.50367778780014
149
24.83120133547334
100
AcDbLayout
  1
Model
 70
     1
 71
     0
 10
0.0
 20
0.0
 11
12.0
 21
9.0
 12
0.0
 22
0.0
 32
0.0
 14
0.0
 24
0.0
 34
0.0
 15
0.0
 25
0.0
 35
0.0
146
0.0
 13
0.0
 23
0.0
 33
0.0
 16
1.0
 26
0.0
 36
0.0
 17
0.0
 27
1.0
 37
0.0
 76
     0
330
2
  0
MLINESTYLE
  5
29
102
{ACAD_REACTORS
330
23
102
}
330
23
100
AcDbMlineStyle
  2
STANDARD
 70
     0
  3

 62
   256
 51
90.0
 52
90.0
 71
     2
 49
0.5
 62
   256
  6
BYLAYER
 49
-0.5
 62
   256
  6
BYLAYER
  0
ACDBPLACEHOLDER
  5
5
102
{ACAD_REACTORS
330
6
102
}
330
6
  0
XRECORD
  5
AC
102
{ACAD_REACTORS
330
AA
102
}
330
AA
100
AcDbXrecord
280
     1
340
26
  0
XRECORD
  5
AB
102
{ACAD_REACTORS
330
AA
102
}
330
AA
100
AcDbXrecord
280
     1
340
25
  0
DICTIONARYVAR
  5
A6
102
{ACAD_REACTORS
330
A4
102
}
330
A4
100
DictionaryVariables
280
     0
  1
2
  0
DICTIONARYVAR
  5
A5
102
{ACAD_REACTORS
330
A4
102
}
330
A4
100
DictionaryVariables
280
     0
  1
1
  0
DICTIONARYVAR
  5
A7
102
{ACAD_REACTORS
330
A4
102
}
330
A4
100
DictionaryVariables
280
     0
  1

  0
XRECORD
  5
A3
102
{ACAD_REACTORS
330
A1
102
}
330
A1
100
AcDbXrecord
280
     1
  0
DICTIONARY
  5
AF
330
F
100
AcDbDictionary
280
     1
281
     1
  3
ACAD_XREC_ROUNDTRIP
360
B0
  0
DICTIONARY
  5
AD
330
A
100
AcDbDictionary
280
     1
281
     1
  3
ACAD_XREC_ROUNDTRIP
360
AE
  0
XRECORD
  5
B0
102
{ACAD_REACTORS
330
AF
102
}
330
AF
100
AcDbXrecord
280
     1
102
SHADEPLOT
 70
     0
102
SHADEPLOTRESLEVEL
 70
     2
102
SHADEPLOTCUSTOMDPI
 70
   300
  0
XRECORD
  5
AE
102
{ACAD_REACTORS
330
AD
102
}
330
AD
100
AcDbXrecord
280
     1
102
SHADEPLOT
 70
     0
102
SHADEPLOTRESLEVEL
 70
     2
102
SHADEPLOTCUSTOMDPI
 70
   288
  0
ENDSEC
  0
EOF
