  0
SECTION
  2
HEADER
  9
$ACADVER
  1
AC1015
  9
$ACADMAINTVER
 70
    20
  9
$DWGCODEPAGE
  3
ANSI_1252
  9
$INSBASE
 10
0.5431296442935718
 20
10.68795317483176
 30
0.0
  9
$EXTMIN
 10
-59.50000000000006
 20
-23.42796073572987
 30
0.0
  9
$EXTMAX
 10
172.2923496625782
 20
225.6081772140911
 30
0.0
  9
$LIMMIN
 10
0.0
 20
0.0
  9
$LIMMAX
 10
420.0
 20
297.0
  9
$ORTHOMODE
 70
     1
  9
$REGENMODE
 70
     1
  9
$FILLMODE
 70
     1
  9
$QTEXTMODE
 70
     0
  9
$MIRRTEXT
 70
     1
  9
$LTSCALE
 40
0.5
  9
$ATTMODE
 70
     1
  9
$TEXTSIZE
 40
2.5
  9
$TRACEWID
 40
1.0
  9
$TEXTSTYLE
  7
Standard
  9
$CLAYER
  8
BEM
  9
$CELTYPE
  6
ByLayer
  9
$CECOLOR
 62
   256
  9
$CELTSCALE
 40
1.0
  9
$DISPSILH
 70
     0
  9
$DIMSCALE
 40
1.0
  9
$DIMASZ
 40
3.5
  9
$DIMEXO
 40
0.0
  9
$DIMDLI
 40
10.0
  9
$DIMRND
 40
0.0
  9
$DIMDLE
 40
0.0
  9
$DIMEXE
 40
2.0
  9
$DIMTP
 40
0.0
  9
$DIMTM
 40
0.000000001
  9
$DIMTXT
 40
3.5
  9
$DIMCEN
 40
1.5
  9
$DIMTSZ
 40
0.0
  9
$DIMTOL
 70
     0
  9
$DIMLIM
 70
     0
  9
$DIMTIH
 70
     0
  9
$DIMTOH
 70
     0
  9
$DIMSE1
 70
     0
  9
$DIMSE2
 70
     0
  9
$DIMTAD
 70
     1
  9
$DIMZIN
 70
     8
  9
$DIMBLK
  1

  9
$DIMASO
 70
     1
  9
$DIMSHO
 70
     1
  9
$DIMPOST
  1

  9
$DIMAPOST
  1

  9
$DIMALT
 70
     0
  9
$DIMALTD
 70
     2
  9
$DIMALTF
 40
25.4
  9
$DIMLFAC
 40
1.0
  9
$DIMTOFL
 70
     1
  9
$DIMTVP
 40
0.0
  9
$DIMTIX
 70
     0
  9
$DIMSOXD
 70
     0
  9
$DIMSAH
 70
     0
  9
$DIMBLK1
  1

  9
$DIMBLK2
  1

  9
$DIMSTYLE
  2
1zu1
  9
$DIMCLRD
 70
   256
  9
$DIMCLRE
 70
   256
  9
$DIMCLRT
 70
     7
  9
$DIMTFAC
 40
0.7
  9
$DIMGAP
 40
1.5
  9
$DIMJUST
 70
     0
  9
$DIMSD1
 70
     0
  9
$DIMSD2
 70
     0
  9
$DIMTOLJ
 70
     1
  9
$DIMTZIN
 70
     8
  9
$DIMALTZ
 70
     0
  9
$DIMALTTZ
 70
     0
  9
$DIMUPT
 70
     0
  9
$DIMDEC
 70
     2
  9
$DIMTDEC
 70
     2
  9
$DIMALTU
 70
     2
  9
$DIMALTTD
 70
     2
  9
$DIMTXSTY
  7
ROMANS
  9
$DIMAUNIT
 70
     0
  9
$DIMADEC
 70
     2
  9
$DIMALTRND
 40
0.0
  9
$DIMAZIN
 70
     2
  9
$DIMDSEP
 70
    46
  9
$DIMATFIT
 70
     3
  9
$DIMFRAC
 70
     0
  9
$DIMLDRBLK
  1

  9
$DIMLUNIT
 70
     2
  9
$DIMLWD
 70
    -1
  9
$DIMLWE
 70
    -1
  9
$DIMTMOVE
 70
     0
  9
$LUNITS
 70
     2
  9
$LUPREC
 70
     4
  9
$SKETCHINC
 40
1.0
  9
$FILLETRAD
 40
0.0
  9
$AUNITS
 70
     0
  9
$AUPREC
 70
     0
  9
$MENU
  1
.
  9
$ELEVATION
 40
0.0
  9
$PELEVATION
 40
0.0
  9
$THICKNESS
 40
0.0
  9
$LIMCHECK
 70
     0
  9
$CHAMFERA
 40
10.0
  9
$CHAMFERB
 40
10.0
  9
$CHAMFERC
 40
20.0
  9
$CHAMFERD
 40
0.0
  9
$SKPOLY
 70
     0
  9
$TDCREATE
 40
2452694.760215926
  9
$TDUCREATE
 40
2452694.718549260
  9
$TDUPDATE
 40
2454501.089530521
  9
$TDUUPDATE
 40
2454501.047863854
  9
$TDINDWG
 40
1.2949640046
  9
$TDUSRTIMER
 40
1.2949640046
  9
$USRTIMER
 70
     1
  9
$ANGBASE
 50
0.0
  9
$ANGDIR
 70
     0
  9
$PDMODE
 70
     0
  9
$PDSIZE
 40
0.0
  9
$PLINEWID
 40
0.0
  9
$SPLFRAME
 70
     0
  9
$SPLINETYPE
 70
     6
  9
$SPLINESEGS
 70
     8
  9
$HANDSEED
  5
F01
  9
$SURFTAB1
 70
     6
  9
$SURFTAB2
 70
     6
  9
$SURFTYPE
 70
     6
  9
$SURFU
 70
     6
  9
$SURFV
 70
     6
  9
$UCSBASE
  2

  9
$UCSNAME
  2

  9
$UCSORG
 10
0.0
 20
0.0
 30
0.0
  9
$UCSXDIR
 10
1.0
 20
0.0
 30
0.0
  9
$UCSYDIR
 10
0.0
 20
1.0
 30
0.0
  9
$UCSORTHOREF
  2

  9
$UCSORTHOVIEW
 70
     0
  9
$UCSORGTOP
 10
0.0
 20
0.0
 30
0.0
  9
$UCSORGBOTTOM
 10
0.0
 20
0.0
 30
0.0
  9
$UCSORGLEFT
 10
0.0
 20
0.0
 30
0.0
  9
$UCSORGRIGHT
 10
0.0
 20
0.0
 30
0.0
  9
$UCSORGFRONT
 10
0.0
 20
0.0
 30
0.0
  9
$UCSORGBACK
 10
0.0
 20
0.0
 30
0.0
  9
$PUCSBASE
  2

  9
$PUCSNAME
  2

  9
$PUCSORG
 10
0.0
 20
0.0
 30
0.0
  9
$PUCSXDIR
 10
1.0
 20
0.0
 30
0.0
  9
$PUCSYDIR
 10
0.0
 20
1.0
 30
0.0
  9
$PUCSORTHOREF
  2

  9
$PUCSORTHOVIEW
 70
     0
  9
$PUCSORGTOP
 10
0.0
 20
0.0
 30
0.0
  9
$PUCSORGBOTTOM
 10
0.0
 20
0.0
 30
0.0
  9
$PUCSORGLEFT
 10
0.0
 20
0.0
 30
0.0
  9
$PUCSORGRIGHT
 10
0.0
 20
0.0
 30
0.0
  9
$PUCSORGFRONT
 10
0.0
 20
0.0
 30
0.0
  9
$PUCSORGBACK
 10
0.0
 20
0.0
 30
0.0
  9
$USERI1
 70
     0
  9
$USERI2
 70
     0
  9
$USERI3
 70
     0
  9
$USERI4
 70
     0
  9
$USERI5
 70
     0
  9
$USERR1
 40
3.0
  9
$USERR2
 40
1.0
  9
$USERR3
 40
1.0
  9
$USERR4
 40
0.0
  9
$USERR5
 40
0.0
  9
$WORLDVIEW
 70
     1
  9
$SHADEDGE
 70
     3
  9
$SHADEDIF
 70
    70
  9
$TILEMODE
 70
     1
  9
$MAXACTVP
 70
    64
  9
$PINSBASE
 10
0.0
 20
0.0
 30
0.0
  9
$PLIMCHECK
 70
     0
  9
$PEXTMIN
 10
0.0
 20
0.0
 30
0.0
  9
$PEXTMAX
 10
420.0
 20
297.0
 30
0.0
  9
$PLIMMIN
 10
-12.74318078855802
 20
-6.351582024086956
  9
$PLIMMAX
 10
432.7567981061398
 20
308.6868943834866
  9
$UNITMODE
 70
     0
  9
$VISRETAIN
 70
     1
  9
$PLINEGEN
 70
     0
  9
$PSLTSCALE
 70
     1
  9
$TREEDEPTH
 70
  3020
  9
$CMLSTYLE
  2
Standard
  9
$CMLJUST
 70
     0
  9
$CMLSCALE
 40
20.0
  9
$PROXYGRAPHICS
 70
     1
  9
$MEASUREMENT
 70
     1
  9
$CELWEIGHT
370
    -1
  9
$ENDCAPS
280
     0
  9
$JOINSTYLE
280
     0
  9
$LWDISPLAY
290
     0
  9
$INSUNITS
 70
     4
  9
$HYPERLINKBASE
  1

  9
$STYLESHEET
  1

  9
$XEDIT
290
     1
  9
$CEPSNTYPE
380
     0
  9
$PSTYLEMODE
290
     1
  9
$FINGERPRINTGUID
  2
{E6FFC3F2-70B4-4732-BDD3-06AAED10F260}
  9
$VERSIONGUID
  2
{200A18E3-3B89-46DF-B443-750264B9F132}
  9
$EXTNAMES
290
     1
  9
$PSVPSCALE
 40
0.0
  9
$OLESTARTUP
290
     0
  0
ENDSEC
  0
SECTION
  2
CLASSES
  0
CLASS
  1
ACDBDICTIONARYWDFLT
  2
AcDbDictionaryWithDefault
  3
ObjectDBX Classes
 90
        0
280
     0
281
     0
  0
CLASS
  1
ACDBPLACEHOLDER
  2
AcDbPlaceHolder
  3
ObjectDBX Classes
 90
        0
280
     0
281
     0
  0
CLASS
  1
LAYOUT
  2
AcDbLayout
  3
ObjectDBX Classes
 90
        0
280
     0
281
     0
  0
CLASS
  1
DICTIONARYVAR
  2
AcDbDictionaryVar
  3
ObjectDBX Classes
 90
        0
280
     0
281
     0
  0
CLASS
  1
DIMASSOC
  2
AcDbDimAssoc
  3
"AcDbDimAssoc|Product Desc:     AcDim ARX App For Dimension|Company:          Autodesk, Inc.|WEB Address:      www.autodesk.com"
 90
        0
280
     0
281
     0
  0
ENDSEC
  0
SECTION
  2
TABLES
  0
TABLE
  2
VPORT
  5
19
330
0
100
AcDbSymbolTable
 70
     2
  0
VPORT
  5
EF9
330
19
100
AcDbSymbolTableRecord
100
AcDbViewportTableRecord
  2
*Active
 70
     0
 10
0.0
 20
0.0
 11
1.0
 21
1.0
 12
60.42044277462619
 22
98.39434454332518
 13
0.0
 23
0.0
 14
10.0
 24
10.0
 15
10.0
 25
10.0
 16
0.0
 26
0.0
 36
1.0
 17
0.0
 27
0.0
 37
0.0
 40
262.4375904000768
 41
1.679867986798679
 42
50.0
 43
0.0
 44
0.0
 50
0.0
 51
0.0
 71
     0
 72
   100
 73
     1
 74
     3
 75
     0
 76
     0
 77
     0
 78
     2
281
     0
 65
     1
110
0.0
120
0.0
130
0.0
111
1.0
121
0.0
131
0.0
112
0.0
122
1.0
132
0.0
 79
     0
146
0.0
  0
ENDTAB
  0
TABLE
  2
LTYPE
  5
14
330
0
100
AcDbSymbolTable
 70
     3
  0
LTYPE
  5
15
330
14
100
AcDbSymbolTableRecord
100
AcDbLinetypeTableRecord
  2
ByBlock
 70
     0
  3

 72
    65
 73
     0
 40
0.0
  0
LTYPE
  5
16
330
14
100
AcDbSymbolTableRecord
100
AcDbLinetypeTableRecord
  2
ByLayer
 70
     0
  3

 72
    65
 73
     0
 40
0.0
  0
LTYPE
  5
8
330
14
100
AcDbSymbolTableRecord
100
AcDbLinetypeTableRecord
  2
Continuous
 70
     0
  3
Solid line
 72
    65
 73
     0
 40
0.0
  0
LTYPE
  5
67
330
14
100
AcDbSymbolTableRecord
100
AcDbLinetypeTableRecord
  2
ACAD_ISO04W100
 70
     0
  3
ISO Lang gestrichelt punktiert ____ . ____ . __
 72
    65
 73
     4
 40
30.0
 49
24.0
 74
     0
 49
-3.0
 74
     0
 49
0.0
 74
     0
 49
-3.0
 74
     0
  0
LTYPE
  5
81
330
14
100
AcDbSymbolTableRecord
100
AcDbLinetypeTableRecord
  2
VERDECKT
 70
     0
  3
Verdeckt __ __ __ __ __ __ __ __ __ __ __ __ __
 72
    65
 73
     2
 40
9.524999999999998
 49
6.349999999999999
 74
     0
 49
-3.174999999999999
 74
     0
  0
ENDTAB
  0
TABLE
  2
LAYER
  5
10
330
0
100
AcDbSymbolTable
 70
     5
  0
LAYER
  5
4
330
10
100
AcDbSymbolTableRecord
100
AcDbLayerTableRecord
  2
0
 70
     0
 62
     7
  6
Continuous
370
    -3
390
5
  0
LAYER
  5
30
330
10
100
AcDbSymbolTableRecord
100
AcDbLayerTableRecord
  2
Defpoints
 70
     0
 62
     7
  6
Continuous
290
     0
370
    -3
390
5
  0
LAYER
  5
25
330
10
100
AcDbSymbolTableRecord
100
AcDbLayerTableRecord
  2
BEM
 70
     0
 62
     3
  6
Continuous
370
    -3
390
5
  0
LAYER
  5
80
330
10
100
AcDbSymbolTableRecord
100
AcDbLayerTableRecord
  2
ver1
 70
     0
 62
     8
  6
VERDECKT
370
    -3
390
5
  0
LAYER
  5
66
330
10
100
AcDbSymbolTableRecord
100
AcDbLayerTableRecord
  2
sym1
 70
     0
 62
     6
  6
ACAD_ISO04W100
370
    -3
390
5
  0
ENDTAB
  0
TABLE
  2
STYLE
  5
11
330
0
100
AcDbSymbolTable
 70
     2
  0
STYLE
  5
12
330
11
100
AcDbSymbolTableRecord
100
AcDbTextStyleTableRecord
  2
Standard
 70
     0
 40
0.0
 41
1.0
 50
0.0
 71
     0
 42
2.5
  3
txt
  4

  0
STYLE
  5
1F
330
11
100
AcDbSymbolTableRecord
100
AcDbTextStyleTableRecord
  2
ROMANS
 70
     0
 40
0.0
 41
1.0
 50
0.0
 71
     0
 42
3.5
  3
C:\ACAD13\COM\FONTS\ROMANS.SHX
  4

  0
ENDTAB
  0
TABLE
  2
VIEW
  5
17
330
0
100
AcDbSymbolTable
 70
     0
  0
ENDTAB
  0
TABLE
  2
UCS
  5
18
330
0
100
AcDbSymbolTable
 70
     0
  0
ENDTAB
  0
TABLE
  2
APPID
  5
1B
330
0
100
AcDbSymbolTable
 70
     1
  0
APPID
  5
1C
330
1B
100
AcDbSymbolTableRecord
100
AcDbRegAppTableRecord
  2
ACAD
 70
     0
  0
ENDTAB
  0
TABLE
  2
DIMSTYLE
  5
1D
330
0
100
AcDbSymbolTable
 70
     2
100
AcDbDimStyleTable
 71
     2
340
1E
340
20
  0
DIMSTYLE
105
20
330
1D
100
AcDbSymbolTableRecord
100
AcDbDimStyleTableRecord
  2
ISO-25
 70
     0
 41
2.5
 42
0.625
 43
3.75
 44
1.25
 73
     0
 74
     0
 77
     1
 78
     8
140
2.5
141
2.5
143
0.03937007874016
147
0.625
171
     3
172
     1
271
     2
272
     2
274
     3
278
    44
283
     0
284
     8
340
12
  0
DIMSTYLE
105
1E
102
{ACAD_REACTORS
330
84
330
C1
330
12C
330
FD
330
179
330
44
330
69
330
198
330
119
330
16A
330
B1
330
D9
330
35
330
27
330
139
330
15B
330
51
330
188
330
1A5
330
819
330
ACA
330
ADA
330
B9F
330
BBF
330
BCF
330
CFB
102
}
330
1D
100
AcDbSymbolTableRecord
100
AcDbDimStyleTableRecord
  2
1zu1
 70
     0
 41
3.5
 42
0.0
 43
10.0
 44
2.0
 48
0.000000001
 73
     0
 74
     0
 77
     1
 78
     8
 79
     2
140
3.5
141
1.5
146
0.7
147
1.5
172
     1
176
   256
177
   256
178
     7
179
     2
271
     2
272
     2
284
     8
340
1F
371
    -1
372
    -1
  0
ENDTAB
  0
TABLE
  2
BLOCK_RECORD
  5
1
330
0
100
AcDbSymbolTable
 70
    26
  0
BLOCK_RECORD
  5
2
330
1
100
AcDbSymbolTableRecord
100
AcDbBlockTableRecord
  2
*Model_Space
340
A
  0
BLOCK_RECORD
  5
C
330
1
100
AcDbSymbolTableRecord
100
AcDbBlockTableRecord
  2
*Paper_Space
340
F
  0
BLOCK_RECORD
  5
1D2
330
1
100
AcDbSymbolTableRecord
100
AcDbBlockTableRecord
  2
*D0
340
0
  0
BLOCK_RECORD
  5
1E0
330
1
100
AcDbSymbolTableRecord
100
AcDbBlockTableRecord
  2
*D1
340
0
  0
BLOCK_RECORD
  5
20F
330
1
100
AcDbSymbolTableRecord
100
AcDbBlockTableRecord
  2
*D2
340
0
  0
BLOCK_RECORD
  5
218
330
1
100
AcDbSymbolTableRecord
100
AcDbBlockTableRecord
  2
*D3
340
0
  0
BLOCK_RECORD
  5
224
330
1
100
AcDbSymbolTableRecord
100
AcDbBlockTableRecord
  2
*D4
340
0
  0
BLOCK_RECORD
  5
232
330
1
100
AcDbSymbolTableRecord
100
AcDbBlockTableRecord
  2
*D5
340
0
  0
BLOCK_RECORD
  5
24C
330
1
100
AcDbSymbolTableRecord
100
AcDbBlockTableRecord
  2
*D6
340
0
  0
BLOCK_RECORD
  5
258
330
1
100
AcDbSymbolTableRecord
100
AcDbBlockTableRecord
  2
*D7
340
0
  0
BLOCK_RECORD
  5
296
330
1
100
AcDbSymbolTableRecord
100
AcDbBlockTableRecord
  2
*D8
340
0
  0
BLOCK_RECORD
  5
2A2
330
1
100
AcDbSymbolTableRecord
100
AcDbBlockTableRecord
  2
*D9
340
0
  0
BLOCK_RECORD
  5
2C6
330
1
100
AcDbSymbolTableRecord
100
AcDbBlockTableRecord
  2
*D10
340
0
  0
BLOCK_RECORD
  5
2ED
330
1
100
AcDbSymbolTableRecord
100
AcDbBlockTableRecord
  2
*D11
340
0
  0
BLOCK_RECORD
  5
2F6
330
1
100
AcDbSymbolTableRecord
100
AcDbBlockTableRecord
  2
*D12
340
0
  0
BLOCK_RECORD
  5
302
330
1
100
AcDbSymbolTableRecord
100
AcDbBlockTableRecord
  2
*D13
340
0
  0
BLOCK_RECORD
  5
30E
330
1
100
AcDbSymbolTableRecord
100
AcDbBlockTableRecord
  2
*D14
340
0
  0
BLOCK_RECORD
  5
31A
330
1
100
AcDbSymbolTableRecord
100
AcDbBlockTableRecord
  2
*D15
340
0
  0
BLOCK_RECORD
  5
332
330
1
100
AcDbSymbolTableRecord
100
AcDbBlockTableRecord
  2
*D16
340
0
  0
BLOCK_RECORD
  5
477
330
1
100
AcDbSymbolTableRecord
100
AcDbBlockTableRecord
  2
*D17
340
0
  0
BLOCK_RECORD
  5
4C8
330
1
100
AcDbSymbolTableRecord
100
AcDbBlockTableRecord
  2
*D18
340
0
  0
BLOCK_RECORD
  5
81A
330
1
100
AcDbSymbolTableRecord
100
AcDbBlockTableRecord
  2
*D19
340
0
  0
BLOCK_RECORD
  5
ACB
330
1
100
AcDbSymbolTableRecord
100
AcDbBlockTableRecord
  2
*D20
340
0
  0
BLOCK_RECORD
  5
ADB
330
1
100
AcDbSymbolTableRecord
100
AcDbBlockTableRecord
  2
*D21
340
0
  0
BLOCK_RECORD
  5
BA0
330
1
100
AcDbSymbolTableRecord
100
AcDbBlockTableRecord
  2
*D22
340
0
  0
BLOCK_RECORD
  5
BC0
330
1
100
AcDbSymbolTableRecord
100
AcDbBlockTableRecord
  2
*D23
340
0
  0
BLOCK_RECORD
  5
BD0
330
1
100
AcDbSymbolTableRecord
100
AcDbBlockTableRecord
  2
*D24
340
0
  0
BLOCK_RECORD
  5
CFC
330
1
100
AcDbSymbolTableRecord
100
AcDbBlockTableRecord
  2
*D25
340
0
  0
ENDTAB
  0
ENDSEC
  0
SECTION
  2
BLOCKS
  0
BLOCK
  5
3
330
2
100
AcDbEntity
  8
0
100
AcDbBlockBegin
  2
*Model_Space
 70
     0
 10
0.0
 20
0.0
 30
0.0
  3
*Model_Space
  1

  0
ENDBLK
  5
9
330
2
100
AcDbEntity
  8
0
100
AcDbBlockEnd
  0
BLOCK
  5
D
330
C
100
AcDbEntity
 67
     1
  8
0
100
AcDbBlockBegin
  2
*Paper_Space
 70
     0
 10
0.0
 20
0.0
 30
0.0
  3
*Paper_Space
  1

  0
ENDBLK
  5
E
330
C
100
AcDbEntity
 67
     1
  8
0
100
AcDbBlockEnd
  0
BLOCK
  5
1DE
330
1D2
100
AcDbEntity
  8
0
100
AcDbBlockBegin
  2
*D0
 70
     1
 10
0.0
 20
0.0
 30
0.0
  3
*D0
  1

  0
LINE
  5
D79
330
1D2
100
AcDbEntity
  8
BEM
100
AcDbLine
 10
36.49999999999991
 20
111.5
 30
0.0
 11
36.49999999999991
 21
95.38496904483224
 31
0.0
  0
LINE
  5
D7A
330
1D2
100
AcDbEntity
  8
BEM
100
AcDbLine
 10
35.99999999999992
 20
111.5
 30
0.0
 11
35.99999999999992
 21
95.38496904483224
 31
0.0
  0
LINE
  5
D7B
330
1D2
100
AcDbEntity
  8
BEM
100
AcDbLine
 10
39.99999999999992
 20
97.38496904483225
 30
0.0
 11
43.49999999999991
 21
97.38496904483225
 31
0.0
  0
LINE
  5
D7C
330
1D2
100
AcDbEntity
  8
BEM
100
AcDbLine
 10
32.49999999999992
 20
97.38496904483225
 30
0.0
 11
-59.50000000000006
 21
97.38496904483225
 31
0.0
  0
LINE
  5
D7D
330
1D2
100
AcDbEntity
  8
BEM
100
AcDbLine
 10
36.49999999999991
 20
97.38496904483225
 30
0.0
 11
35.99999999999992
 21
97.38496904483225
 31
0.0
  0
SOLID
  5
D7E
330
1D2
100
AcDbEntity
  8
BEM
100
AcDbTrace
 10
39.99999999999992
 20
97.96830237816557
 30
0.0
 11
39.99999999999992
 21
96.80163571149892
 31
0.0
 12
36.49999999999991
 22
97.38496904483225
 32
0.0
 13
36.49999999999991
 23
97.38496904483225
 33
0.0
  0
SOLID
  5
D7F
330
1D2
100
AcDbEntity
  8
BEM
100
AcDbTrace
 10
32.49999999999992
 20
97.96830237816557
 30
0.0
 11
32.49999999999992
 21
96.80163571149892
 31
0.0
 12
35.99999999999992
 22
97.38496904483225
 32
0.0
 13
35.99999999999992
 23
97.38496904483225
 33
0.0
  0
MTEXT
  5
D80
330
1D2
100
AcDbEntity
  8
BEM
 62
     7
100
AcDbMText
 10
-17.75000000000007
 20
101.5516357114989
 30
0.0
 40
3.5
 41
0.0
 71
     5
 72
     1
  1
\A1;Fase / Chamfer 0.5\C7;\H3.5;x45° (4x)
  7
ROMANS
 73
     1
 44
1.0
1001
ACAD
1000
MTEXTBEGIN
1070
    73
1070
     1
1070
    44
1040
1.0
1070
    74
1070
     0
1000
MTEXTEND
  0
POINT
  5
D81
330
1D2
100
AcDbEntity
  8
Defpoints
 62
     0
100
AcDbPoint
 10
36.49999999999991
 20
111.5
 30
0.0
  0
POINT
  5
D82
330
1D2
100
AcDbEntity
  8
Defpoints
 62
     0
100
AcDbPoint
 10
35.99999999999992
 20
111.5
 30
0.0
  0
POINT
  5
D83
330
1D2
100
AcDbEntity
  8
Defpoints
 62
     0
100
AcDbPoint
 10
35.99999999999992
 20
97.38496904483225
 30
0.0
  0
ENDBLK
  5
1DF
330
1D2
100
AcDbEntity
  8
0
100
AcDbBlockEnd
  0
BLOCK
  5
1EA
330
1E0
100
AcDbEntity
  8
0
100
AcDbBlockBegin
  2
*D1
 70
     1
 10
0.0
 20
0.0
 30
0.0
  3
*D1
  1

  0
LINE
  5
D5E
330
1E0
100
AcDbEntity
  8
BEM
100
AcDbLine
 10
16.03982616914888
 20
161.3309606755152
 30
0.0
 11
25.53982616914892
 21
161.3309606755152
 31
0.0
  0
LINE
  5
D5F
330
1E0
100
AcDbEntity
  8
BEM
100
AcDbLine
 10
25.53982616914892
 20
161.3309606755152
 30
0.0
 11
29.222786504387
 21
157.7077838244076
 31
0.0
  0
LINE
  5
D60
330
1E0
100
AcDbEntity
  8
BEM
100
AcDbLine
 10
37.77721349561284
 20
149.2922161755923
 30
0.0
 11
40.27225470138704
 21
146.8376756113545
 31
0.0
  0
MTEXT
  5
D61
330
1E0
100
AcDbEntity
  8
BEM
 62
     7
100
AcDbMText
 10
18.78982616914888
 20
164.5809606755152
 30
0.0
 40
3.5
 41
0.0
 71
     5
 72
     1
  1
\A1;%%c5\C7;\H3.5;
  7
ROMANS
 73
     1
 44
1.0
1001
ACAD
1000
MTEXTBEGIN
1070
    73
1070
     1
1070
    44
1040
1.0
1070
    74
1070
     0
1000
MTEXTEND
  0
LINE
  5
D62
330
1E0
100
AcDbEntity
  8
BEM
100
AcDbLine
 10
35.28217228983864
 20
151.7467567398301
 30
0.0
 11
31.7178277101612
 21
155.2532432601698
 31
0.0
  0
SOLID
  5
D63
330
1E0
100
AcDbEntity
  8
BEM
100
AcDbTrace
 10
38.18630358965247
 20
149.7080563765547
 30
0.0
 11
37.3681234015732
 21
148.87637597463
 31
0.0
 12
35.28217228983864
 22
151.7467567398301
 32
0.0
 13
35.28217228983864
 23
151.7467567398301
 33
0.0
  0
SOLID
  5
D64
330
1E0
100
AcDbEntity
  8
BEM
100
AcDbTrace
 10
29.63187659842663
 20
158.12362402537
 30
0.0
 11
28.81369641034736
 21
157.2919436234453
 31
0.0
 12
31.7178277101612
 22
155.2532432601698
 32
0.0
 13
31.7178277101612
 23
155.2532432601698
 33
0.0
  0
POINT
  5
D65
330
1E0
100
AcDbEntity
  8
Defpoints
 62
     0
100
AcDbPoint
 10
31.7178277101612
 20
155.2532432601698
 30
0.0
  0
POINT
  5
D66
330
1E0
100
AcDbEntity
  8
Defpoints
 62
     0
100
AcDbPoint
 10
35.28217228983864
 20
151.7467567398301
 30
0.0
  0
ENDBLK
  5
1EB
330
1E0
100
AcDbEntity
  8
0
100
AcDbBlockEnd
  0
BLOCK
  5
216
330
20F
100
AcDbEntity
  8
0
100
AcDbBlockBegin
  2
*D2
 70
     1
 10
0.0
 20
0.0
 30
0.0
  3
*D2
  1

  0
LINE
  5
E2D
330
20F
100
AcDbEntity
  8
BEM
100
AcDbLine
 10
73.18105174876095
 20
12.68665875883851
 30
0.0
 11
87.49873465743368
 21
22.15758271435352
 31
0.0
  0
MTEXT
  5
E2E
330
20F
100
AcDbEntity
  8
BEM
 62
     7
100
AcDbMText
 10
77.08728458490694
 20
19.16726748597667
 30
0.0
 40
3.5
 41
0.0
 71
     5
 72
     1
  1
\A1;R0.5
  7
ROMANS
 11
0.8340397810877277
 21
0.5517043080882505
 31
0.0
 73
     1
 44
1.0
1001
ACAD
1000
MTEXTBEGIN
1070
    73
1070
     1
1070
    44
1040
1.0
1070
    74
1070
     0
1000
MTEXTEND
  0
SOLID
  5
E2F
330
20F
100
AcDbEntity
  8
BEM
100
AcDbTrace
 10
87.17690714438219
 20
22.64410591998803
 30
0.0
 11
87.82056217048516
 21
21.67105950871901
 31
0.0
 12
90.41787389124072
 22
24.0885477926624
 32
0.0
 13
90.41787389124072
 23
24.0885477926624
 33
0.0
  0
POINT
  5
E30
330
20F
100
AcDbEntity
  8
Defpoints
 62
     0
100
AcDbPoint
 10
90.41787389124072
 20
24.0885477926624
 30
0.0
  0
POINT
  5
E31
330
20F
100
AcDbEntity
  8
Defpoints
 62
     0
100
AcDbPoint
 10
90.00085400069691
 20
23.81269563861831
 30
0.0
  0
ENDBLK
  5
217
330
20F
100
AcDbEntity
  8
0
100
AcDbBlockEnd
  0
BLOCK
  5
222
330
218
100
AcDbEntity
  8
0
100
AcDbBlockBegin
  2
*D3
 70
     1
 10
0.0
 20
0.0
 30
0.0
  3
*D3
  1

  0
LINE
  5
E3B
330
218
100
AcDbEntity
  8
BEM
100
AcDbLine
 10
133.4999999999999
 20
21.5
 30
0.0
 11
158.1610005550971
 21
21.49999999999999
 31
0.0
  0
LINE
  5
E3C
330
218
100
AcDbEntity
  8
BEM
100
AcDbLine
 10
133.4999999999999
 20
63.5
 30
0.0
 11
158.1610005550971
 21
63.49999999999999
 31
0.0
  0
LINE
  5
E3D
330
218
100
AcDbEntity
  8
BEM
100
AcDbLine
 10
156.1610005550971
 20
25.0
 30
0.0
 11
156.1610005550971
 21
60.0
 31
0.0
  0
SOLID
  5
E3E
330
218
100
AcDbEntity
  8
BEM
100
AcDbTrace
 10
155.5776672217637
 20
25.0
 30
0.0
 11
156.7443338884304
 21
25.0
 31
0.0
 12
156.1610005550971
 22
21.49999999999999
 32
0.0
 13
156.1610005550971
 23
21.49999999999999
 33
0.0
  0
SOLID
  5
E3F
330
218
100
AcDbEntity
  8
BEM
100
AcDbTrace
 10
155.5776672217637
 20
60.0
 30
0.0
 11
156.7443338884304
 21
60.0
 31
0.0
 12
156.1610005550971
 22
63.49999999999999
 32
0.0
 13
156.1610005550971
 23
63.49999999999999
 33
0.0
  0
MTEXT
  5
E40
330
218
100
AcDbEntity
  8
BEM
 62
     7
100
AcDbMText
 10
152.9110005550971
 20
42.50000000000002
 30
0.0
 40
3.5
 41
0.0
 71
     5
 72
     1
  1
\A1;42
  7
ROMANS
 11
0.0000000000000001
 21
1.0
 31
0.0
 73
     1
 44
1.0
1001
ACAD
1000
MTEXTBEGIN
1070
    73
1070
     1
1070
    44
1040
1.0
1070
    74
1070
     0
1000
MTEXTEND
  0
POINT
  5
E41
330
218
100
AcDbEntity
  8
Defpoints
 62
     0
100
AcDbPoint
 10
133.4999999999999
 20
21.5
 30
0.0
  0
POINT
  5
E42
330
218
100
AcDbEntity
  8
Defpoints
 62
     0
100
AcDbPoint
 10
133.4999999999999
 20
63.5
 30
0.0
  0
POINT
  5
E43
330
218
100
AcDbEntity
  8
Defpoints
 62
     0
100
AcDbPoint
 10
156.1610005550971
 20
63.49999999999999
 30
0.0
  0
ENDBLK
  5
223
330
218
100
AcDbEntity
  8
0
100
AcDbBlockEnd
  0
BLOCK
  5
230
330
224
100
AcDbEntity
  8
0
100
AcDbBlockBegin
  2
*D4
 70
     1
 10
0.0
 20
0.0
 30
0.0
  3
*D4
  1

  0
LINE
  5
DE4
330
224
100
AcDbEntity
  8
BEM
100
AcDbLine
 10
133.4999999999999
 20
69.25
 30
0.0
 11
158.1610005550969
 21
69.25
 31
0.0
  0
LINE
  5
DE5
330
224
100
AcDbEntity
  8
BEM
100
AcDbLine
 10
133.4999999999999
 20
63.5
 30
0.0
 11
158.1610005550969
 21
63.49999999999999
 31
0.0
  0
LINE
  5
DE6
330
224
100
AcDbEntity
  8
BEM
100
AcDbLine
 10
156.1610005550969
 20
60.0
 30
0.0
 11
156.1610005550969
 21
56.49999999999999
 31
0.0
  0
LINE
  5
DE7
330
224
100
AcDbEntity
  8
BEM
100
AcDbLine
 10
156.1610005550969
 20
72.75
 30
0.0
 11
156.1610005550969
 21
89.91666666666667
 31
0.0
  0
LINE
  5
DE8
330
224
100
AcDbEntity
  8
BEM
100
AcDbLine
 10
156.1610005550969
 20
63.49999999999999
 30
0.0
 11
156.1610005550969
 21
69.25
 31
0.0
  0
SOLID
  5
DE9
330
224
100
AcDbEntity
  8
BEM
100
AcDbTrace
 10
155.5776672217635
 20
60.0
 30
0.0
 11
156.7443338884302
 21
60.0
 31
0.0
 12
156.1610005550969
 22
63.49999999999999
 32
0.0
 13
156.1610005550969
 23
63.49999999999999
 33
0.0
  0
SOLID
  5
DEA
330
224
100
AcDbEntity
  8
BEM
100
AcDbTrace
 10
155.5776672217636
 20
72.75
 30
0.0
 11
156.7443338884302
 21
72.75
 31
0.0
 12
156.1610005550969
 22
69.25
 32
0.0
 13
156.1610005550969
 23
69.25
 33
0.0
  0
MTEXT
  5
DEB
330
224
100
AcDbEntity
  8
BEM
 62
     7
100
AcDbMText
 10
152.9110005550969
 20
83.08333333333335
 30
0.0
 40
3.5
 41
0.0
 71
     5
 72
     1
  1
\A1;5.75
  7
ROMANS
 11
0.0000000000000001
 21
1.0
 31
0.0
 73
     1
 44
1.0
1001
ACAD
1000
MTEXTBEGIN
1070
    73
1070
     1
1070
    44
1040
1.0
1070
    74
1070
     0
1000
MTEXTEND
  0
POINT
  5
DEC
330
224
100
AcDbEntity
  8
Defpoints
 62
     0
100
AcDbPoint
 10
133.4999999999999
 20
69.25
 30
0.0
  0
POINT
  5
DED
330
224
100
AcDbEntity
  8
Defpoints
 62
     0
100
AcDbPoint
 10
133.4999999999999
 20
63.5
 30
0.0
  0
POINT
  5
DEE
330
224
100
AcDbEntity
  8
Defpoints
 62
     0
100
AcDbPoint
 10
156.1610005550969
 20
63.49999999999999
 30
0.0
  0
ENDBLK
  5
231
330
224
100
AcDbEntity
  8
0
100
AcDbBlockEnd
  0
BLOCK
  5
23C
330
232
100
AcDbEntity
  8
0
100
AcDbBlockBegin
  2
*D5
 70
     1
 10
0.0
 20
0.0
 30
0.0
  3
*D5
  1

  0
LINE
  5
E56
330
232
100
AcDbEntity
  8
BEM
100
AcDbLine
 10
165.0542964797594
 20
8.972720159254095
 30
0.0
 11
153.0542964797594
 21
8.972720159254109
 31
0.0
  0
LINE
  5
E57
330
232
100
AcDbEntity
  8
BEM
100
AcDbLine
 10
153.0542964797594
 20
8.972720159254109
 30
0.0
 11
138.3416514470624
 21
18.39824061778518
 31
0.0
  0
LINE
  5
E58
330
232
100
AcDbEntity
  8
BEM
100
AcDbLine
 10
128.6583485529374
 20
24.60175938221482
 30
0.0
 11
125.711256367769
 21
26.48978683225862
 31
0.0
  0
MTEXT
  5
E59
330
232
100
AcDbEntity
  8
BEM
 62
     7
100
AcDbMText
 10
159.8042964797594
 20
12.22272015925408
 30
0.0
 40
3.5
 41
0.0
 71
     5
 72
     1
  1
\A1;%%c4.5\C7;\H3.5;
  7
ROMANS
 73
     1
 44
1.0
1001
ACAD
1000
MTEXTBEGIN
1070
    73
1070
     1
1070
    44
1040
1.0
1070
    74
1070
     0
1000
MTEXTEND
  0
LINE
  5
E5A
330
232
100
AcDbEntity
  8
BEM
100
AcDbLine
 10
131.6054407381059
 20
22.71373193217101
 30
0.0
 11
135.3945592618939
 21
20.28626806782899
 31
0.0
  0
SOLID
  5
E5B
330
232
100
AcDbEntity
  8
BEM
100
AcDbTrace
 10
128.9730197946114
 20
25.09294141307623
 30
0.0
 11
128.3436773112635
 21
24.11057735135341
 31
0.0
 12
131.6054407381059
 22
22.71373193217101
 32
0.0
 13
131.6054407381059
 23
22.71373193217101
 33
0.0
  0
SOLID
  5
E5C
330
232
100
AcDbEntity
  8
BEM
100
AcDbTrace
 10
138.6563226887364
 20
18.88942264864659
 30
0.0
 11
138.0269802053884
 21
17.90705858692377
 31
0.0
 12
135.3945592618939
 22
20.28626806782899
 32
0.0
 13
135.3945592618939
 23
20.28626806782899
 33
0.0
  0
POINT
  5
E5D
330
232
100
AcDbEntity
  8
Defpoints
 62
     0
100
AcDbPoint
 10
135.3945592618939
 20
20.28626806782899
 30
0.0
  0
POINT
  5
E5E
330
232
100
AcDbEntity
  8
Defpoints
 62
     0
100
AcDbPoint
 10
131.6054407381059
 20
22.71373193217101
 30
0.0
  0
ENDBLK
  5
23D
330
232
100
AcDbEntity
  8
0
100
AcDbBlockEnd
  0
BLOCK
  5
256
330
24C
100
AcDbEntity
  8
0
100
AcDbBlockBegin
  2
*D6
 70
     1
 10
0.0
 20
0.0
 30
0.0
  3
*D6
  1

  0
LINE
  5
DEF
330
24C
100
AcDbEntity
  8
BEM
100
AcDbLine
 10
112.8490381559732
 20
76.28845328076491
 30
0.0
 11
124.8490381559733
 21
76.28845328076491
 31
0.0
  0
LINE
  5
DF0
330
24C
100
AcDbEntity
  8
BEM
100
AcDbLine
 10
124.8490381559733
 20
76.28845328076491
 30
0.0
 11
128.1897486286347
 21
73.66698096622889
 31
0.0
  0
LINE
  5
DF1
330
24C
100
AcDbEntity
  8
BEM
100
AcDbLine
 10
138.8102513713653
 20
65.33301903377125
 30
0.0
 11
141.5637150454066
 21
63.17236223646744
 31
0.0
  0
MTEXT
  5
DF2
330
24C
100
AcDbEntity
  8
BEM
 62
     7
100
AcDbMText
 10
118.0990381559732
 20
79.53845328076491
 30
0.0
 40
3.5
 41
0.0
 71
     5
 72
     1
  1
\A1;%%c6.5\C7;\H3.5;
  7
ROMANS
 73
     1
 44
1.0
1001
ACAD
1000
MTEXTBEGIN
1070
    73
1070
     1
1070
    44
1040
1.0
1070
    74
1070
     0
1000
MTEXTEND
  0
LINE
  5
DF3
330
24C
100
AcDbEntity
  8
BEM
100
AcDbLine
 10
136.056787697324
 20
67.49367583107508
 30
0.0
 11
130.9432123026759
 21
71.50632416892507
 31
0.0
  0
SOLID
  5
DF4
330
24C
100
AcDbEntity
  8
BEM
100
AcDbTrace
 10
139.1703608375826
 20
65.79192964611147
 30
0.0
 11
138.450141905148
 21
64.87410842143103
 31
0.0
 12
136.056787697324
 22
67.49367583107508
 32
0.0
 13
136.056787697324
 23
67.49367583107508
 33
0.0
  0
SOLID
  5
DF5
330
24C
100
AcDbEntity
  8
BEM
100
AcDbTrace
 10
128.549858094852
 20
74.12589157856911
 30
0.0
 11
127.8296391624174
 21
73.20807035388867
 31
0.0
 12
130.9432123026759
 22
71.50632416892507
 32
0.0
 13
130.9432123026759
 23
71.50632416892507
 33
0.0
  0
POINT
  5
DF6
330
24C
100
AcDbEntity
  8
Defpoints
 62
     0
100
AcDbPoint
 10
130.9432123026759
 20
71.50632416892507
 30
0.0
  0
POINT
  5
DF7
330
24C
100
AcDbEntity
  8
Defpoints
 62
     0
100
AcDbPoint
 10
136.056787697324
 20
67.49367583107508
 30
0.0
  0
ENDBLK
  5
257
330
24C
100
AcDbEntity
  8
0
100
AcDbBlockEnd
  0
BLOCK
  5
262
330
258
100
AcDbEntity
  8
0
100
AcDbBlockBegin
  2
*D7
 70
     1
 10
0.0
 20
0.0
 30
0.0
  3
*D7
  1

  0
LINE
  5
E4D
330
258
100
AcDbEntity
  8
BEM
100
AcDbLine
 10
133.4999999999999
 20
21.5
 30
0.0
 11
133.4999999999999
 21
-4.613017757092393
 31
0.0
  0
LINE
  5
E4E
330
258
100
AcDbEntity
  8
BEM
100
AcDbLine
 10
91.49999999999993
 20
21.49999999999999
 30
0.0
 11
91.49999999999993
 21
-4.613017757092393
 31
0.0
  0
LINE
  5
E4F
330
258
100
AcDbEntity
  8
BEM
100
AcDbLine
 10
129.9999999999999
 20
-2.613017757092393
 30
0.0
 11
94.99999999999992
 21
-2.613017757092393
 31
0.0
  0
SOLID
  5
E50
330
258
100
AcDbEntity
  8
BEM
100
AcDbTrace
 10
129.9999999999999
 20
-2.02968442375906
 30
0.0
 11
129.9999999999999
 21
-3.196351090425726
 31
0.0
 12
133.4999999999999
 22
-2.613017757092393
 32
0.0
 13
133.4999999999999
 23
-2.613017757092393
 33
0.0
  0
SOLID
  5
E51
330
258
100
AcDbEntity
  8
BEM
100
AcDbTrace
 10
94.99999999999992
 20
-2.02968442375906
 30
0.0
 11
94.99999999999992
 21
-3.196351090425726
 31
0.0
 12
91.49999999999993
 22
-2.613017757092393
 32
0.0
 13
91.49999999999993
 23
-2.613017757092393
 33
0.0
  0
MTEXT
  5
E52
330
258
100
AcDbEntity
  8
BEM
 62
     7
100
AcDbMText
 10
112.4999999999999
 20
0.6369822429076067
 30
0.0
 40
3.5
 41
0.0
 71
     5
 72
     1
  1
\A1;42
  7
ROMANS
 73
     1
 44
1.0
1001
ACAD
1000
MTEXTBEGIN
1070
    73
1070
     1
1070
    44
1040
1.0
1070
    74
1070
     0
1000
MTEXTEND
  0
POINT
  5
E53
330
258
100
AcDbEntity
  8
Defpoints
 62
     0
100
AcDbPoint
 10
133.4999999999999
 20
21.5
 30
0.0
  0
POINT
  5
E54
330
258
100
AcDbEntity
  8
Defpoints
 62
     0
100
AcDbPoint
 10
91.49999999999993
 20
21.49999999999999
 30
0.0
  0
POINT
  5
E55
330
258
100
AcDbEntity
  8
Defpoints
 62
     0
100
AcDbPoint
 10
91.49999999999993
 20
-2.613017757092393
 30
0.0
  0
ENDBLK
  5
263
330
258
100
AcDbEntity
  8
0
100
AcDbBlockEnd
  0
BLOCK
  5
2A0
330
296
100
AcDbEntity
  8
0
100
AcDbBlockBegin
  2
*D8
 70
     1
 10
0.0
 20
0.0
 30
0.0
  3
*D8
  1

  0
LINE
  5
EB5
330
296
100
AcDbEntity
  8
BEM
100
AcDbLine
 10
91.49999999999991
 20
153.5
 30
0.0
 11
91.49999999999991
 21
176.1173929987187
 31
0.0
  0
LINE
  5
EB6
330
296
100
AcDbEntity
  8
BEM
100
AcDbLine
 10
133.4999999999999
 20
153.5
 30
0.0
 11
133.4999999999999
 21
176.1173929987187
 31
0.0
  0
LINE
  5
EB7
330
296
100
AcDbEntity
  8
BEM
100
AcDbLine
 10
94.99999999999991
 20
174.1173929987187
 30
0.0
 11
129.9999999999999
 21
174.1173929987187
 31
0.0
  0
SOLID
  5
EB8
330
296
100
AcDbEntity
  8
BEM
100
AcDbTrace
 10
94.99999999999991
 20
174.700726332052
 30
0.0
 11
94.99999999999991
 21
173.5340596653853
 31
0.0
 12
91.49999999999991
 22
174.1173929987187
 32
0.0
 13
91.49999999999991
 23
174.1173929987187
 33
0.0
  0
SOLID
  5
EB9
330
296
100
AcDbEntity
  8
BEM
100
AcDbTrace
 10
129.9999999999999
 20
174.700726332052
 30
0.0
 11
129.9999999999999
 21
173.5340596653853
 31
0.0
 12
133.4999999999999
 22
174.1173929987187
 32
0.0
 13
133.4999999999999
 23
174.1173929987187
 33
0.0
  0
MTEXT
  5
EBA
330
296
100
AcDbEntity
  8
BEM
 62
     7
100
AcDbMText
 10
112.4999999999999
 20
177.3673929987187
 30
0.0
 40
3.5
 41
0.0
 71
     5
 72
     1
  1
\A1;42
  7
ROMANS
 73
     1
 44
1.0
1001
ACAD
1000
MTEXTBEGIN
1070
    73
1070
     1
1070
    44
1040
1.0
1070
    74
1070
     0
1000
MTEXTEND
  0
POINT
  5
EBB
330
296
100
AcDbEntity
  8
Defpoints
 62
     0
100
AcDbPoint
 10
91.49999999999991
 20
153.5
 30
0.0
  0
POINT
  5
EBC
330
296
100
AcDbEntity
  8
Defpoints
 62
     0
100
AcDbPoint
 10
133.4999999999999
 20
153.5
 30
0.0
  0
POINT
  5
EBD
330
296
100
AcDbEntity
  8
Defpoints
 62
     0
100
AcDbPoint
 10
133.4999999999999
 20
174.1173929987187
 30
0.0
  0
ENDBLK
  5
2A1
330
296
100
AcDbEntity
  8
0
100
AcDbBlockEnd
  0
BLOCK
  5
2AC
330
2A2
100
AcDbEntity
  8
0
100
AcDbBlockBegin
  2
*D9
 70
     1
 10
0.0
 20
0.0
 30
0.0
  3
*D9
  1

  0
LINE
  5
ED1
330
2A2
100
AcDbEntity
  8
BEM
100
AcDbLine
 10
133.4999999999999
 20
111.5
 30
0.0
 11
158.1610005550969
 21
111.5
 31
0.0
  0
LINE
  5
ED2
330
2A2
100
AcDbEntity
  8
BEM
100
AcDbLine
 10
133.4999999999999
 20
153.5
 30
0.0
 11
158.1610005550969
 21
153.5
 31
0.0
  0
LINE
  5
ED3
330
2A2
100
AcDbEntity
  8
BEM
100
AcDbLine
 10
156.1610005550969
 20
115.0
 30
0.0
 11
156.1610005550969
 21
150.0
 31
0.0
  0
SOLID
  5
ED4
330
2A2
100
AcDbEntity
  8
BEM
100
AcDbTrace
 10
155.5776672217636
 20
115.0
 30
0.0
 11
156.7443338884303
 21
115.0
 31
0.0
 12
156.1610005550969
 22
111.5
 32
0.0
 13
156.1610005550969
 23
111.5
 33
0.0
  0
SOLID
  5
ED5
330
2A2
100
AcDbEntity
  8
BEM
100
AcDbTrace
 10
155.5776672217636
 20
150.0
 30
0.0
 11
156.7443338884303
 21
150.0
 31
0.0
 12
156.1610005550969
 22
153.5
 32
0.0
 13
156.1610005550969
 23
153.5
 33
0.0
  0
MTEXT
  5
ED6
330
2A2
100
AcDbEntity
  8
BEM
 62
     7
100
AcDbMText
 10
152.9110005550969
 20
132.5
 30
0.0
 40
3.5
 41
0.0
 71
     5
 72
     1
  1
\A1;42
  7
ROMANS
 11
0.0000000000000001
 21
1.0
 31
0.0
 73
     1
 44
1.0
1001
ACAD
1000
MTEXTBEGIN
1070
    73
1070
     1
1070
    44
1040
1.0
1070
    74
1070
     0
1000
MTEXTEND
  0
POINT
  5
ED7
330
2A2
100
AcDbEntity
  8
Defpoints
 62
     0
100
AcDbPoint
 10
133.4999999999999
 20
111.5
 30
0.0
  0
POINT
  5
ED8
330
2A2
100
AcDbEntity
  8
Defpoints
 62
     0
100
AcDbPoint
 10
133.4999999999999
 20
153.5
 30
0.0
  0
POINT
  5
ED9
330
2A2
100
AcDbEntity
  8
Defpoints
 62
     0
100
AcDbPoint
 10
156.1610005550969
 20
153.5
 30
0.0
  0
ENDBLK
  5
2AD
330
2A2
100
AcDbEntity
  8
0
100
AcDbBlockEnd
  0
BLOCK
  5
2D0
330
2C6
100
AcDbEntity
  8
0
100
AcDbBlockBegin
  2
*D10
 70
     1
 10
0.0
 20
0.0
 30
0.0
  3
*D10
  1

  0
LINE
  5
EC7
330
2C6
100
AcDbEntity
  8
BEM
100
AcDbLine
 10
115.1402754723108
 20
160.2168745657418
 30
0.0
 11
127.1402754723108
 21
160.2168745657418
 31
0.0
  0
LINE
  5
EC8
330
2C6
100
AcDbEntity
  8
BEM
100
AcDbLine
 10
127.1402754723108
 20
160.2168745657418
 30
0.0
 11
129.546657726031
 21
157.6753544597854
 31
0.0
  0
LINE
  5
EC9
330
2C6
100
AcDbEntity
  8
BEM
100
AcDbLine
 10
137.4533422739689
 20
149.3246455402146
 30
0.0
 11
139.8597245276891
 21
146.7831254342582
 31
0.0
  0
MTEXT
  5
ECA
330
2C6
100
AcDbEntity
  8
BEM
 62
     7
100
AcDbMText
 10
120.3902754723108
 20
163.4668745657418
 30
0.0
 40
3.5
 41
0.0
 71
     5
 72
     1
  1
\A1;%%c4.5\C7;\H3.5;
  7
ROMANS
 73
     1
 44
1.0
1001
ACAD
1000
MTEXTBEGIN
1070
    73
1070
     1
1070
    44
1040
1.0
1070
    74
1070
     0
1000
MTEXTEND
  0
LINE
  5
ECB
330
2C6
100
AcDbEntity
  8
BEM
100
AcDbLine
 10
135.0469600202487
 20
151.8661656461709
 30
0.0
 11
131.9530399797512
 21
155.1338343538291
 31
0.0
  0
SOLID
  5
ECC
330
2C6
100
AcDbEntity
  8
BEM
100
AcDbTrace
 10
137.876928958295
 20
149.7257092491679
 30
0.0
 11
137.0297555896428
 21
148.9235818312612
 31
0.0
 12
135.0469600202487
 22
151.8661656461709
 32
0.0
 13
135.0469600202487
 23
151.8661656461709
 33
0.0
  0
SOLID
  5
ECD
330
2C6
100
AcDbEntity
  8
BEM
100
AcDbTrace
 10
129.9702444103571
 20
158.0764181687388
 30
0.0
 11
129.123071041705
 21
157.274290750832
 31
0.0
 12
131.9530399797512
 22
155.1338343538291
 32
0.0
 13
131.9530399797512
 23
155.1338343538291
 33
0.0
  0
POINT
  5
ECE
330
2C6
100
AcDbEntity
  8
Defpoints
 62
     0
100
AcDbPoint
 10
131.9530399797512
 20
155.1338343538291
 30
0.0
  0
POINT
  5
ECF
330
2C6
100
AcDbEntity
  8
Defpoints
 62
     0
100
AcDbPoint
 10
135.0469600202487
 20
151.8661656461709
 30
0.0
  0
ENDBLK
  5
2D1
330
2C6
100
AcDbEntity
  8
0
100
AcDbBlockEnd
  0
BLOCK
  5
2F4
330
2ED
100
AcDbEntity
  8
0
100
AcDbBlockBegin
  2
*D11
 70
     1
 10
0.0
 20
0.0
 30
0.0
  3
*D11
  1

  0
LINE
  5
D9C
330
2ED
100
AcDbEntity
  8
BEM
100
AcDbLine
 10
-29.46517867509776
 20
70.99380590968031
 30
0.0
 11
-17.29851200843108
 21
70.99380590968031
 31
0.0
  0
LINE
  5
D9D
330
2ED
100
AcDbEntity
  8
BEM
100
AcDbLine
 10
-17.29851200843108
 20
70.99380590968031
 30
0.0
 11
-10.30517737690415
 21
67.46070746081412
 31
0.0
  0
MTEXT
  5
D9E
330
2ED
100
AcDbEntity
  8
BEM
 62
     7
100
AcDbMText
 10
-24.13184534176441
 20
74.24380590968033
 30
0.0
 40
3.5
 41
0.0
 71
     5
 72
     1
  1
\A1;R0.5\C7;\H3.5;
  7
ROMANS
 73
     1
 44
1.0
1001
ACAD
1000
MTEXTBEGIN
1070
    73
1070
     1
1070
    44
1040
1.0
1070
    74
1070
     0
1000
MTEXTEND
  0
SOLID
  5
D9F
330
2ED
100
AcDbEntity
  8
BEM
100
AcDbTrace
 10
-10.04213517231722
 20
67.9813672118837
 30
0.0
 11
-10.56821958149108
 21
66.94004770974456
 31
0.0
 12
-7.181218870486727
 22
65.88245423329256
 32
0.0
 13
-7.181218870486727
 23
65.88245423329256
 33
0.0
  0
POINT
  5
DA0
330
2ED
100
AcDbEntity
  8
Defpoints
 62
     0
100
AcDbPoint
 10
-7.181218870486727
 20
65.88245423329256
 30
0.0
  0
POINT
  5
DA1
330
2ED
100
AcDbEntity
  8
Defpoints
 62
     0
100
AcDbPoint
 10
-7.627498657117801
 20
66.10791898008137
 30
0.0
  0
ENDBLK
  5
2F5
330
2ED
100
AcDbEntity
  8
0
100
AcDbBlockEnd
  0
BLOCK
  5
300
330
2F6
100
AcDbEntity
  8
0
100
AcDbBlockBegin
  2
*D12
 70
     1
 10
0.0
 20
0.0
 30
0.0
  3
*D12
  1

  0
LINE
  5
D8A
330
2F6
100
AcDbEntity
  8
BEM
100
AcDbLine
 10
-26.01985820043768
 20
78.34748288344016
 30
0.0
 11
-14.01985820043764
 21
78.34748288344016
 31
0.0
  0
LINE
  5
D8B
330
2F6
100
AcDbEntity
  8
BEM
100
AcDbLine
 10
-14.01985820043764
 20
78.34748288344016
 30
0.0
 11
-8.348762111976043
 21
72.09549679725859
 31
0.0
  0
LINE
  5
D8C
330
2F6
100
AcDbEntity
  8
BEM
100
AcDbLine
 10
0.721345114006148
 20
62.09633908727202
 30
0.0
 11
3.072854394816356
 21
59.50396486616437
 31
0.0
  0
MTEXT
  5
D8D
330
2F6
100
AcDbEntity
  8
BEM
 62
     7
100
AcDbMText
 10
-20.76985820043768
 20
81.59748288344017
 30
0.0
 40
3.5
 41
0.0
 71
     5
 72
     1
  1
\A1;%%c6.5\C7;\H3.5;
  7
ROMANS
 73
     1
 44
1.0
1001
ACAD
1000
MTEXTBEGIN
1070
    73
1070
     1
1070
    44
1040
1.0
1070
    74
1070
     0
1000
MTEXTEND
  0
LINE
  5
D8E
330
2F6
100
AcDbEntity
  8
BEM
100
AcDbLine
 10
-1.630164166804057
 20
64.68871330837965
 30
0.0
 11
-5.99725283116583
 21
69.50312257615095
 31
0.0
  0
SOLID
  5
D8F
330
2F6
100
AcDbEntity
  8
BEM
100
AcDbTrace
 10
1.153407484190758
 20
62.48825730074038
 30
0.0
 11
0.2892827438215413
 21
61.70442087380364
 31
0.0
 12
-1.630164166804057
 22
64.68871330837965
 32
0.0
 13
-1.630164166804057
 23
64.68871330837965
 33
0.0
  0
SOLID
  5
D90
330
2F6
100
AcDbEntity
  8
BEM
100
AcDbTrace
 10
-7.916699741791433
 20
72.48741501072696
 30
0.0
 11
-8.78082448216065
 21
71.70357858379023
 31
0.0
 12
-5.99725283116583
 22
69.50312257615095
 32
0.0
 13
-5.99725283116583
 23
69.50312257615095
 33
0.0
  0
POINT
  5
D91
330
2F6
100
AcDbEntity
  8
Defpoints
 62
     0
100
AcDbPoint
 10
-5.99725283116583
 20
69.50312257615095
 30
0.0
  0
POINT
  5
D92
330
2F6
100
AcDbEntity
  8
Defpoints
 62
     0
100
AcDbPoint
 10
-1.630164166804057
 20
64.68871330837965
 30
0.0
  0
ENDBLK
  5
301
330
2F6
100
AcDbEntity
  8
0
100
AcDbBlockEnd
  0
BLOCK
  5
30C
330
302
100
AcDbEntity
  8
0
100
AcDbBlockBegin
  2
*D13
 70
     1
 10
0.0
 20
0.0
 30
0.0
  3
*D13
  1

  0
LINE
  5
DA2
330
302
100
AcDbEntity
  8
BEM
100
AcDbLine
 10
-34.85089464549115
 20
8.635623155293851
 30
0.0
 11
-22.85089464549115
 21
8.635623155293849
 31
0.0
  0
LINE
  5
DA3
330
302
100
AcDbEntity
  8
BEM
100
AcDbLine
 10
-22.85089464549115
 20
8.635623155293849
 30
0.0
 11
-12.78156232203281
 21
17.66193745718636
 31
0.0
  0
LINE
  5
DA4
330
302
100
AcDbEntity
  8
BEM
100
AcDbLine
 10
-4.21843767796734
 20
25.33806254281366
 30
0.0
 11
-1.612269308034353
 21
27.6742745253959
 31
0.0
  0
MTEXT
  5
DA5
330
302
100
AcDbEntity
  8
BEM
 62
     7
100
AcDbMText
 10
-29.60089464549115
 20
11.88562315529384
 30
0.0
 40
3.5
 41
0.0
 71
     5
 72
     1
  1
\A1;%%c4.5\C7;\H3.5;
  7
ROMANS
 73
     1
 44
1.0
1001
ACAD
1000
MTEXTBEGIN
1070
    73
1070
     1
1070
    44
1040
1.0
1070
    74
1070
     0
1000
MTEXTEND
  0
LINE
  5
DA6
330
302
100
AcDbEntity
  8
BEM
100
AcDbLine
 10
-6.824606047900328
 20
23.00185056023142
 30
0.0
 11
-10.17539395209983
 21
19.99814943976859
 31
0.0
  0
SOLID
  5
DA7
330
302
100
AcDbEntity
  8
BEM
100
AcDbTrace
 10
-4.607806341731045
 20
25.77242393780249
 30
0.0
 11
-3.829069014203634
 21
24.90370114782483
 31
0.0
 12
-6.824606047900328
 22
23.00185056023142
 32
0.0
 13
-6.824606047900328
 23
23.00185056023142
 33
0.0
  0
SOLID
  5
DA8
330
302
100
AcDbEntity
  8
BEM
100
AcDbTrace
 10
-13.17093098579652
 20
18.09629885217519
 30
0.0
 11
-12.39219365826911
 21
17.22757606219752
 31
0.0
 12
-10.17539395209983
 22
19.99814943976859
 32
0.0
 13
-10.17539395209983
 23
19.99814943976859
 33
0.0
  0
POINT
  5
DA9
330
302
100
AcDbEntity
  8
Defpoints
 62
     0
100
AcDbPoint
 10
-10.17539395209983
 20
19.99814943976859
 30
0.0
  0
POINT
  5
DAA
330
302
100
AcDbEntity
  8
Defpoints
 62
     0
100
AcDbPoint
 10
-6.824606047900328
 20
23.00185056023142
 30
0.0
  0
ENDBLK
  5
30D
330
302
100
AcDbEntity
  8
0
100
AcDbBlockEnd
  0
BLOCK
  5
318
330
30E
100
AcDbEntity
  8
0
100
AcDbBlockBegin
  2
*D14
 70
     1
 10
0.0
 20
0.0
 30
0.0
  3
*D14
  1

  0
LINE
  5
DBD
330
30E
100
AcDbEntity
  8
BEM
100
AcDbLine
 10
-8.500000000000099
 20
21.49999999999999
 30
0.0
 11
-8.500000000000101
 21
-4.613017757092393
 31
0.0
  0
LINE
  5
DBE
330
30E
100
AcDbEntity
  8
BEM
100
AcDbLine
 10
33.49999999999992
 20
21.5
 30
0.0
 11
33.49999999999992
 21
-4.613017757092393
 31
0.0
  0
LINE
  5
DBF
330
30E
100
AcDbEntity
  8
BEM
100
AcDbLine
 10
-5.000000000000101
 20
-2.613017757092393
 30
0.0
 11
29.99999999999992
 21
-2.613017757092393
 31
0.0
  0
SOLID
  5
DC0
330
30E
100
AcDbEntity
  8
BEM
100
AcDbTrace
 10
-5.000000000000101
 20
-2.02968442375906
 30
0.0
 11
-5.000000000000101
 21
-3.196351090425726
 31
0.0
 12
-8.500000000000101
 22
-2.613017757092393
 32
0.0
 13
-8.500000000000101
 23
-2.613017757092393
 33
0.0
  0
SOLID
  5
DC1
330
30E
100
AcDbEntity
  8
BEM
100
AcDbTrace
 10
29.99999999999992
 20
-2.02968442375906
 30
0.0
 11
29.99999999999992
 21
-3.196351090425726
 31
0.0
 12
33.49999999999992
 22
-2.613017757092393
 32
0.0
 13
33.49999999999992
 23
-2.613017757092393
 33
0.0
  0
MTEXT
  5
DC2
330
30E
100
AcDbEntity
  8
BEM
 62
     7
100
AcDbMText
 10
12.49999999999991
 20
0.6369822429076067
 30
0.0
 40
3.5
 41
0.0
 71
     5
 72
     1
  1
\A1;42
  7
ROMANS
 73
     1
 44
1.0
1001
ACAD
1000
MTEXTBEGIN
1070
    73
1070
     1
1070
    44
1040
1.0
1070
    74
1070
     0
1000
MTEXTEND
  0
POINT
  5
DC3
330
30E
100
AcDbEntity
  8
Defpoints
 62
     0
100
AcDbPoint
 10
-8.500000000000099
 20
21.49999999999999
 30
0.0
  0
POINT
  5
DC4
330
30E
100
AcDbEntity
  8
Defpoints
 62
     0
100
AcDbPoint
 10
33.49999999999992
 20
21.5
 30
0.0
  0
POINT
  5
DC5
330
30E
100
AcDbEntity
  8
Defpoints
 62
     0
100
AcDbPoint
 10
33.49999999999992
 20
-2.613017757092393
 30
0.0
  0
ENDBLK
  5
319
330
30E
100
AcDbEntity
  8
0
100
AcDbBlockEnd
  0
BLOCK
  5
328
330
31A
100
AcDbEntity
  8
0
100
AcDbBlockBegin
  2
*D15
 70
     1
 10
0.0
 20
0.0
 30
0.0
  3
*D15
  1

  0
ARC
  5
DC6
330
31A
100
AcDbEntity
  8
BEM
100
AcDbCircle
 10
12.49999999999991
 20
42.5
 30
0.0
 40
18.05554365914778
100
AcDbArc
 50
281.5829491968784
 51
303.9376181071846
  0
LINE
  5
DC7
330
31A
100
AcDbEntity
  8
BEM
100
AcDbLine
 10
16.12530757249859
 20
24.81215666532023
 30
0.0
 11
-1.344850739533688
 21
21.23146590370636
 31
0.0
  0
ARC
  5
DC8
330
31A
100
AcDbEntity
  8
BEM
100
AcDbCircle
 10
12.49999999999991
 20
42.5
 30
0.0
 40
18.05554365914778
100
AcDbArc
 50
281.6895439046264
 51
292.8135810059055
  0
ARC
  5
DC9
330
31A
100
AcDbEntity
  8
BEM
100
AcDbCircle
 10
12.49999999999991
 20
42.5
 30
0.0
 40
18.05554365914778
100
AcDbArc
 50
326.1240371012791
 51
337.2480742025581
  0
ARC
  5
DCA
330
31A
100
AcDbEntity
  8
BEM
100
AcDbCircle
 10
12.49999999999991
 20
42.5
 30
0.0
 40
18.05554365914778
100
AcDbArc
 50
303.9376181071846
 51
315.0
  0
SOLID
  5
DCB
330
31A
100
AcDbEntity
  8
BEM
100
AcDbTrace
 10
19.22352084525175
 20
26.37016500542368
 30
0.0
 11
19.77797865557398
 21
25.34367211812061
 31
0.0
 12
22.58022841232208
 22
27.52029199273883
 32
0.0
 13
22.58022841232208
 23
27.52029199273883
 33
0.0
  0
SOLID
  5
DCC
330
31A
100
AcDbEntity
  8
BEM
100
AcDbTrace
 10
27.94106223547772
 20
32.06533868581998
 30
0.0
 11
27.04003082210672
 21
32.8064550756197
 31
0.0
 12
25.26719735939308
 22
29.73280264060683
 32
0.0
 13
25.26719735939308
 23
29.73280264060683
 33
0.0
  0
MTEXT
  5
DCD
330
31A
100
AcDbEntity
  8
BEM
 62
     7
100
AcDbMText
 10
6.737672623478054
 20
26.20562518250049
 30
0.0
 40
3.5
 41
0.0
 71
     5
 72
     1
  1
\A1;11.06°
  7
ROMANS
 11
0.9796350455345208
 21
0.2007863978475069
 31
0.0
 73
     1
 44
1.0
1001
ACAD
1000
MTEXTBEGIN
1070
    73
1070
     1
1070
    44
1040
1.0
1070
    74
1070
     0
1000
MTEXTEND
  0
POINT
  5
DCE
330
31A
100
AcDbEntity
  8
Defpoints
 62
     0
100
AcDbPoint
 10
24.4196572769754
 20
28.93812596921661
 30
0.0
  0
POINT
  5
DCF
330
31A
100
AcDbEntity
  8
Defpoints
 62
     0
100
AcDbPoint
 10
33.49999999999992
 20
21.5
 30
0.0
  0
POINT
  5
DD0
330
31A
100
AcDbEntity
  8
Defpoints
 62
     0
100
AcDbPoint
 10
12.49999999999991
 20
42.5
 30
0.0
  0
POINT
  5
DD1
330
31A
100
AcDbEntity
  8
Defpoints
 62
     0
100
AcDbPoint
 10
28.98428218117858
 20
18.00355768907919
 30
0.0
  0
POINT
  5
DD2
330
31A
100
AcDbEntity
  8
Defpoints
 62
     0
100
AcDbPoint
 10
12.49999999999991
 20
42.5
 30
0.0
  0
ENDBLK
  5
329
330
31A
100
AcDbEntity
  8
0
100
AcDbBlockEnd
  0
BLOCK
  5
33C
330
332
100
AcDbEntity
  8
0
100
AcDbBlockBegin
  2
*D16
 70
     1
 10
0.0
 20
0.0
 30
0.0
  3
*D16
  1

  0
LINE
  5
DB4
330
332
100
AcDbEntity
  8
BEM
100
AcDbLine
 10
-8.500000000000085
 20
21.49999999999998
 30
0.0
 11
-31.76334768180257
 21
21.49999999999998
 31
0.0
  0
LINE
  5
DB5
330
332
100
AcDbEntity
  8
BEM
100
AcDbLine
 10
-8.500000000000078
 20
63.49999999999998
 30
0.0
 11
-31.76334768180256
 21
63.49999999999999
 31
0.0
  0
LINE
  5
DB6
330
332
100
AcDbEntity
  8
BEM
100
AcDbLine
 10
-29.76334768180257
 20
24.99999999999998
 30
0.0
 11
-29.76334768180256
 21
60.0
 31
0.0
  0
SOLID
  5
DB7
330
332
100
AcDbEntity
  8
BEM
100
AcDbTrace
 10
-30.3466810151359
 20
24.99999999999998
 30
0.0
 11
-29.18001434846923
 21
24.99999999999998
 31
0.0
 12
-29.76334768180257
 22
21.49999999999998
 32
0.0
 13
-29.76334768180257
 23
21.49999999999998
 33
0.0
  0
SOLID
  5
DB8
330
332
100
AcDbEntity
  8
BEM
100
AcDbTrace
 10
-30.34668101513589
 20
60.0
 30
0.0
 11
-29.18001434846923
 21
60.0
 31
0.0
 12
-29.76334768180256
 22
63.49999999999999
 32
0.0
 13
-29.76334768180256
 23
63.49999999999999
 33
0.0
  0
MTEXT
  5
DB9
330
332
100
AcDbEntity
  8
BEM
 62
     7
100
AcDbMText
 10
-33.01334768180257
 20
42.49999999999998
 30
0.0
 40
3.5
 41
0.0
 71
     5
 72
     1
  1
\A1;42
  7
ROMANS
 11
0.0000000000000001
 21
1.0
 31
0.0
 73
     1
 44
1.0
1001
ACAD
1000
MTEXTBEGIN
1070
    73
1070
     1
1070
    44
1040
1.0
1070
    74
1070
     0
1000
MTEXTEND
  0
POINT
  5
DBA
330
332
100
AcDbEntity
  8
Defpoints
 62
     0
100
AcDbPoint
 10
-8.500000000000085
 20
21.49999999999998
 30
0.0
  0
POINT
  5
DBB
330
332
100
AcDbEntity
  8
Defpoints
 62
     0
100
AcDbPoint
 10
-8.500000000000078
 20
63.49999999999998
 30
0.0
  0
POINT
  5
DBC
330
332
100
AcDbEntity
  8
Defpoints
 62
     0
100
AcDbPoint
 10
-29.76334768180256
 20
63.49999999999999
 30
0.0
  0
ENDBLK
  5
33D
330
332
100
AcDbEntity
  8
0
100
AcDbBlockEnd
  0
BLOCK
  5
481
330
477
100
AcDbEntity
  8
0
100
AcDbBlockBegin
  2
*D17
 70
     1
 10
0.0
 20
0.0
 30
0.0
  3
*D17
  1

  0
LINE
  5
D70
330
477
100
AcDbEntity
  8
BEM
100
AcDbLine
 10
-8.500000000000085
 20
111.5
 30
0.0
 11
-31.76334768180256
 21
111.5
 31
0.0
  0
LINE
  5
D71
330
477
100
AcDbEntity
  8
BEM
100
AcDbLine
 10
-8.500000000000085
 20
153.5
 30
0.0
 11
-31.76334768180255
 21
153.5
 31
0.0
  0
LINE
  5
D72
330
477
100
AcDbEntity
  8
BEM
100
AcDbLine
 10
-29.76334768180256
 20
115.0
 30
0.0
 11
-29.76334768180255
 21
150.0
 31
0.0
  0
SOLID
  5
D73
330
477
100
AcDbEntity
  8
BEM
100
AcDbTrace
 10
-30.34668101513589
 20
115.0
 30
0.0
 11
-29.18001434846923
 21
115.0
 31
0.0
 12
-29.76334768180256
 22
111.5
 32
0.0
 13
-29.76334768180256
 23
111.5
 33
0.0
  0
SOLID
  5
D74
330
477
100
AcDbEntity
  8
BEM
100
AcDbTrace
 10
-30.34668101513589
 20
150.0
 30
0.0
 11
-29.18001434846922
 21
150.0
 31
0.0
 12
-29.76334768180255
 22
153.5
 32
0.0
 13
-29.76334768180255
 23
153.5
 33
0.0
  0
MTEXT
  5
D75
330
477
100
AcDbEntity
  8
BEM
 62
     7
100
AcDbMText
 10
-33.01334768180258
 20
132.5
 30
0.0
 40
3.5
 41
0.0
 71
     5
 72
     1
  1
\A1;42
  7
ROMANS
 11
0.0000000000000001
 21
1.0
 31
0.0
 73
     1
 44
1.0
1001
ACAD
1000
MTEXTBEGIN
1070
    73
1070
     1
1070
    44
1040
1.0
1070
    74
1070
     0
1000
MTEXTEND
  0
POINT
  5
D76
330
477
100
AcDbEntity
  8
Defpoints
 62
     0
100
AcDbPoint
 10
-8.500000000000085
 20
111.5
 30
0.0
  0
POINT
  5
D77
330
477
100
AcDbEntity
  8
Defpoints
 62
     0
100
AcDbPoint
 10
-8.500000000000085
 20
153.5
 30
0.0
  0
POINT
  5
D78
330
477
100
AcDbEntity
  8
Defpoints
 62
     0
100
AcDbPoint
 10
-29.76334768180255
 20
153.5
 30
0.0
  0
ENDBLK
  5
482
330
477
100
AcDbEntity
  8
0
100
AcDbBlockEnd
  0
BLOCK
  5
4D2
330
4C8
100
AcDbEntity
  8
0
100
AcDbBlockBegin
  2
*D18
 70
     1
 10
0.0
 20
0.0
 30
0.0
  3
*D18
  1

  0
LINE
  5
D67
330
4C8
100
AcDbEntity
  8
BEM
100
AcDbLine
 10
33.49999999999992
 20
153.5
 30
0.0
 11
33.49999999999992
 21
176.1173929987187
 31
0.0
  0
LINE
  5
D68
330
4C8
100
AcDbEntity
  8
BEM
100
AcDbLine
 10
-8.500000000000085
 20
153.5
 30
0.0
 11
-8.500000000000083
 21
176.1173929987187
 31
0.0
  0
LINE
  5
D69
330
4C8
100
AcDbEntity
  8
BEM
100
AcDbLine
 10
29.99999999999992
 20
174.1173929987187
 30
0.0
 11
-5.000000000000083
 21
174.1173929987187
 31
0.0
  0
SOLID
  5
D6A
330
4C8
100
AcDbEntity
  8
BEM
100
AcDbTrace
 10
29.99999999999992
 20
174.700726332052
 30
0.0
 11
29.99999999999992
 21
173.5340596653853
 31
0.0
 12
33.49999999999992
 22
174.1173929987187
 32
0.0
 13
33.49999999999992
 23
174.1173929987187
 33
0.0
  0
SOLID
  5
D6B
330
4C8
100
AcDbEntity
  8
BEM
100
AcDbTrace
 10
-5.000000000000083
 20
174.700726332052
 30
0.0
 11
-5.000000000000083
 21
173.5340596653853
 31
0.0
 12
-8.500000000000083
 22
174.1173929987187
 32
0.0
 13
-8.500000000000083
 23
174.1173929987187
 33
0.0
  0
MTEXT
  5
D6C
330
4C8
100
AcDbEntity
  8
BEM
 62
     7
100
AcDbMText
 10
12.49999999999991
 20
177.3673929987187
 30
0.0
 40
3.5
 41
0.0
 71
     5
 72
     1
  1
\A1;42
  7
ROMANS
 73
     1
 44
1.0
1001
ACAD
1000
MTEXTBEGIN
1070
    73
1070
     1
1070
    44
1040
1.0
1070
    74
1070
     0
1000
MTEXTEND
  0
POINT
  5
D6D
330
4C8
100
AcDbEntity
  8
Defpoints
 62
     0
100
AcDbPoint
 10
33.49999999999992
 20
153.5
 30
0.0
  0
POINT
  5
D6E
330
4C8
100
AcDbEntity
  8
Defpoints
 62
     0
100
AcDbPoint
 10
-8.500000000000085
 20
153.5
 30
0.0
  0
POINT
  5
D6F
330
4C8
100
AcDbEntity
  8
Defpoints
 62
     0
100
AcDbPoint
 10
-8.500000000000083
 20
174.1173929987187
 30
0.0
  0
ENDBLK
  5
4D3
330
4C8
100
AcDbEntity
  8
0
100
AcDbBlockEnd
  0
BLOCK
  5
820
330
81A
100
AcDbEntity
  8
0
100
AcDbBlockBegin
  2
*D19
 70
     1
 10
0.0
 20
0.0
 30
0.0
  3
*D19
  1

  0
LINE
  5
8AC
330
81A
100
AcDbEntity
  8
BEM
100
AcDbLine
 10
15.83836037312181
 20
134.8076870376231
 30
0.0
 11
29.363175601396
 21
144.1568996150983
 31
0.0
  0
MTEXT
  5
8AD
330
81A
100
AcDbEntity
  8
BEM
 62
     7
100
AcDbMText
 10
18.85732940852951
 20
140.8455070422021
 30
0.0
 40
3.5
 41
0.0
 71
     5
 72
     1
  1
\A1;\U+220548
  7
ROMANS
 11
0.8225939317754191
 21
0.5686292495169917
 31
0.0
 73
     1
 44
1.0
1001
ACAD
1000
MTEXTBEGIN
1070
    73
1070
     1
1070
    44
1040
1.0
1070
    74
1070
     0
1000
MTEXTEND
  0
SOLID
  5
8AE
330
81A
100
AcDbEntity
  8
BEM
100
AcDbTrace
 10
29.03147520584442
 20
144.6367460753006
 30
0.0
 11
29.69487599694757
 21
143.677053154896
 31
0.0
 12
32.24225436260996
 22
146.1471019884077
 32
0.0
 13
32.24225436260996
 23
146.1471019884077
 33
0.0
  0
POINT
  5
8AF
330
81A
100
AcDbEntity
  8
Defpoints
 62
     0
100
AcDbPoint
 10
32.24225436260996
 20
146.1471019884077
 30
0.0
  0
POINT
  5
8B0
330
81A
100
AcDbEntity
  8
Defpoints
 62
     0
100
AcDbPoint
 10
-7.242254362610133
 20
118.8528980115922
 30
0.0
  0
ENDBLK
  5
821
330
81A
100
AcDbEntity
  8
0
100
AcDbBlockEnd
  0
BLOCK
  5
AD1
330
ACB
100
AcDbEntity
  8
0
100
AcDbBlockBegin
  2
*D20
 70
     1
 10
0.0
 20
0.0
 30
0.0
  3
*D20
  1

  0
LINE
  5
AD4
330
ACB
100
AcDbEntity
  8
BEM
100
AcDbLine
 10
8.282345653652143
 20
45.48426477698917
 30
0.0
 11
-4.234564019379916
 21
54.34079250224739
 31
0.0
  0
MTEXT
  5
AD5
330
ACB
100
AcDbEntity
  8
BEM
 62
     7
100
AcDbMText
 10
5.329649971585805
 20
51.55476991688909
 30
0.0
 40
3.5
 41
0.0
 71
     5
 72
     1
  1
\A1;\U+220548
  7
ROMANS
 11
0.8163201960673086
 21
-0.5775996342559706
 31
0.0
 73
     1
 44
1.0
1001
ACAD
1000
MTEXTBEGIN
1070
    73
1070
     1
1070
    44
1040
1.0
1070
    74
1070
     0
1000
MTEXTEND
  0
SOLID
  5
AD6
330
ACB
100
AcDbEntity
  8
BEM
100
AcDbTrace
 10
-3.897630899397267
 20
54.81697928328665
 30
0.0
 11
-4.571497139362566
 21
53.86460572120812
 31
0.0
 12
-7.091684705615495
 22
56.36239122214329
 32
0.0
 13
-7.091684705615495
 23
56.36239122214329
 33
0.0
  0
POINT
  5
AD7
330
ACB
100
AcDbEntity
  8
Defpoints
 62
     0
100
AcDbPoint
 10
-7.091684705615495
 20
56.36239122214329
 30
0.0
  0
POINT
  5
AD8
330
ACB
100
AcDbEntity
  8
Defpoints
 62
     0
100
AcDbPoint
 10
32.09168470561532
 20
28.63760877785672
 30
0.0
  0
ENDBLK
  5
AD2
330
ACB
100
AcDbEntity
  8
0
100
AcDbBlockEnd
  0
BLOCK
  5
AE2
330
ADB
100
AcDbEntity
  8
0
100
AcDbBlockBegin
  2
*D21
 70
     1
 10
0.0
 20
0.0
 30
0.0
  3
*D21
  1

  0
LINE
  5
DD4
330
ADB
100
AcDbEntity
  8
BEM
100
AcDbLine
 10
44.87741308594578
 20
74.99380219677632
 30
0.0
 11
25.87741308594578
 21
74.99380219677632
 31
0.0
  0
LINE
  5
DD5
330
ADB
100
AcDbEntity
  8
BEM
100
AcDbLine
 10
25.87741308594578
 20
74.99380219677632
 30
0.0
 11
24.54499212375284
 21
71.75734512468207
 31
0.0
  0
MTEXT
  5
DD6
330
ADB
100
AcDbEntity
  8
BEM
 62
     7
100
AcDbMText
 10
36.12741308594577
 20
78.24380219677633
 30
0.0
 40
3.5
 41
0.0
 71
     5
 72
     1
  1
\A1;R28.14\C7;\H3.5;
  7
ROMANS
 73
     1
 44
1.0
1001
ACAD
1000
MTEXTBEGIN
1070
    73
1070
     1
1070
    44
1040
1.0
1070
    74
1070
     0
1000
MTEXTEND
  0
LINE
  5
DD7
330
ADB
100
AcDbEntity
  8
BEM
100
AcDbLine
 10
12.49999999999991
 20
42.50000000000003
 30
0.0
 11
23.21257116155991
 21
68.52088805258784
 31
0.0
  0
SOLID
  5
DD8
330
ADB
100
AcDbEntity
  8
BEM
100
AcDbTrace
 10
24.00558261173714
 20
71.97941528504756
 30
0.0
 11
25.08440163576855
 21
71.53527496431658
 31
0.0
 12
23.21257116155991
 22
68.52088805258784
 32
0.0
 13
23.21257116155991
 23
68.52088805258784
 33
0.0
  0
POINT
  5
DD9
330
ADB
100
AcDbEntity
  8
Defpoints
 62
     0
100
AcDbPoint
 10
23.21257116155991
 20
68.52088805258784
 30
0.0
  0
POINT
  5
DDA
330
ADB
100
AcDbEntity
  8
Defpoints
 62
     0
100
AcDbPoint
 10
12.49999999999991
 20
42.50000000000003
 30
0.0
  0
ENDBLK
  5
AE3
330
ADB
100
AcDbEntity
  8
0
100
AcDbBlockEnd
  0
BLOCK
  5
BAE
330
BA0
100
AcDbEntity
  8
0
100
AcDbBlockBegin
  2
*D22
 70
     1
 10
0.0
 20
0.0
 30
0.0
  3
*D22
  1

  0
LINE
  5
E9A
330
BA0
100
AcDbEntity
  8
BEM
100
AcDbLine
 10
93.1858222630951
 20
149.430065028685
 30
0.0
 11
98.12351352113932
 21
137.5094238267039
 31
0.0
  0
LINE
  5
E9B
330
BA0
100
AcDbEntity
  8
BEM
100
AcDbLine
 10
95.56993497131482
 20
151.8141777369048
 30
0.0
 11
107.4905761732959
 21
146.8764864788605
 31
0.0
  0
ARC
  5
E9C
330
BA0
100
AcDbEntity
  8
BEM
100
AcDbCircle
 10
91.49999999999982
 20
153.5000000000001
 30
0.0
 40
15.30807492815718
100
AcDbArc
 50
266.2426672081799
 51
279.3713336040902
  0
ARC
  5
E9D
330
BA0
100
AcDbEntity
  8
BEM
100
AcDbCircle
 10
91.49999999999982
 20
153.5000000000001
 30
0.0
 40
15.30807492815718
100
AcDbArc
 50
350.6286663959095
 51
3.757332791819774
  0
ARC
  5
E9E
330
BA0
100
AcDbEntity
  8
BEM
100
AcDbCircle
 10
91.49999999999982
 20
153.5000000000001
 30
0.0
 40
15.30807492815718
100
AcDbArc
 50
292.5000000000005
 51
337.4999999999993
  0
SOLID
  5
E9F
330
BA0
100
AcDbEntity
  8
BEM
100
AcDbTrace
 10
93.83249086947509
 20
138.957146581079
 30
0.0
 11
94.15280836411396
 21
137.8353142345408
 31
0.0
 12
97.35814665640912
 22
139.3571828917265
 32
0.0
 13
97.35814665640912
 23
139.3571828917265
 33
0.0
  0
SOLID
  5
EA0
330
BA0
100
AcDbEntity
  8
BEM
100
AcDbTrace
 10
107.1646857654591
 20
150.8471916358858
 30
0.0
 11
106.0428534189209
 21
151.1675091305247
 31
0.0
 12
105.6428171082733
 22
147.6418533435907
 32
0.0
 13
105.6428171082733
 23
147.6418533435907
 33
0.0
  0
MTEXT
  5
EA1
330
BA0
100
AcDbEntity
  8
BEM
 62
     7
100
AcDbMText
 10
100.0263465497552
 20
144.9736534502446
 30
0.0
 40
3.5
 41
0.0
 71
     5
 72
     1
  1
\A1;45°
  7
ROMANS
 11
0.7071067811865447
 21
0.7071067811865504
 31
0.0
 73
     1
 44
1.0
1001
ACAD
1000
MTEXTBEGIN
1070
    73
1070
     1
1070
    44
1040
1.0
1070
    74
1070
     0
1000
MTEXTEND
  0
POINT
  5
EA2
330
BA0
100
AcDbEntity
  8
Defpoints
 62
     0
100
AcDbPoint
 10
100.8189655686374
 20
141.3552876223181
 30
0.0
  0
POINT
  5
EA3
330
BA0
100
AcDbEntity
  8
Defpoints
 62
     0
100
AcDbPoint
 10
92.53483855324708
 20
151.0016787298841
 30
0.0
  0
POINT
  5
EA4
330
BA0
100
AcDbEntity
  8
Defpoints
 62
     0
100
AcDbPoint
 10
95.56993497131482
 20
151.8141777369048
 30
0.0
  0
POINT
  5
EA5
330
BA0
100
AcDbEntity
  8
Defpoints
 62
     0
100
AcDbPoint
 10
93.99832127011579
 20
152.4651614467528
 30
0.0
  0
POINT
  5
EA6
330
BA0
100
AcDbEntity
  8
Defpoints
 62
     0
100
AcDbPoint
 10
93.1858222630951
 20
149.430065028685
 30
0.0
  0
ENDBLK
  5
BAF
330
BA0
100
AcDbEntity
  8
0
100
AcDbBlockEnd
  0
BLOCK
  5
BC6
330
BC0
100
AcDbEntity
  8
0
100
AcDbBlockBegin
  2
*D23
 70
     1
 10
0.0
 20
0.0
 30
0.0
  3
*D23
  1

  0
LINE
  5
BC9
330
BC0
100
AcDbEntity
  8
BEM
100
AcDbLine
 10
117.0771283869732
 20
134.8967353157175
 30
0.0
 11
130.6608642450876
 21
142.0096272204275
 31
0.0
  0
MTEXT
  5
BCA
330
BC0
100
AcDbEntity
  8
BEM
 62
     7
100
AcDbMText
 10
120.8110548089429
 20
140.5205452271353
 30
0.0
 40
3.5
 41
0.0
 71
     5
 72
     1
  1
\A1;\U+220548
  7
ROMANS
 11
0.8858958168335442
 21
0.4638842546550029
 31
0.0
 73
     1
 44
1.0
1001
ACAD
1000
MTEXTBEGIN
1070
    73
1070
     1
1070
    44
1040
1.0
1070
    74
1070
     0
1000
MTEXTEND
  0
SOLID
  5
BCB
330
BC0
100
AcDbEntity
  8
BEM
100
AcDbTrace
 10
130.3902650965388
 20
142.5263997802471
 30
0.0
 11
130.9314633936363
 21
141.4928546606079
 31
0.0
 12
133.761499604005
 22
143.63322211172
 32
0.0
 13
133.761499604005
 23
143.63322211172
 33
0.0
  0
POINT
  5
BCC
330
BC0
100
AcDbEntity
  8
Defpoints
 62
     0
100
AcDbPoint
 10
133.761499604005
 20
143.63322211172
 30
0.0
  0
POINT
  5
BCD
330
BC0
100
AcDbEntity
  8
Defpoints
 62
     0
100
AcDbPoint
 10
91.23850039599487
 20
121.3667778882799
 30
0.0
  0
ENDBLK
  5
BC7
330
BC0
100
AcDbEntity
  8
0
100
AcDbBlockEnd
  0
BLOCK
  5
BD7
330
BD0
100
AcDbEntity
  8
0
100
AcDbBlockBegin
  2
*D24
 70
     1
 10
0.0
 20
0.0
 30
0.0
  3
*D24
  1

  0
LINE
  5
EE7
330
BD0
100
AcDbEntity
  8
BEM
100
AcDbLine
 10
111.791125626223
 20
123.1781403982156
 30
0.0
 11
99.62445895955635
 21
123.1781403982156
 31
0.0
  0
LINE
  5
EE8
330
BD0
100
AcDbEntity
  8
BEM
100
AcDbLine
 10
99.62445895955635
 20
123.1781403982156
 30
0.0
 11
98.17988790295864
 21
117.2224399346117
 31
0.0
  0
MTEXT
  5
EE9
330
BD0
100
AcDbEntity
  8
BEM
 62
     7
100
AcDbMText
 10
106.4577922928897
 20
126.4281403982156
 30
0.0
 40
3.5
 41
0.0
 71
     5
 72
     1
  1
\A1;R0.5\C7;\H3.5;
  7
ROMANS
 73
     1
 44
1.0
1001
ACAD
1000
MTEXTBEGIN
1070
    73
1070
     1
1070
    44
1040
1.0
1070
    74
1070
     0
1000
MTEXTEND
  0
LINE
  5
EEA
330
BD0
100
AcDbEntity
  8
BEM
100
AcDbLine
 10
97.23701627930445
 20
113.335153850297
 30
0.0
 11
97.35487523226121
 21
113.8210646108362
 31
0.0
  0
SOLID
  5
EEB
330
BD0
100
AcDbEntity
  8
BEM
100
AcDbTrace
 10
97.61299201566274
 20
117.3599420463946
 30
0.0
 11
98.74678379025455
 21
117.0849378228288
 31
0.0
 12
97.35487523226121
 22
113.8210646108362
 32
0.0
 13
97.35487523226121
 23
113.8210646108362
 33
0.0
  0
POINT
  5
EEC
330
BD0
100
AcDbEntity
  8
Defpoints
 62
     0
100
AcDbPoint
 10
97.35487523226121
 20
113.8210646108362
 30
0.0
  0
POINT
  5
EED
330
BD0
100
AcDbEntity
  8
Defpoints
 62
     0
100
AcDbPoint
 10
97.23701627930445
 20
113.335153850297
 30
0.0
  0
ENDBLK
  5
BD8
330
BD0
100
AcDbEntity
  8
0
100
AcDbBlockEnd
  0
BLOCK
  5
D02
330
CFC
100
AcDbEntity
  8
0
100
AcDbBlockBegin
  2
*D25
 70
     1
 10
0.0
 20
0.0
 30
0.0
  3
*D25
  1

  0
LINE
  5
E28
330
CFC
100
AcDbEntity
  8
BEM
100
AcDbLine
 10
115.7693219984475
 20
44.90449643686808
 30
0.0
 11
129.0144396636159
 21
54.64591629300922
 31
0.0
  0
MTEXT
  5
E29
330
CFC
100
AcDbEntity
  8
BEM
 62
     7
100
AcDbMText
 10
118.6101125703555
 20
51.0281679965619
 30
0.0
 40
3.5
 41
0.0
 71
     5
 72
     1
  1
\A1;\U+220548
  7
ROMANS
 11
0.805582422615415
 21
0.592483721610205
 31
0.0
 73
     1
 44
1.0
1001
ACAD
1000
MTEXTBEGIN
1070
    73
1070
     1
1070
    44
1040
1.0
1070
    74
1070
     0
1000
MTEXTEND
  0
SOLID
  5
E2A
330
CFC
100
AcDbEntity
  8
BEM
100
AcDbTrace
 10
128.6688241593433
 20
55.11583937286822
 30
0.0
 11
129.3600551678885
 21
54.17599321315023
 31
0.0
 12
131.8339781427699
 22
56.71960931864493
 32
0.0
 13
131.8339781427699
 23
56.71960931864493
 33
0.0
  0
POINT
  5
E2B
330
CFC
100
AcDbEntity
  8
Defpoints
 62
     0
100
AcDbPoint
 10
131.8339781427699
 20
56.71960931864493
 30
0.0
  0
POINT
  5
E2C
330
CFC
100
AcDbEntity
  8
Defpoints
 62
     0
100
AcDbPoint
 10
93.16602185722995
 20
28.28039068135508
 30
0.0
  0
ENDBLK
  5
D03
330
CFC
100
AcDbEntity
  8
0
100
AcDbBlockEnd
  0
ENDSEC
  0
SECTION
  2
ENTITIES
  0
DIMENSION
  5
27
330
2
100
AcDbEntity
  8
BEM
100
AcDbDimension
  2
*D7
 10
91.49999999999993
 20
-2.613017757092393
 30
0.0
 11
112.4999999999999
 21
0.6369822429076067
 31
0.0
 70
    32
 71
     5
 42
41.99999999999998
  3
1zu1
100
AcDbAlignedDimension
 13
133.4999999999999
 23
21.5
 33
0.0
 14
91.49999999999993
 24
21.49999999999999
 34
0.0
100
AcDbRotatedDimension
  0
DIMENSION
  5
35
102
{ACAD_XDICTIONARY
360
36
102
}
102
{ACAD_REACTORS
330
37
102
}
330
2
100
AcDbEntity
  8
BEM
100
AcDbDimension
  2
*D18
 10
-8.500000000000083
 20
174.1173929987187
 30
0.0
 11
12.49999999999991
 21
177.3673929987187
 31
0.0
 70
    32
 71
     5
 42
42.0
  3
1zu1
100
AcDbAlignedDimension
 13
33.49999999999992
 23
153.5
 33
0.0
 14
-8.500000000000085
 24
153.5
 34
0.0
100
AcDbRotatedDimension
  0
DIMENSION
  5
44
330
2
100
AcDbEntity
  8
BEM
100
AcDbDimension
  2
*D6
 10
136.056787697324
 20
67.49367583107508
 30
0.0
 11
118.0990381559732
 21
76.28845328076491
 31
0.0
 70
   163
  1
<>
 71
     5
 42
6.500000000000092
  3
1zu1
100
AcDbDiametricDimension
 15
130.9432123026759
 25
71.50632416892507
 35
0.0
 40
0.0
1001
ACAD
1000
DSTYLE
1002
{
1070
     3
1000
%%c<>\C7;\H3.5;
1070
    47
1040
0.0
1070
    48
1040
0.0
1070
    71
1070
     0
1070
    72
1070
     0
1070
    74
1070
     1
1070
   288
1070
     1
1002
}
  0
DIMENSION
  5
51
102
{ACAD_XDICTIONARY
360
52
102
}
102
{ACAD_REACTORS
330
53
102
}
330
2
100
AcDbEntity
  8
BEM
100
AcDbDimension
  2
*D0
 10
35.99999999999992
 20
97.38496904483225
 30
0.0
 11
-17.75000000000007
 21
97.38496904483225
 31
0.0
 70
   160
  1
Fase / Chamfer <>x45° (4x)
 71
     5
 42
0.5
  3
1zu1
100
AcDbAlignedDimension
 13
36.49999999999991
 23
111.5
 33
0.0
 14
35.99999999999992
 24
111.5
 34
0.0
100
AcDbRotatedDimension
1001
ACAD
1000
DSTYLE
1002
{
1070
     3
1000
<>\C7;\H3.5;
1070
    47
1040
0.0
1070
    48
1040
0.0
1070
    71
1070
     0
1070
    72
1070
     0
1070
    74
1070
     0
1002
}
  0
CIRCLE
  5
63
330
2
100
AcDbEntity
  8
0
100
AcDbCircle
 10
33.49999999999992
 20
153.5
 30
0.0
 40
3.0
  0
CIRCLE
  5
64
102
{ACAD_REACTORS
330
53
102
}
330
2
100
AcDbEntity
  8
0
100
AcDbCircle
 10
33.49999999999992
 20
111.5
 30
0.0
 40
3.0
  0
LINE
  5
65
330
2
100
AcDbEntity
  8
sym1
100
AcDbLine
 10
138.4999999999999
 20
132.4999999999999
 30
0.0
 11
86.49999999999991
 21
132.4999999999999
 31
0.0
  0
LINE
  5
68
330
2
100
AcDbEntity
  8
sym1
100
AcDbLine
 10
38.49999999999992
 20
132.5
 30
0.0
 11
-13.50000000000008
 21
132.5
 31
0.0
  0
DIMENSION
  5
69
330
2
100
AcDbEntity
  8
BEM
100
AcDbDimension
  2
*D10
 10
135.0469600202487
 20
151.8661656461709
 30
0.0
 11
120.3902754723108
 21
163.4668745657418
 31
0.0
 70
    35
  1
<>
 71
     5
 42
4.499999999999971
  3
1zu1
100
AcDbDiametricDimension
 15
131.9530399797512
 25
155.1338343538291
 35
0.0
 40
0.0
1001
ACAD
1000
DSTYLE
1002
{
1070
     3
1000
%%c<>\C7;\H3.5;
1070
    47
1040
0.0
1070
    48
1040
0.0
1070
    71
1070
     0
1070
    72
1070
     0
1070
    74
1070
     1
1070
   288
1070
     1
1002
}
  0
CIRCLE
  5
83
102
{ACAD_REACTORS
330
53
102
}
330
2
100
AcDbEntity
  8
0
100
AcDbCircle
 10
33.49999999999992
 20
111.5
 30
0.0
 40
2.5
  0
DIMENSION
  5
84
102
{ACAD_XDICTIONARY
360
85
102
}
102
{ACAD_REACTORS
330
86
102
}
330
2
100
AcDbEntity
  8
BEM
100
AcDbDimension
  2
*D1
 10
35.28217228983864
 20
151.7467567398301
 30
0.0
 11
18.78982616914888
 21
161.3309606755152
 31
0.0
 70
   163
  1
<>
 71
     5
 42
5.0
  3
1zu1
100
AcDbDiametricDimension
 15
31.7178277101612
 25
155.2532432601698
 35
0.0
 40
0.0
1001
ACAD
1000
DSTYLE
1002
{
1070
     3
1000
%%c<>\C7;\H3.5;
1070
    47
1040
0.0
1070
    48
1040
0.0
1070
    71
1070
     0
1070
    72
1070
     0
1070
    74
1070
     1
1070
   288
1070
     1
1002
}
  0
CIRCLE
  5
9E
102
{ACAD_REACTORS
330
86
330
37
102
}
330
2
100
AcDbEntity
  8
0
100
AcDbCircle
 10
33.49999999999992
 20
153.5
 30
0.0
 40
2.5
  0
CIRCLE
  5
9F
102
{ACAD_REACTORS
330
828
102
}
330
2
100
AcDbEntity
  8
0
100
AcDbCircle
 10
12.49999999999991
 20
132.5
 30
0.0
 40
24.0
  0
DIMENSION
  5
B1
330
2
100
AcDbEntity
  8
BEM
100
AcDbDimension
  2
*D9
 10
156.1610005550969
 20
153.5
 30
0.0
 11
152.9110005550969
 21
132.5
 31
0.0
 70
    32
 71
     5
 42
42.0
  3
1zu1
100
AcDbAlignedDimension
 13
133.4999999999999
 23
111.5
 33
0.0
 14
133.4999999999999
 24
153.5
 34
0.0
 50
90.0
100
AcDbRotatedDimension
  0
LINE
  5
BE
330
2
100
AcDbEntity
  8
sym1
100
AcDbLine
 10
112.4999999999999
 20
158.4999999999999
 30
0.0
 11
112.4999999999999
 21
106.4999999999999
 31
0.0
  0
MTEXT
  5
BF
330
2
100
AcDbEntity
  8
BEM
100
AcDbMText
 10
12.49999999999991
 20
-23.42796073572987
 30
0.0
 40
5.0
 41
69.43909999999999
 71
     8
 72
     5
  1
{\C7;Lochbild 3\PHole cut-out 3}
 73
     1
 44
1.0
1001
ACAD
1000
MTEXTBEGIN
1070
    73
1070
     1
1070
    44
1040
1.0
1070
    74
1070
     0
1000
MTEXTEND
  0
DIMENSION
  5
C1
330
2
100
AcDbEntity
  8
BEM
100
AcDbDimension
  2
*D8
 10
133.4999999999999
 20
174.1173929987187
 30
0.0
 11
112.4999999999999
 21
177.3673929987187
 31
0.0
 70
    32
 71
     5
 42
42.0
  3
1zu1
100
AcDbAlignedDimension
 13
91.49999999999991
 23
153.5
 33
0.0
 14
133.4999999999999
 24
153.5
 34
0.0
100
AcDbRotatedDimension
  0
DIMENSION
  5
D9
102
{ACAD_XDICTIONARY
360
DA
102
}
102
{ACAD_REACTORS
330
DB
102
}
330
2
100
AcDbEntity
  8
BEM
100
AcDbDimension
  2
*D17
 10
-29.76334768180255
 20
153.5
 30
0.0
 11
-33.01334768180258
 21
132.5
 31
0.0
 70
    32
 71
     5
 42
42.0
  3
1zu1
100
AcDbAlignedDimension
 13
-8.500000000000085
 23
111.5
 33
0.0
 14
-8.500000000000085
 24
153.5
 34
0.0
 50
90.0
100
AcDbRotatedDimension
  0
LINE
  5
E8
330
2
100
AcDbEntity
  8
sym1
100
AcDbLine
 10
12.49999999999991
 20
158.5
 30
0.0
 11
12.49999999999991
 21
106.5
 31
0.0
  0
CIRCLE
  5
E9
330
2
100
AcDbEntity
  8
0
100
AcDbCircle
 10
-8.500000000000085
 20
111.5
 30
0.0
 40
3.0
  0
CIRCLE
  5
EA
102
{ACAD_REACTORS
330
DB
102
}
330
2
100
AcDbEntity
  8
0
100
AcDbCircle
 10
-8.500000000000085
 20
111.5
 30
0.0
 40
2.5
  0
CIRCLE
  5
EC
330
2
100
AcDbEntity
  8
0
100
AcDbCircle
 10
-8.500000000000085
 20
153.5
 30
0.0
 40
3.0
  0
CIRCLE
  5
ED
102
{ACAD_REACTORS
330
DB
330
37
102
}
330
2
100
AcDbEntity
  8
0
100
AcDbCircle
 10
-8.500000000000085
 20
153.5
 30
0.0
 40
2.5
  0
LINE
  5
EE
330
2
100
AcDbEntity
  8
sym1
100
AcDbLine
 10
12.49999999999991
 20
68.5
 30
0.0
 11
12.49999999999991
 21
16.5
 31
0.0
  0
DIMENSION
  5
FD
330
2
100
AcDbEntity
  8
BEM
100
AcDbDimension
  2
*D16
 10
-29.76334768180256
 20
63.49999999999999
 30
0.0
 11
-33.01334768180257
 21
42.49999999999998
 31
0.0
 70
    32
 71
     5
 42
42.00000000000001
  3
1zu1
100
AcDbAlignedDimension
 13
-8.500000000000085
 23
21.49999999999998
 33
0.0
 14
-8.500000000000078
 24
63.49999999999998
 34
0.0
 50
90.0
100
AcDbRotatedDimension
  0
CIRCLE
  5
10B
102
{ACAD_REACTORS
330
AD9
102
}
330
2
100
AcDbEntity
  8
0
100
AcDbCircle
 10
12.49999999999991
 20
42.5
 30
0.0
 40
24.0
  0
MTEXT
  5
117
330
2
100
AcDbEntity
  8
BEM
100
AcDbMText
 10
112.4999999999999
 20
-23.42796073572987
 30
0.0
 40
5.0
 41
69.43909999999999
 71
     8
 72
     5
  1
{\C7;Lochbild 4\PHole cut-out 4}
 73
     1
 44
1.0
1001
ACAD
1000
MTEXTBEGIN
1070
    73
1070
     1
1070
    44
1040
1.0
1070
    74
1070
     0
1000
MTEXTEND
  0
LINE
  5
118
330
2
100
AcDbEntity
  8
sym1
100
AcDbLine
 10
38.49999999999992
 20
42.5
 30
0.0
 11
-13.50000000000008
 21
42.5
 31
0.0
  0
DIMENSION
  5
119
102
{ACAD_XDICTIONARY
360
11A
102
}
102
{ACAD_REACTORS
330
11B
102
}
330
2
100
AcDbEntity
  8
BEM
100
AcDbDimension
  2
*D15
 10
12.49999999999991
 20
42.5
 30
0.0
 11
6.737672623478053
 21
26.20562518250049
 31
0.0
 70
    34
 71
     5
 42
0.1930749871426318
  3
1zu1
100
AcDb2LineAngularDimension
 13
12.49999999999991
 23
42.5
 33
0.0
 14
28.98428218117857
 24
18.00355768907919
 34
0.0
 15
33.49999999999992
 25
21.5
 35
0.0
 16
24.4196572769754
 26
28.93812596921661
 36
0.0
  0
DIMENSION
  5
12C
330
2
100
AcDbEntity
  8
BEM
100
AcDbDimension
  2
*D14
 10
33.49999999999992
 20
-2.613017757092393
 30
0.0
 11
12.49999999999991
 21
0.6369822429076067
 31
0.0
 70
    32
 71
     5
 42
42.00000000000001
  3
1zu1
100
AcDbAlignedDimension
 13
-8.500000000000099
 23
21.49999999999999
 33
0.0
 14
33.49999999999992
 24
21.5
 34
0.0
100
AcDbRotatedDimension
  0
DIMENSION
  5
139
330
2
100
AcDbEntity
  8
BEM
100
AcDbDimension
  2
*D13
 10
-6.824606047900328
 20
23.00185056023142
 30
0.0
 11
-29.60089464549115
 21
8.635623155293847
 31
0.0
 70
   163
  1
<>
 71
     5
 42
4.499999999999924
  3
1zu1
100
AcDbDiametricDimension
 15
-10.17539395209983
 25
19.99814943976859
 35
0.0
 40
0.0
1001
ACAD
1000
DSTYLE
1002
{
1070
     3
1000
%%c<>\C7;\H3.5;
1070
    47
1040
0.0
1070
    48
1040
0.0
1070
    71
1070
     0
1070
    72
1070
     0
1070
    74
1070
     1
1070
   288
1070
     1
1002
}
  0
LWPOLYLINE
  5
146
330
2
100
AcDbEntity
  8
0
100
AcDbPolyline
 90
        4
 70
     1
 43
0.0
 10
-11.2263887575267
 20
22.85826353967415
 42
-0.5902450876578456
 10
-10.63375189279392
 20
22.2138647350855
 42
3.296361496055632
 10
-8.656877651253353
 20
23.74452431542569
 42
-0.5902450876578451
 10
-9.132366412783738
 20
24.4796288729234
 42
4.69575956487086
  0
LWPOLYLINE
  5
147
330
2
100
AcDbEntity
  8
0
100
AcDbPolyline
 90
        4
 70
     1
 43
0.0
 10
32.14173646032576
 20
18.77361124247336
 42
-0.5902450876578456
 10
32.78613526491442
 20
19.36624810720615
 42
3.296361496055632
 10
31.25547568457422
 20
21.34312234874672
 42
-0.5902450876578451
 10
30.52037112707651
 20
20.86763358721633
 42
4.69575956487086
  0
LINE
  5
148
102
{ACAD_REACTORS
330
11B
102
}
330
2
100
AcDbEntity
  8
BEM
100
AcDbLine
 10
12.49999999999991
 20
42.5
 30
0.0
 11
28.98428218117857
 21
18.0035576890792
 31
0.0
  0
LINE
  5
149
102
{ACAD_REACTORS
330
11B
102
}
330
2
100
AcDbEntity
  8
BEM
100
AcDbLine
 10
33.49999999999992
 20
21.5
 30
0.0
 11
12.49999999999991
 21
42.5
 31
0.0
  0
DIMENSION
  5
15B
330
2
100
AcDbEntity
  8
BEM
100
AcDbDimension
  2
*D5
 10
131.6054407381059
 20
22.71373193217101
 30
0.0
 11
159.8042964797594
 21
8.97272015925408
 31
0.0
 70
   163
  1
<>
 71
     5
 42
4.5
  3
1zu1
100
AcDbDiametricDimension
 15
135.3945592618939
 25
20.28626806782899
 35
0.0
 40
0.0
1001
ACAD
1000
DSTYLE
1002
{
1070
     3
1000
%%c<>\C7;\H3.5;
1070
    47
1040
0.0
1070
    48
1040
0.0
1070
    71
1070
     0
1070
    72
1070
     0
1070
    74
1070
     1
1070
   288
1070
     1
1002
}
  0
DIMENSION
  5
16A
330
2
100
AcDbEntity
  8
BEM
100
AcDbDimension
  2
*D4
 10
156.1610005550969
 20
63.49999999999999
 30
0.0
 11
156.1610005550969
 21
83.08333333333335
 31
0.0
 70
   160
 71
     5
 42
5.75
  3
1zu1
100
AcDbAlignedDimension
 13
133.4999999999999
 23
69.25
 33
0.0
 14
133.4999999999999
 24
63.5
 34
0.0
 50
90.0
100
AcDbRotatedDimension
  0
DIMENSION
  5
179
330
2
100
AcDbEntity
  8
BEM
100
AcDbDimension
  2
*D3
 10
156.1610005550971
 20
63.49999999999999
 30
0.0
 11
152.9110005550971
 21
42.50000000000002
 31
0.0
 70
    32
 71
     5
 42
42.0
  3
1zu1
100
AcDbAlignedDimension
 13
133.4999999999999
 23
21.5
 33
0.0
 14
133.4999999999999
 24
63.5
 34
0.0
 50
90.0
100
AcDbRotatedDimension
  0
DIMENSION
  5
188
330
2
100
AcDbEntity
  8
BEM
100
AcDbDimension
  2
*D2
 10
90.00085400069691
 20
23.81269563861831
 30
0.0
 11
78.88032358619375
 21
16.45663819744155
 31
0.0
 70
   164
 71
     5
 42
0.4999999999999432
  3
1zu1
100
AcDbRadialDimension
 15
90.41787389124072
 25
24.0885477926624
 35
0.0
 40
0.0
1001
ACAD
1000
DSTYLE
1002
{
1070
   288
1070
     1
1002
}
  0
LINE
  5
195
330
2
100
AcDbEntity
  8
sym1
100
AcDbLine
 10
112.4999999999999
 20
68.5
 30
0.0
 11
112.4999999999999
 21
16.5
 31
0.0
  0
LWPOLYLINE
  5
197
102
{ACAD_REACTORS
330
1A7
102
}
330
2
100
AcDbEntity
  8
0
100
AcDbPolyline
 90
        4
 70
     1
 43
0.0
 10
-7.141736460325916
 20
66.22638875752662
 42
-0.5902450876578456
 10
-7.786135264914578
 20
65.63375189279383
 42
3.296361496055632
 10
-6.255475684574379
 20
63.65687765125326
 42
-0.5902450876578451
 10
-5.520371127076672
 20
64.13236641278365
 42
4.69575956487086
  0
DIMENSION
  5
198
330
2
100
AcDbEntity
  8
BEM
100
AcDbDimension
  2
*D12
 10
-1.630164166804057
 20
64.68871330837965
 30
0.0
 11
-20.76985820043768
 21
78.34748288344016
 31
0.0
 70
   163
  1
<>
 71
     5
 42
6.499999999999943
  3
1zu1
100
AcDbDiametricDimension
 15
-5.99725283116583
 25
69.50312257615095
 35
0.0
 40
0.0
1001
ACAD
1000
DSTYLE
1002
{
1070
     3
1000
%%c<>\C7;\H3.5;
1070
    47
1040
0.0
1070
    48
1040
0.0
1070
    71
1070
     0
1070
    72
1070
     0
1070
    74
1070
     1
1070
   288
1070
     1
1002
}
  0
DIMENSION
  5
1A5
102
{ACAD_XDICTIONARY
360
1A6
102
}
102
{ACAD_REACTORS
330
1A7
102
}
330
2
100
AcDbEntity
  8
BEM
100
AcDbDimension
  2
*D11
 10
-7.627498657117801
 20
66.10791898008137
 30
0.0
 11
-17.29851200843108
 21
70.99380590968033
 31
0.0
 70
   164
  1
<>
 71
     5
 42
0.5000000000000142
  3
1zu1
100
AcDbRadialDimension
 15
-7.181218870486727
 25
65.88245423329256
 35
0.0
 40
0.0
1001
ACAD
1000
DSTYLE
1002
{
1070
     3
1000
R<>\C7;\H3.5;
1070
    47
1040
0.0
1070
    48
1040
0.0
1070
    71
1070
     0
1070
    72
1070
     0
1070
    74
1070
     1
1070
   279
1070
     1
1070
   288
1070
     1
1002
}
  0
LWPOLYLINE
  5
1B1
330
2
100
AcDbEntity
  8
0
100
AcDbPolyline
 90
        4
 70
     1
 43
0.0
 10
36.22638875752656
 20
62.14173646032584
 42
-0.5902450876578456
 10
35.63375189279379
 20
62.78613526491451
 42
3.296361496055632
 10
33.65687765125321
 20
61.25547568457431
 42
-0.5902450876578451
 10
34.1323664127836
 20
60.5203711270766
 42
4.69575956487086
  0
LINE
  5
1B2
330
2
100
AcDbEntity
  8
sym1
100
AcDbLine
 10
138.4999999999999
 20
42.5
 30
0.0
 11
86.49999999999991
 21
42.5
 31
0.0
  0
LWPOLYLINE
  5
1BE
330
2
100
AcDbEntity
  8
0
100
AcDbPolyline
 90
        4
 70
     1
 43
0.0
 10
92.72109471392658
 20
65.38982213438734
 42
-0.5989583665998948
 10
92.7934558821593
 20
66.26847826086955
 42
4.817730411281746
 10
90.20654411784056
 20
66.26847826086955
 42
-0.5989583665998861
 10
90.27890528607324
 20
65.38982213438734
 42
3.390254733864925
  0
LWPOLYLINE
  5
1C0
330
2
100
AcDbEntity
  8
0
100
AcDbPolyline
 90
        4
 70
     1
 43
0.0
 10
132.2789052860732
 20
65.38982213438734
 42
0.5989583665998948
 10
132.2065441178405
 20
66.26847826086955
 42
-4.817730411281746
 10
134.7934558821592
 20
66.26847826086955
 42
0.5989583665998861
 10
134.7210947139266
 20
65.38982213438734
 42
-3.390254733864925
  0
MTEXT
  5
1C1
330
2
100
AcDbEntity
  8
BEM
100
AcDbMText
 10
67.70901632924472
 20
212.2748438807578
 30
0.0
 40
5.0
 41
273.6718
 71
     8
 72
     5
  1
{\C7;Empfohlene Lochbilder für Axiallüfter 50 mm\PRecommended hole cut-outs vor Axialfan 50 mm}
 73
     1
 44
1.0
1001
ACAD
1000
MTEXTBEGIN
1070
    73
1070
     1
1070
    44
1040
1.0
1070
    74
1070
     0
1000
MTEXTEND
  0
MTEXT
  5
1C2
330
2
100
AcDbEntity
  8
BEM
100
AcDbMText
 10
12.49999999999991
 20
182.6297050765749
 30
0.0
 40
5.0
 41
69.43909999999999
 71
     8
 72
     5
  1
{\C7;Lochbild 1\PHole cut-out 1}
 73
     1
 44
1.0
1001
ACAD
1000
MTEXTBEGIN
1070
    73
1070
     1
1070
    44
1040
1.0
1070
    74
1070
     0
1000
MTEXTEND
  0
MTEXT
  5
1C3
330
2
100
AcDbEntity
  8
BEM
100
AcDbMText
 10
112.4999999999999
 20
182.6297050765749
 30
0.0
 40
5.0
 41
69.43909999999999
 71
     8
 72
     5
  1
{\C7;Lochbild 2\PHole cut-out 2}
 73
     1
 44
1.0
1001
ACAD
1000
MTEXTBEGIN
1070
    73
1070
     1
1070
    44
1040
1.0
1070
    74
1070
     0
1000
MTEXTEND
  0
DIMENSION
  5
819
102
{ACAD_XDICTIONARY
360
822
102
}
102
{ACAD_REACTORS
330
828
102
}
330
2
100
AcDbEntity
  8
BEM
100
AcDbDimension
  2
*D19
 10
-7.242254362610133
 20
118.8528980115922
 30
0.0
 11
20.70537446945973
 21
138.1720767639319
 31
0.0
 70
   163
 71
     5
 42
47.99999999999998
  3
1zu1
100
AcDbDiametricDimension
 15
32.24225436260996
 25
146.1471019884077
 35
0.0
 40
0.0
1001
ACAD
1000
DSTYLE
1002
{
1070
   288
1070
     1
1002
}
  0
DIMENSION
  5
ACA
102
{ACAD_XDICTIONARY
360
AD3
102
}
102
{ACAD_REACTORS
330
AD9
102
}
330
2
100
AcDbEntity
  8
BEM
100
AcDbDimension
  2
*D20
 10
32.09168470561532
 20
28.63760877785672
 30
0.0
 11
3.4524511602539
 21
48.90172927967034
 31
0.0
 70
   163
 71
     5
 42
48.0
  3
1zu1
100
AcDbDiametricDimension
 15
-7.091684705615495
 25
56.36239122214329
 35
0.0
 40
0.0
1001
ACAD
1000
DSTYLE
1002
{
1070
   288
1070
     1
1002
}
  0
DIMENSION
  5
ADA
330
2
100
AcDbEntity
  8
BEM
100
AcDbDimension
  2
*D21
 10
12.49999999999991
 20
42.50000000000003
 30
0.0
 11
36.12741308594577
 21
78.24380219677633
 31
0.0
 70
    36
 71
     5
 42
28.13975472417615
  3
1zu1
100
AcDbRadialDimension
 15
23.21257116155991
 25
68.52088805258784
 35
0.0
 40
0.0
1001
ACAD
1000
DSTYLE
1002
{
1070
     3
1000
R<>\C7;\H3.5;
1070
    48
1040
0.0
1070
    74
1070
     1
1070
   288
1070
     1
1002
}
  0
DIMENSION
  5
B9F
330
2
100
AcDbEntity
  8
BEM
100
AcDbDimension
  2
*D22
 10
93.1858222630951
 20
149.430065028685
 30
0.0
 11
100.0263465497552
 21
144.9736534502446
 31
0.0
 70
    34
 71
     5
 42
0.785398163397427
  3
1zu1
100
AcDb2LineAngularDimension
 13
95.56993497131484
 23
151.8141777369048
 33
0.0
 14
93.99832127011578
 24
152.4651614467528
 34
0.0
 15
92.53483855324708
 25
151.0016787298841
 35
0.0
 16
100.8189655686374
 26
141.3552876223181
 36
0.0
  0
DIMENSION
  5
BBF
102
{ACAD_XDICTIONARY
360
BC8
102
}
102
{ACAD_REACTORS
330
BCE
102
}
330
2
100
AcDbEntity
  8
BEM
100
AcDbDimension
  2
*D23
 10
91.23850039599487
 20
121.3667778882799
 30
0.0
 11
122.3186786365717
 21
137.6413838224263
 31
0.0
 70
   163
 71
     5
 42
48.00000000000003
  3
1zu1
100
AcDbDiametricDimension
 15
133.761499604005
 25
143.63322211172
 35
0.0
 40
0.0
1001
ACAD
1000
DSTYLE
1002
{
1070
   288
1070
     1
1002
}
  0
DIMENSION
  5
BCF
330
2
100
AcDbEntity
  8
BEM
100
AcDbDimension
  2
*D24
 10
97.23701627930445
 20
113.335153850297
 30
0.0
 11
106.4577922928897
 21
123.1781403982156
 31
0.0
 70
   164
 71
     5
 42
0.4999999999999148
  3
1zu1
100
AcDbRadialDimension
 15
97.35487523226121
 25
113.8210646108362
 35
0.0
 40
0.0
1001
ACAD
1000
DSTYLE
1002
{
1070
     3
1000
R<>\C7;\H3.5;
1070
    48
1040
0.0
1070
    74
1070
     1
1070
   288
1070
     1
1002
}
  0
DIMENSION
  5
CFB
330
2
100
AcDbEntity
  8
BEM
100
AcDbDimension
  2
*D25
 10
93.16602185722995
 20
28.28039068135508
 30
0.0
 11
120.5356846655887
 21
48.4100251230618
 31
0.0
 70
   163
 71
     5
 42
48.00000000000004
  3
1zu1
100
AcDbDiametricDimension
 15
131.8339781427699
 25
56.71960931864493
 35
0.0
 40
0.0
1001
ACAD
1000
DSTYLE
1002
{
1070
   288
1070
     1
1002
}
  0
LWPOLYLINE
  5
D3B
330
2
100
AcDbEntity
  8
ver1
100
AcDbPolyline
 90
        8
 70
     1
 43
0.0
 10
-11.50000000000007
 20
122.4999999999999
 42
0.1978251872643185
 10
2.499999999999888
 20
108.5
 10
22.49999999999994
 20
108.5
 42
0.1978251872643197
 10
36.49999999999993
 20
122.5
 10
36.49999999999993
 20
142.5
 42
0.1978251872643199
 10
22.49999999999989
 20
156.5
 10
2.499999999999896
 20
156.5
 42
0.197825187264319
 10
-11.50000000000006
 20
142.5
  0
LWPOLYLINE
  5
D3C
330
2
100
AcDbEntity
  8
ver1
100
AcDbPolyline
 90
        8
 70
     1
 43
0.0
 10
88.49999999999994
 20
122.4999999999999
 42
0.1978251872643185
 10
102.4999999999999
 20
108.5
 10
122.4999999999999
 20
108.4999999999999
 42
0.1978251872643197
 10
136.4999999999999
 20
122.5
 10
136.4999999999999
 20
142.4999999999999
 42
0.1978251872643199
 10
122.4999999999999
 20
156.4999999999999
 10
102.4999999999999
 20
156.4999999999999
 42
0.197825187264319
 10
88.49999999999996
 20
142.5
  0
LWPOLYLINE
  5
D3D
330
2
100
AcDbEntity
  8
ver1
100
AcDbPolyline
 90
        8
 70
     1
 43
0.0
 10
88.49999999999994
 20
32.49999999999997
 42
0.1978251872643185
 10
102.4999999999999
 20
18.50000000000001
 10
122.4999999999999
 20
18.5
 42
0.1978251872643197
 10
136.4999999999999
 20
32.50000000000003
 10
136.4999999999999
 20
52.49999999999997
 42
0.1978251872643199
 10
122.4999999999999
 20
66.5
 10
102.4999999999999
 20
66.5
 42
0.197825187264319
 10
88.49999999999996
 20
52.50000000000006
  0
LWPOLYLINE
  5
D3E
330
2
100
AcDbEntity
  8
ver1
100
AcDbPolyline
 90
        8
 70
     1
 43
0.0
 10
-11.50000000000007
 20
32.49999999999997
 42
0.1978251872643185
 10
2.499999999999888
 20
18.50000000000001
 10
22.49999999999994
 20
18.5
 42
0.1978251872643197
 10
36.49999999999993
 20
32.50000000000003
 10
36.49999999999993
 20
52.49999999999997
 42
0.1978251872643199
 10
22.49999999999989
 20
66.5
 10
2.499999999999896
 20
66.5
 42
0.197825187264319
 10
-11.50000000000006
 20
52.50000000000006
  0
CIRCLE
  5
DD3
330
2
100
AcDbEntity
  8
sym1
100
AcDbCircle
 10
12.49999999999991
 20
42.5
 30
0.0
 40
29.698484809835
  0
LWPOLYLINE
  5
E63
330
2
100
AcDbEntity
  8
0
100
AcDbPolyline
 90
       24
 70
     1
 43
0.0
 10
132.2753631931339
 20
23.38752872594545
 42
3.378576164580652
 10
134.7246368068659
 20
23.38752872594543
 42
-0.3616214947864874
 10
134.5348385532471
 20
23.99832127011586
 10
134.5372062330473
 20
24.00403735480085
 42
-0.1940907811865954
 10
134.7992598660625
 20
24.27100288680251
 42
0.7475618832586495
 10
134.0260241739377
 20
30.45714804279958
 42
-0.5139913830251962
 10
133.6659927868683
 20
31.18625838432605
 42
1.668418862808214
 10
91.33400721313146
 20
31.18625838432605
 42
-0.5139913830251893
 10
90.97397582606213
 20
30.45714804279957
 42
0.7475618832586512
 10
90.20074013393729
 20
24.27100288680251
 42
-0.1940907811865913
 10
90.46279376695252
 20
24.00403735480083
 10
90.46516144675274
 20
23.99832127011586
 42
-0.3616214947864774
 10
90.27536319313396
 20
23.38752872594543
 42
3.378576164580631
 10
92.72463680686588
 20
23.38752872594545
 42
-0.3616214947864746
 10
92.53483855324708
 20
23.99832127011585
 10
92.53720623304728
 20
24.00403735480082
 42
-0.1940907811865942
 10
92.79925986606253
 20
24.27100288680251
 42
0.172258872533947
 10
94.38694094112715
 20
25.75732722861173
 42
-0.5139913830251797
 10
95.1916757890291
 20
25.87405903390964
 42
0.4260411894315912
 10
129.8083242109706
 20
25.87405903390956
 42
-0.5139913830251674
 10
130.6130590588726
 20
25.75732722861167
 42
0.1722588725339427
 10
132.2007401339373
 20
24.27100288680252
 42
-0.1940907811865971
 10
132.4627937669525
 20
24.00403735480085
 10
132.4651614467527
 20
23.99832127011585
 42
-0.3616214947864854
  0
LWPOLYLINE
  5
EF0
330
2
100
AcDbEntity
  8
0
100
AcDbPolyline
 90
       32
 70
     1
 43
0.0
 10
132.4651614467527
 20
113.9983212701158
 10
131.2029063834473
 20
117.045674563122
 42
-0.2727906750672142
 10
131.2737268405253
 20
117.5485057429922
 42
0.3495485514449529
 10
131.2737268405253
 20
147.4514942570077
 42
-0.2727906750672626
 10
131.2029063834472
 20
147.954325436878
 10
132.4651614467527
 20
151.0016787298841
 42
-0.3616214947864815
 10
133.031264628825
 20
151.299366647574
 42
3.378576164580722
 10
131.2993666475739
 20
153.0312646288251
 42
-0.3616214947864666
 10
131.0016787298841
 20
152.4651614467528
 10
127.9543254368778
 20
151.2029063834473
 42
-0.272790675067241
 10
127.4514942570076
 20
151.2737268405254
 42
0.3495485514449519
 10
97.5485057429922
 20
151.2737268405254
 42
-0.2727906750672338
 10
97.04567456312201
 20
151.2029063834473
 10
93.99832127011578
 20
152.4651614467528
 42
-0.3616214947864815
 10
93.70063335242589
 20
153.0312646288251
 42
3.378576164580675
 10
91.96873537117479
 20
151.299366647574
 42
-0.3616214947864863
 10
92.53483855324708
 20
151.0016787298841
 10
93.79709361655256
 20
147.954325436878
 42
-0.272790675067231
 10
93.72627315947456
 20
147.4514942570078
 42
0.3495485514449537
 10
93.7262731594745
 20
117.5485057429922
 42
-0.2727906750672381
 10
93.79709361655253
 20
117.045674563122
 10
92.53483855324708
 20
113.9983212701158
 42
-0.3616214947864797
 10
91.96873537117481
 20
113.7006333524259
 42
3.378576164580661
 10
93.70063335242589
 20
111.9687353711748
 42
-0.3616214947864862
 10
93.99832127011578
 20
112.5348385532471
 10
97.0456745631219
 20
113.7970936165526
 42
-0.2727906750672292
 10
97.5485057429921
 20
113.7262731594746
 42
0.3495485514449544
 10
127.4514942570077
 20
113.7262731594745
 42
-0.2727906750672512
 10
127.9543254368779
 20
113.7970936165526
 10
131.0016787298841
 20
112.5348385532471
 42
-0.3616214947864762
 10
131.2993666475739
 20
111.9687353711749
 42
3.378576164580656
 10
133.031264628825
 20
113.7006333524259
 42
-0.3616214947864881
  0
ENDSEC
  0
SECTION
  2
OBJECTS
  0
DICTIONARY
  5
7
330
0
100
AcDbDictionary
281
     1
  3
ACAD_COLOR
350
203
  3
ACAD_GROUP
350
22
  3
ACAD_LAYOUT
350
B
  3
ACAD_MATERIAL
350
202
  3
ACAD_MLINESTYLE
350
23
  3
ACAD_PLOTSETTINGS
350
24
  3
ACAD_PLOTSTYLENAME
350
6
  3
ACDBHEADERROUNDTRIPXREC
350
EFA
  3
AcDbVariableDictionary
350
1C6
  0
DICTIONARY
  5
36
330
35
100
AcDbDictionary
280
     1
281
     1
  3
ACAD_DIMASSOC
360
37
  0
DICTIONARY
  5
52
330
51
100
AcDbDictionary
280
     1
281
     1
  3
ACAD_DIMASSOC
360
53
  0
DICTIONARY
  5
85
330
84
100
AcDbDictionary
280
     1
281
     1
  3
ACAD_DIMASSOC
360
86
  0
DICTIONARY
  5
DA
330
D9
100
AcDbDictionary
280
     1
281
     1
  3
ACAD_DIMASSOC
360
DB
  0
DICTIONARY
  5
11A
330
119
100
AcDbDictionary
280
     1
281
     1
  3
ACAD_DIMASSOC
360
11B
  0
DICTIONARY
  5
1A6
330
1A5
100
AcDbDictionary
280
     1
281
     1
  3
ACAD_DIMASSOC
360
1A7
  0
DICTIONARY
  5
822
330
819
100
AcDbDictionary
280
     1
281
     1
  3
ACAD_DIMASSOC
360
828
  0
DICTIONARY
  5
AD3
330
ACA
100
AcDbDictionary
280
     1
281
     1
  3
ACAD_DIMASSOC
360
AD9
  0
DICTIONARY
  5
BC8
330
BBF
100
AcDbDictionary
280
     1
281
     1
  3
ACAD_DIMASSOC
360
BCE
  0
DICTIONARY
  5
203
102
{ACAD_REACTORS
330
7
102
}
330
7
100
AcDbDictionary
281
     1
  0
DICTIONARY
  5
22
102
{ACAD_REACTORS
330
7
102
}
330
7
100
AcDbDictionary
281
     1
  0
DICTIONARY
  5
B
102
{ACAD_REACTORS
330
7
102
}
330
7
100
AcDbDictionary
281
     1
  3
DIN-A3
350
F
  3
Model
350
A
  0
DICTIONARY
  5
202
102
{ACAD_REACTORS
330
7
102
}
330
7
100
AcDbDictionary
281
     1
  0
DICTIONARY
  5
23
102
{ACAD_REACTORS
330
7
102
}
330
7
100
AcDbDictionary
281
     1
  3
Standard
350
26
  0
DICTIONARY
  5
24
102
{ACAD_REACTORS
330
7
102
}
330
7
100
AcDbDictionary
281
     1
  0
ACDBDICTIONARYWDFLT
  5
6
102
{ACAD_REACTORS
330
7
102
}
330
7
100
AcDbDictionary
281
     1
  3
Normal
350
5
100
AcDbDictionaryWithDefault
340
5
  0
DICTIONARY
  5
EFA
102
{ACAD_REACTORS
330
7
102
}
330
7
100
AcDbDictionary
281
     1
  3
COLORDICT
350
EFC
  3
MATERIALDICT
350
EFB
  0
DICTIONARY
  5
1C6
102
{ACAD_REACTORS
330
7
102
}
330
7
100
AcDbDictionary
281
     1
  3
DIMASSOC
350
1C8
  3
HIDETEXT
350
1C7
  3
PROJECTNAME
350
76B
  0
DIMASSOC
  5
37
102
{ACAD_REACTORS
330
36
102
}
330
36
100
AcDbDimAssoc
330
35
 90
        3
 70
     0
 71
     0
  1
AcDbOsnapPointRef
 72
     3
331
9E
 73
     2
 91
        0
 40
0.0
 10
53.49999999999992
 20
128.5
 30
0.0
 75
     0
  1
AcDbOsnapPointRef
 72
     3
331
ED
 73
     2
 91
        0
 40
0.0
 10
21.49999999999992
 20
128.5
 30
0.0
 75
     0
  0
DIMASSOC
  5
53
102
{ACAD_REACTORS
330
52
102
}
330
52
100
AcDbDimAssoc
330
51
 90
        3
 70
     0
 71
     0
  1
AcDbOsnapPointRef
 72
     5
331
64
 73
     2
 91
        0
 40
0.0
 10
56.49999999999992
 20
96.5
 30
0.0
 75
     0
  1
AcDbOsnapPointRef
 72
     5
331
83
 73
     2
 91
        0
 40
0.0
 10
55.99999999999992
 20
96.5
 30
0.0
 75
     0
  0
DIMASSOC
  5
86
102
{ACAD_REACTORS
330
85
102
}
330
85
100
AcDbDimAssoc
330
84
 90
        2
 70
     0
 71
     0
  1
AcDbOsnapPointRef
 72
     3
331
9E
 73
     2
 91
        0
 40
0.0
 10
53.49999999999992
 20
128.5
 30
0.0
 75
     0
  0
DIMASSOC
  5
DB
102
{ACAD_REACTORS
330
DA
102
}
330
DA
100
AcDbDimAssoc
330
D9
 90
        3
 70
     0
 71
     0
  1
AcDbOsnapPointRef
 72
     3
331
EA
 73
     2
 91
        0
 40
0.0
 10
21.49999999999992
 20
96.5
 30
0.0
 75
     0
  1
AcDbOsnapPointRef
 72
     3
331
ED
 73
     2
 91
        0
 40
0.0
 10
21.49999999999992
 20
128.5
 30
0.0
 75
     0
  0
DIMASSOC
  5
11B
102
{ACAD_REACTORS
330
11A
102
}
330
11A
100
AcDbDimAssoc
330
119
 90
       15
 70
     0
 71
     0
  1
AcDbOsnapPointRef
 72
    13
331
148
 73
     2
 91
        0
 40
0.0
 10
97.49999999999992
 20
52.5
 30
0.0
 75
     0
  1
AcDbOsnapPointRef
 72
     1
331
148
 73
     2
 91
        0
 40
1.0
 10
108.9842821811785
 20
33.0035576890792
 30
0.0
 75
     0
  1
AcDbOsnapPointRef
 72
    13
331
149
 73
     2
 91
        0
 40
0.0
 10
113.4999999999999
 20
36.5
 30
0.0
 75
     0
  1
AcDbOsnapPointRef
 72
     1
331
149
 73
     2
 91
        0
 40
0.9999999999999998
 10
97.49999999999992
 20
52.5
 30
0.0
 75
     0
  0
DIMASSOC
  5
1A7
102
{ACAD_REACTORS
330
1A6
102
}
330
1A6
100
AcDbDimAssoc
330
1A5
 90
        2
 70
     0
 71
     0
  1
AcDbOsnapPointRef
 72
     3
331
197
 73
     2
 91
        1
 40
0.0
 10
82.3725013428822
 20
71.10791898008137
 30
0.0
 75
     0
  0
DIMASSOC
  5
828
102
{ACAD_REACTORS
330
822
102
}
330
822
100
AcDbDimAssoc
330
819
 90
        2
 70
     0
 71
     0
  1
AcDbOsnapPointRef
 72
     3
331
9F
 73
     2
 91
        0
 40
0.0
 10
0.0
 20
0.0
 30
0.0
 75
     0
  0
DIMASSOC
  5
AD9
102
{ACAD_REACTORS
330
AD3
102
}
330
AD3
100
AcDbDimAssoc
330
ACA
 90
        2
 70
     0
 71
     0
  1
AcDbOsnapPointRef
 72
     3
331
10B
 73
     2
 91
        0
 40
0.0
 10
0.0
 20
0.0
 30
0.0
 75
     0
  0
DIMASSOC
  5
BCE
102
{ACAD_REACTORS
330
BC8
102
}
330
BC8
100
AcDbDimAssoc
330
BBF
 90
        2
 70
     0
 71
     0
  1
AcDbOsnapPointRef
 72
     3
331
0
 73
     2
 91
        0
 40
0.0
 10
0.0
 20
0.0
 30
0.0
 75
     0
  0
LAYOUT
  5
F
102
{ACAD_XDICTIONARY
360
EFF
102
}
102
{ACAD_REACTORS
330
B
102
}
330
B
100
AcDbPlotSettings
  1

  2
HP LaserJet 5000 N PCL 6
  4
A4
  6

 40
4.233333110809326
 41
4.233341693878173
 42
7.789321899414062
 43
4.23333740234375
 44
209.9733276367187
 45
296.9259948730469
 46
0.0
 47
4.259999999999999
 48
0.0
 49
0.0
140
420.0
141
297.0
142
1.0
143
1.50037378534397
 70
   692
 72
     1
 73
     1
 74
     4
  7
fein.ctb
 75
     0
147
0.6665005812339912
148
0.0
149
0.0
100
AcDbLayout
  1
DIN-A3
 70
     1
 71
     1
 10
-12.74318078855802
 20
-6.351582024086956
 11
432.7567981061398
 21
308.6868943834866
 12
0.0
 22
0.0
 32
0.0
 14
0.0
 24
0.0
 34
0.0
 15
420.0
 25
297.0
 35
0.0
146
0.0
 13
0.0
 23
0.0
 33
0.0
 16
1.0
 26
0.0
 36
0.0
 17
0.0
 27
1.0
 37
0.0
 76
     0
330
C
  0
LAYOUT
  5
A
102
{ACAD_XDICTIONARY
360
EFD
102
}
102
{ACAD_REACTORS
330
B
102
}
330
B
100
AcDbPlotSettings
  1

  2
HP LaserJet 5000 N PCL 6
  4

  6

 40
0.0
 41
0.0
 42
0.0
 43
0.0
 44
0.0
 45
0.0
 46
0.0
 47
0.0
 48
0.0
 49
0.0
140
0.0
141
0.0
142
1.0
143
1.0
 70
  1712
 72
     0
 73
     0
 74
     0
  7
mittel.ctb
 75
     0
147
1.0
148
0.0
149
0.0
100
AcDbLayout
  1
Model
 70
     1
 71
     0
 10
0.0
 20
0.0
 11
12.0
 21
9.0
 12
0.0
 22
0.0
 32
0.0
 14
0.0
 24
0.0
 34
0.0
 15
0.0
 25
0.0
 35
0.0
146
0.0
 13
0.0
 23
0.0
 33
0.0
 16
1.0
 26
0.0
 36
0.0
 17
0.0
 27
1.0
 37
0.0
 76
     0
330
2
  0
MLINESTYLE
  5
26
102
{ACAD_REACTORS
330
23
102
}
330
23
100
AcDbMlineStyle
  2
STANDARD
 70
     0
  3

 62
   256
 51
90.0
 52
90.0
 71
     2
 49
0.5
 62
   256
  6
BYLAYER
 49
-0.5
 62
   256
  6
BYLAYER
  0
ACDBPLACEHOLDER
  5
5
102
{ACAD_REACTORS
330
6
102
}
330
6
  0
XRECORD
  5
EFC
102
{ACAD_REACTORS
330
EFA
102
}
330
EFA
100
AcDbXrecord
280
     1
340
203
  0
XRECORD
  5
EFB
102
{ACAD_REACTORS
330
EFA
102
}
330
EFA
100
AcDbXrecord
280
     1
340
202
  0
DICTIONARYVAR
  5
1C8
102
{ACAD_REACTORS
330
1C6
102
}
330
1C6
100
DictionaryVariables
280
     0
  1
2
  0
DICTIONARYVAR
  5
1C7
102
{ACAD_REACTORS
330
1C6
102
}
330
1C6
100
DictionaryVariables
280
     0
  1
1
  0
DICTIONARYVAR
  5
76B
102
{ACAD_REACTORS
330
1C6
102
}
330
1C6
100
DictionaryVariables
280
     0
  1

  0
DICTIONARY
  5
EFF
330
F
100
AcDbDictionary
280
     1
281
     1
  3
ACAD_XREC_ROUNDTRIP
360
F00
  0
DICTIONARY
  5
EFD
330
A
100
AcDbDictionary
280
     1
281
     1
  3
ACAD_XREC_ROUNDTRIP
360
EFE
  0
XRECORD
  5
F00
102
{ACAD_REACTORS
330
EFF
102
}
330
EFF
100
AcDbXrecord
280
     1
102
SHADEPLOT
 70
     0
102
SHADEPLOTRESLEVEL
 70
     2
102
SHADEPLOTCUSTOMDPI
 70
   300
  0
XRECORD
  5
EFE
102
{ACAD_REACTORS
330
EFD
102
}
330
EFD
100
AcDbXrecord
280
     1
102
SHADEPLOT
 70
     0
102
SHADEPLOTRESLEVEL
 70
     2
102
SHADEPLOTCUSTOMDPI
 70
   300
  0
ENDSEC
  0
EOF
