  0
SECTION
  2
HEADER
  9
$ACADVER
  1
AC1015
  9
$ACADMAINTVER
 70
    20
  9
$DWGCODEPAGE
  3
ANSI_1252
  9
$INSBASE
 10
0.0
 20
0.0
 30
0.0
  9
$EXTMIN
 10
-21.43254960450511
 20
83.21553589544453
 30
0.0
  9
$EXTMAX
 10
85.7499999999999
 20
199.5165540392984
 30
0.0
  9
$LIMMIN
 10
0.0
 20
0.0
  9
$LIMMAX
 10
420.0
 20
297.0
  9
$ORTHOMODE
 70
     1
  9
$REGENMODE
 70
     1
  9
$FILLMODE
 70
     1
  9
$QTEXTMODE
 70
     0
  9
$MIRRTEXT
 70
     1
  9
$LTSCALE
 40
1.0
  9
$ATTMODE
 70
     1
  9
$TEXTSIZE
 40
2.5
  9
$TRACEWID
 40
1.0
  9
$TEXTSTYLE
  7
STANDARD
  9
$CLAYER
  8
BEM
  9
$CELTYPE
  6
ByLayer
  9
$CECOLOR
 62
   256
  9
$CELTSCALE
 40
1.0
  9
$DISPSILH
 70
     0
  9
$DIMSCALE
 40
1.0
  9
$DIMASZ
 40
3.5
  9
$DIMEXO
 40
0.0
  9
$DIMDLI
 40
10.0
  9
$DIMRND
 40
0.0
  9
$DIMDLE
 40
0.0
  9
$DIMEXE
 40
2.0
  9
$DIMTP
 40
0.0
  9
$DIMTM
 40
0.000000001
  9
$DIMTXT
 40
3.5
  9
$DIMCEN
 40
1.5
  9
$DIMTSZ
 40
0.0
  9
$DIMTOL
 70
     0
  9
$DIMLIM
 70
     0
  9
$DIMTIH
 70
     0
  9
$DIMTOH
 70
     0
  9
$DIMSE1
 70
     0
  9
$DIMSE2
 70
     0
  9
$DIMTAD
 70
     1
  9
$DIMZIN
 70
     8
  9
$DIMBLK
  1

  9
$DIMASO
 70
     1
  9
$DIMSHO
 70
     1
  9
$DIMPOST
  1

  9
$DIMAPOST
  1

  9
$DIMALT
 70
     0
  9
$DIMALTD
 70
     2
  9
$DIMALTF
 40
25.4
  9
$DIMLFAC
 40
1.0
  9
$DIMTOFL
 70
     1
  9
$DIMTVP
 40
0.0
  9
$DIMTIX
 70
     0
  9
$DIMSOXD
 70
     0
  9
$DIMSAH
 70
     0
  9
$DIMBLK1
  1

  9
$DIMBLK2
  1

  9
$DIMSTYLE
  2
1ZU1
  9
$DIMCLRD
 70
   256
  9
$DIMCLRE
 70
   256
  9
$DIMCLRT
 70
     7
  9
$DIMTFAC
 40
0.7
  9
$DIMGAP
 40
1.5
  9
$DIMJUST
 70
     0
  9
$DIMSD1
 70
     0
  9
$DIMSD2
 70
     0
  9
$DIMTOLJ
 70
     1
  9
$DIMTZIN
 70
     0
  9
$DIMALTZ
 70
     0
  9
$DIMALTTZ
 70
     0
  9
$DIMUPT
 70
     0
  9
$DIMDEC
 70
     4
  9
$DIMTDEC
 70
     4
  9
$DIMALTU
 70
     2
  9
$DIMALTTD
 70
     2
  9
$DIMTXSTY
  7
STANDARD
  9
$DIMAUNIT
 70
     0
  9
$DIMADEC
 70
     0
  9
$DIMALTRND
 40
0.0
  9
$DIMAZIN
 70
     0
  9
$DIMDSEP
 70
    46
  9
$DIMATFIT
 70
     3
  9
$DIMFRAC
 70
     0
  9
$DIMLDRBLK
  1

  9
$DIMLUNIT
 70
     2
  9
$DIMLWD
 70
    -2
  9
$DIMLWE
 70
    -2
  9
$DIMTMOVE
 70
     0
  9
$LUNITS
 70
     2
  9
$LUPREC
 70
     4
  9
$SKETCHINC
 40
1.0
  9
$FILLETRAD
 40
0.5
  9
$AUNITS
 70
     0
  9
$AUPREC
 70
     0
  9
$MENU
  1
.
  9
$ELEVATION
 40
0.0
  9
$PELEVATION
 40
0.0
  9
$THICKNESS
 40
0.0
  9
$LIMCHECK
 70
     0
  9
$CHAMFERA
 40
10.0
  9
$CHAMFERB
 40
10.0
  9
$CHAMFERC
 40
0.0
  9
$CHAMFERD
 40
0.0
  9
$SKPOLY
 70
     0
  9
$TDCREATE
 40
2452694.801882592
  9
$TDUCREATE
 40
2452694.760215926
  9
$TDUPDATE
 40
2456960.672013611
  9
$TDUUPDATE
 40
2456960.630346945
  9
$TDINDWG
 40
0.7895945255
  9
$TDUSRTIMER
 40
0.7895945255
  9
$USRTIMER
 70
     1
  9
$ANGBASE
 50
0.0
  9
$ANGDIR
 70
     0
  9
$PDMODE
 70
     0
  9
$PDSIZE
 40
0.0
  9
$PLINEWID
 40
0.0
  9
$SPLFRAME
 70
     0
  9
$SPLINETYPE
 70
     6
  9
$SPLINESEGS
 70
     8
  9
$HANDSEED
  5
B9
  9
$SURFTAB1
 70
     6
  9
$SURFTAB2
 70
     6
  9
$SURFTYPE
 70
     6
  9
$SURFU
 70
     6
  9
$SURFV
 70
     6
  9
$UCSBASE
  2

  9
$UCSNAME
  2

  9
$UCSORG
 10
0.0
 20
0.0
 30
0.0
  9
$UCSXDIR
 10
1.0
 20
0.0
 30
0.0
  9
$UCSYDIR
 10
0.0
 20
1.0
 30
0.0
  9
$UCSORTHOREF
  2

  9
$UCSORTHOVIEW
 70
     0
  9
$UCSORGTOP
 10
0.0
 20
0.0
 30
0.0
  9
$UCSORGBOTTOM
 10
0.0
 20
0.0
 30
0.0
  9
$UCSORGLEFT
 10
0.0
 20
0.0
 30
0.0
  9
$UCSORGRIGHT
 10
0.0
 20
0.0
 30
0.0
  9
$UCSORGFRONT
 10
0.0
 20
0.0
 30
0.0
  9
$UCSORGBACK
 10
0.0
 20
0.0
 30
0.0
  9
$PUCSBASE
  2

  9
$PUCSNAME
  2

  9
$PUCSORG
 10
0.0
 20
0.0
 30
0.0
  9
$PUCSXDIR
 10
1.0
 20
0.0
 30
0.0
  9
$PUCSYDIR
 10
0.0
 20
1.0
 30
0.0
  9
$PUCSORTHOREF
  2

  9
$PUCSORTHOVIEW
 70
     0
  9
$PUCSORGTOP
 10
0.0
 20
0.0
 30
0.0
  9
$PUCSORGBOTTOM
 10
0.0
 20
0.0
 30
0.0
  9
$PUCSORGLEFT
 10
0.0
 20
0.0
 30
0.0
  9
$PUCSORGRIGHT
 10
0.0
 20
0.0
 30
0.0
  9
$PUCSORGFRONT
 10
0.0
 20
0.0
 30
0.0
  9
$PUCSORGBACK
 10
0.0
 20
0.0
 30
0.0
  9
$USERI1
 70
     0
  9
$USERI2
 70
     0
  9
$USERI3
 70
     0
  9
$USERI4
 70
     0
  9
$USERI5
 70
     0
  9
$USERR1
 40
3.0
  9
$USERR2
 40
1.0
  9
$USERR3
 40
1.0
  9
$USERR4
 40
0.0
  9
$USERR5
 40
0.0
  9
$WORLDVIEW
 70
     1
  9
$SHADEDGE
 70
     3
  9
$SHADEDIF
 70
    70
  9
$TILEMODE
 70
     1
  9
$MAXACTVP
 70
    64
  9
$PINSBASE
 10
0.0
 20
0.0
 30
0.0
  9
$PLIMCHECK
 70
     0
  9
$PEXTMIN
 10
0.0
 20
0.0
 30
0.0
  9
$PEXTMAX
 10
420.0
 20
297.0
 30
0.0
  9
$PLIMMIN
 10
-12.74318078855802
 20
-6.351582024086956
  9
$PLIMMAX
 10
432.7567981061398
 20
308.6868943834866
  9
$UNITMODE
 70
     0
  9
$VISRETAIN
 70
     1
  9
$PLINEGEN
 70
     0
  9
$PSLTSCALE
 70
     1
  9
$TREEDEPTH
 70
  3020
  9
$CMLSTYLE
  2
Standard
  9
$CMLJUST
 70
     0
  9
$CMLSCALE
 40
1.0
  9
$PROXYGRAPHICS
 70
     1
  9
$MEASUREMENT
 70
     0
  9
$CELWEIGHT
370
    -1
  9
$ENDCAPS
280
     0
  9
$JOINSTYLE
280
     0
  9
$LWDISPLAY
290
     0
  9
$INSUNITS
 70
     0
  9
$HYPERLINKBASE
  1

  9
$STYLESHEET
  1

  9
$XEDIT
290
     1
  9
$CEPSNTYPE
380
     0
  9
$PSTYLEMODE
290
     1
  9
$FINGERPRINTGUID
  2
{4BFC08B5-EE9D-4E39-8A8C-CA1F9D5C2691}
  9
$VERSIONGUID
  2
{621DEB6F-5887-436C-85F3-0217E3CDD2AE}
  9
$EXTNAMES
290
     1
  9
$PSVPSCALE
 40
0.0
  9
$OLESTARTUP
290
     0
  0
ENDSEC
  0
SECTION
  2
CLASSES
  0
CLASS
  1
ACDBDICTIONARYWDFLT
  2
AcDbDictionaryWithDefault
  3
ObjectDBX Classes
 90
        0
280
     0
281
     0
  0
CLASS
  1
DICTIONARYVAR
  2
AcDbDictionaryVar
  3
ObjectDBX Classes
 90
        0
280
     0
281
     0
  0
CLASS
  1
ACDBPLACEHOLDER
  2
AcDbPlaceHolder
  3
ObjectDBX Classes
 90
        0
280
     0
281
     0
  0
CLASS
  1
LAYOUT
  2
AcDbLayout
  3
ObjectDBX Classes
 90
        0
280
     0
281
     0
  0
ENDSEC
  0
SECTION
  2
TABLES
  0
TABLE
  2
VPORT
  5
19
330
0
100
AcDbSymbolTable
 70
     2
  0
VPORT
  5
B0
330
19
100
AcDbSymbolTableRecord
100
AcDbViewportTableRecord
  2
*Active
 70
     0
 10
0.0
 20
0.0
 11
1.0
 21
1.0
 12
44.73060206716264
 22
141.4577064028121
 13
0.0
 23
0.0
 14
10.0
 24
10.0
 15
10.0
 25
10.0
 16
0.0
 26
0.0
 36
1.0
 17
0.0
 27
0.0
 37
0.0
 40
117.3178485429033
 41
2.031903190319031
 42
50.0
 43
0.0
 44
0.0
 50
0.0
 51
0.0
 71
     0
 72
   100
 73
     1
 74
     3
 75
     0
 76
     0
 77
     0
 78
     2
281
     0
 65
     1
110
0.0
120
0.0
130
0.0
111
1.0
121
0.0
131
0.0
112
0.0
122
1.0
132
0.0
 79
     0
146
0.0
  0
ENDTAB
  0
TABLE
  2
LTYPE
  5
14
330
0
100
AcDbSymbolTable
 70
     3
  0
LTYPE
  5
15
330
14
100
AcDbSymbolTableRecord
100
AcDbLinetypeTableRecord
  2
ByBlock
 70
     0
  3

 72
    65
 73
     0
 40
0.0
  0
LTYPE
  5
16
330
14
100
AcDbSymbolTableRecord
100
AcDbLinetypeTableRecord
  2
ByLayer
 70
     0
  3

 72
    65
 73
     0
 40
0.0
  0
LTYPE
  5
8
330
14
100
AcDbSymbolTableRecord
100
AcDbLinetypeTableRecord
  2
CONTINUOUS
 70
     0
  3
Solid line
 72
    65
 73
     0
 40
0.0
  0
LTYPE
  5
6C
330
14
100
AcDbSymbolTableRecord
100
AcDbLinetypeTableRecord
  2
ACAD_ISO04W100
 70
     0
  3
ISO Lang gestrichelt punktiert ____ . ____ . __
 72
    65
 73
     4
 40
30.0
 49
24.0
 74
     0
 49
-3.0
 74
     0
 49
0.0
 74
     0
 49
-3.0
 74
     0
  0
LTYPE
  5
82
330
14
100
AcDbSymbolTableRecord
100
AcDbLinetypeTableRecord
  2
VERDECKT
 70
     0
  3
Verdeckt __ __ __ __ __ __ __ __ __ __ __ __ __
 72
    65
 73
     2
 40
9.524999999999996
 49
6.349999999999997
 74
     0
 49
-3.174999999999998
 74
     0
  0
ENDTAB
  0
TABLE
  2
LAYER
  5
10
330
0
100
AcDbSymbolTable
 70
     5
  0
LAYER
  5
4
330
10
100
AcDbSymbolTableRecord
100
AcDbLayerTableRecord
  2
0
 70
     0
 62
     7
  6
CONTINUOUS
370
    -3
390
5
  0
LAYER
  5
24
330
10
100
AcDbSymbolTableRecord
100
AcDbLayerTableRecord
  2
BEM
 70
     0
 62
     3
  6
CONTINUOUS
370
    -3
390
5
  0
LAYER
  5
45
330
10
100
AcDbSymbolTableRecord
100
AcDbLayerTableRecord
  2
DEFPOINTS
 70
     0
 62
     7
  6
CONTINUOUS
290
     0
370
    -3
390
5
  0
LAYER
  5
81
330
10
100
AcDbSymbolTableRecord
100
AcDbLayerTableRecord
  2
VER1
 70
     0
 62
     8
  6
VERDECKT
370
    -3
390
5
  0
LAYER
  5
6B
330
10
100
AcDbSymbolTableRecord
100
AcDbLayerTableRecord
  2
SYM1
 70
     0
 62
     6
  6
ACAD_ISO04W100
370
    -3
390
5
  0
ENDTAB
  0
TABLE
  2
STYLE
  5
11
330
0
100
AcDbSymbolTable
 70
     2
  0
STYLE
  5
12
330
11
100
AcDbSymbolTableRecord
100
AcDbTextStyleTableRecord
  2
STANDARD
 70
     0
 40
0.0
 41
1.0
 50
0.0
 71
     0
 42
2.5
  3
txt
  4

  0
STYLE
  5
42
330
11
100
AcDbSymbolTableRecord
100
AcDbTextStyleTableRecord
  2
ROMANS
 70
     0
 40
0.0
 41
1.0
 50
0.0
 71
     0
 42
3.5
  3
C:\ACAD13\COM\FONTS\ROMANS.SHX
  4

  0
ENDTAB
  0
TABLE
  2
VIEW
  5
17
330
0
100
AcDbSymbolTable
 70
     0
  0
ENDTAB
  0
TABLE
  2
UCS
  5
18
330
0
100
AcDbSymbolTable
 70
     0
  0
ENDTAB
  0
TABLE
  2
APPID
  5
1B
330
0
100
AcDbSymbolTable
 70
     2
  0
APPID
  5
1C
330
1B
100
AcDbSymbolTableRecord
100
AcDbRegAppTableRecord
  2
ACAD
 70
     0
  0
APPID
  5
AA
330
1B
100
AcDbSymbolTableRecord
100
AcDbRegAppTableRecord
  2
DCO15
 70
     0
  0
ENDTAB
  0
TABLE
  2
DIMSTYLE
  5
1D
330
0
100
AcDbSymbolTable
 70
     2
100
AcDbDimStyleTable
 71
     1
340
26
  0
DIMSTYLE
105
36
102
{ACAD_REACTORS
330
84
330
5D
330
35
102
}
330
1D
100
AcDbSymbolTableRecord
100
AcDbDimStyleTableRecord
  2
ISO-25
 70
     0
 41
2.5
 42
0.625
 43
3.75
 44
1.25
 73
     0
 74
     0
 77
     1
 78
     8
140
2.5
141
2.5
143
0.03937007874016
147
0.625
171
     3
172
     1
279
     2
284
     8
285
     8
286
     8
340
12
  0
DIMSTYLE
105
26
102
{ACAD_REACTORS
330
9C
102
}
330
1D
100
AcDbSymbolTableRecord
100
AcDbDimStyleTableRecord
  2
1ZU1
 70
     0
 41
3.5
 42
0.0
 43
10.0
 44
2.0
 48
0.000000001
 73
     0
 74
     0
 77
     1
 78
     8
140
3.5
141
1.5
146
0.7
147
1.5
172
     1
176
   256
177
   256
178
     7
279
     2
284
     8
285
     8
286
     8
340
12
  0
ENDTAB
  0
TABLE
  2
BLOCK_RECORD
  5
1
330
0
100
AcDbSymbolTable
 70
    12
  0
BLOCK_RECORD
  5
2
330
1
100
AcDbSymbolTableRecord
100
AcDbBlockTableRecord
  2
*Model_Space
340
A
  0
BLOCK_RECORD
  5
C
330
1
100
AcDbSymbolTableRecord
100
AcDbBlockTableRecord
  2
*Paper_Space
340
F
  0
BLOCK_RECORD
  5
4A
330
1
100
AcDbSymbolTableRecord
100
AcDbBlockTableRecord
  2
*D0
340
0
  0
BLOCK_RECORD
  5
54
330
1
100
AcDbSymbolTableRecord
100
AcDbBlockTableRecord
  2
*U1
340
0
102
{BLKREFS
331
53
102
}
  0
BLOCK_RECORD
  5
6F
330
1
100
AcDbSymbolTableRecord
100
AcDbBlockTableRecord
  2
*D2
340
0
  0
BLOCK_RECORD
  5
75
330
1
100
AcDbSymbolTableRecord
100
AcDbBlockTableRecord
  2
*U3
340
0
102
{BLKREFS
331
74
102
}
  0
BLOCK_RECORD
  5
37
330
1
100
AcDbSymbolTableRecord
100
AcDbBlockTableRecord
  2
*D4
340
0
  0
BLOCK_RECORD
  5
3F
330
1
100
AcDbSymbolTableRecord
100
AcDbBlockTableRecord
  2
*U5
340
0
102
{BLKREFS
331
3E
102
}
  0
BLOCK_RECORD
  5
5E
330
1
100
AcDbSymbolTableRecord
100
AcDbBlockTableRecord
  2
*D6
340
0
  0
BLOCK_RECORD
  5
62
330
1
100
AcDbSymbolTableRecord
100
AcDbBlockTableRecord
  2
*U7
340
0
102
{BLKREFS
331
61
102
}
  0
BLOCK_RECORD
  5
85
330
1
100
AcDbSymbolTableRecord
100
AcDbBlockTableRecord
  2
*D8
340
0
  0
BLOCK_RECORD
  5
8D
330
1
100
AcDbSymbolTableRecord
100
AcDbBlockTableRecord
  2
*U9
340
0
102
{BLKREFS
331
8C
102
}
  0
BLOCK_RECORD
  5
28
330
1
100
AcDbSymbolTableRecord
100
AcDbBlockTableRecord
  2
*U10
340
0
  0
BLOCK_RECORD
  5
9D
330
1
100
AcDbSymbolTableRecord
100
AcDbBlockTableRecord
  2
*D11
340
0
  0
ENDTAB
  0
ENDSEC
  0
SECTION
  2
BLOCKS
  0
BLOCK
  5
3
330
2
100
AcDbEntity
  8
0
100
AcDbBlockBegin
  2
*Model_Space
 70
     0
 10
0.0
 20
0.0
 30
0.0
  3
*Model_Space
  1

  0
ENDBLK
  5
9
330
2
100
AcDbEntity
  8
0
100
AcDbBlockEnd
  0
BLOCK
  5
D
330
C
100
AcDbEntity
 67
     1
  8
0
100
AcDbBlockBegin
  2
*Paper_Space
 70
     0
 10
0.0
 20
0.0
 30
0.0
  3
*Paper_Space
  1

  0
ENDBLK
  5
E
330
C
100
AcDbEntity
 67
     1
  8
0
100
AcDbBlockEnd
  0
BLOCK
  5
4B
330
4A
100
AcDbEntity
  8
0
100
AcDbBlockBegin
  2
*D0
 70
     1
 10
0.0
 20
0.0
 30
0.0
  3
*D0
  1

  0
LINE
  5
4C
330
4A
100
AcDbEntity
  8
BEM
100
AcDbLine
 10
1.749999999999914
 20
102.5
 30
0.0
 11
1.749999999999911
 21
83.21553589544453
 31
0.0
  0
LINE
  5
4D
330
4A
100
AcDbEntity
  8
BEM
100
AcDbLine
 10
2.249999999999912
 20
102.5
 30
0.0
 11
2.249999999999912
 21
83.21553589544453
 31
0.0
  0
LINE
  5
4E
330
4A
100
AcDbEntity
  8
BEM
100
AcDbLine
 10
-1.750000000000085
 20
85.21553589544453
 30
0.0
 11
-5.250000000000086
 21
85.21553589544453
 31
0.0
  0
LINE
  5
4F
330
4A
100
AcDbEntity
  8
BEM
100
AcDbLine
 10
5.749999999999912
 20
85.21553589544453
 30
0.0
 11
85.7499999999999
 21
85.21553589544453
 31
0.0
  0
LINE
  5
50
330
4A
100
AcDbEntity
  8
BEM
100
AcDbLine
 10
1.749999999999911
 20
85.21553589544453
 30
0.0
 11
2.249999999999912
 21
85.21553589544453
 31
0.0
  0
SOLID
  5
51
330
4A
100
AcDbEntity
  8
BEM
100
AcDbTrace
 10
-1.750000000000085
 20
85.79886922877786
 30
0.0
 11
-1.750000000000085
 21
84.63220256211121
 31
0.0
 12
1.749999999999911
 22
85.21553589544453
 32
0.0
 13
1.749999999999911
 23
85.21553589544453
 33
0.0
  0
SOLID
  5
52
330
4A
100
AcDbEntity
  8
BEM
100
AcDbTrace
 10
5.749999999999912
 20
85.79886922877786
 30
0.0
 11
5.749999999999912
 21
84.63220256211121
 31
0.0
 12
2.249999999999912
 22
85.21553589544453
 32
0.0
 13
2.249999999999912
 23
85.21553589544453
 33
0.0
  0
INSERT
  5
53
330
4A
100
AcDbEntity
  8
BEM
100
AcDbBlockReference
  2
*U1
 10
0.0
 20
0.0
 30
0.0
  0
POINT
  5
59
330
4A
100
AcDbEntity
  8
DEFPOINTS
 62
     0
100
AcDbPoint
 10
1.749999999999914
 20
102.5
 30
0.0
  0
POINT
  5
5A
330
4A
100
AcDbEntity
  8
DEFPOINTS
 62
     0
100
AcDbPoint
 10
2.249999999999912
 20
102.5
 30
0.0
  0
POINT
  5
5B
330
4A
100
AcDbEntity
  8
DEFPOINTS
 62
     0
100
AcDbPoint
 10
2.249999999999912
 20
85.21553589544453
 30
0.0
  0
ENDBLK
  5
5C
330
4A
100
AcDbEntity
  8
0
100
AcDbBlockEnd
  0
BLOCK
  5
55
330
54
100
AcDbEntity
  8
0
100
AcDbBlockBegin
  2
*U1
 70
     1
 10
0.0
 20
0.0
 30
0.0
  3
*U1
  1

  0
TEXT
  5
56
330
54
100
AcDbEntity
  8
BEM
 62
     7
100
AcDbText
 10
10.08333333333325
 20
88.21553589544453
 30
0.0
 40
3.5
  1
Fase/Chamfer 0.5
  7
ROMANS
100
AcDbText
  0
TEXT
  5
57
330
54
100
AcDbEntity
  8
BEM
 62
     7
100
AcDbText
 10
59.58333333333325
 20
88.21553589544453
 30
0.0
 40
3.5
  1
x45° (4x)
  7
ROMANS
100
AcDbText
  0
ENDBLK
  5
58
330
54
100
AcDbEntity
  8
0
100
AcDbBlockEnd
  0
BLOCK
  5
70
330
6F
100
AcDbEntity
  8
0
100
AcDbBlockBegin
  2
*D2
 70
     1
 10
0.0
 20
0.0
 30
0.0
  3
*D2
  1

  0
LINE
  5
71
330
6F
100
AcDbEntity
  8
BEM
100
AcDbLine
 10
35.00341177864942
 20
158.5206549134154
 30
0.0
 11
47.00341177864941
 21
158.5206549134154
 31
0.0
  0
LINE
  5
72
330
6F
100
AcDbEntity
  8
BEM
100
AcDbLine
 10
47.00341177864941
 20
158.5206549134154
 30
0.0
 11
50.0069659943317
 21
156.2592700645526
 31
0.0
  0
LINE
  5
73
330
6F
100
AcDbEntity
  8
BEM
100
AcDbLine
 10
59.99303400566805
 20
148.7407299354474
 30
0.0
 11
62.78913304884223
 21
146.635538699298
 31
0.0
  0
INSERT
  5
74
330
6F
100
AcDbEntity
  8
BEM
100
AcDbBlockReference
  2
*U3
 10
0.0
 20
0.0
 30
0.0
  0
LINE
  5
7A
330
6F
100
AcDbEntity
  8
BEM
100
AcDbLine
 10
57.19693496249387
 20
150.8459211715969
 30
0.0
 11
52.8030650375059
 21
154.1540788284031
 31
0.0
  0
SOLID
  5
7B
330
6F
100
AcDbEntity
  8
BEM
100
AcDbTrace
 10
60.34389921169297
 20
149.2067464426432
 30
0.0
 11
59.64216879964315
 21
148.2747134282518
 31
0.0
 12
57.19693496249387
 22
150.8459211715969
 32
0.0
 13
57.19693496249387
 23
150.8459211715969
 33
0.0
  0
SOLID
  5
7C
330
6F
100
AcDbEntity
  8
BEM
100
AcDbTrace
 10
50.35783120035663
 20
156.7252865717482
 30
0.0
 11
49.6561007883068
 21
155.7932535573568
 31
0.0
 12
52.8030650375059
 22
154.1540788284031
 32
0.0
 13
52.8030650375059
 23
154.1540788284031
 33
0.0
  0
POINT
  5
7D
330
6F
100
AcDbEntity
  8
DEFPOINTS
 62
     0
100
AcDbPoint
 10
52.8030650375059
 20
154.1540788284031
 30
0.0
  0
POINT
  5
7E
330
6F
100
AcDbEntity
  8
DEFPOINTS
 62
     0
100
AcDbPoint
 10
57.19693496249387
 20
150.8459211715969
 30
0.0
  0
ENDBLK
  5
7F
330
6F
100
AcDbEntity
  8
0
100
AcDbBlockEnd
  0
BLOCK
  5
76
330
75
100
AcDbEntity
  8
0
100
AcDbBlockBegin
  2
*U3
 70
     1
 10
0.0
 20
0.0
 30
0.0
  3
*U3
  1

  0
TEXT
  5
77
330
75
100
AcDbEntity
  8
BEM
 62
     7
100
AcDbText
 10
34.6700784453161
 20
160.0206549134154
 30
0.0
 40
3.5
  1
\U+2205
  7
ROMANS
100
AcDbText
  0
TEXT
  5
78
330
75
100
AcDbEntity
  8
BEM
 62
     7
100
AcDbText
 10
37.83674511198276
 20
160.0206549134154
 30
0.0
 40
3.5
  1
5.5
  7
ROMANS
100
AcDbText
  0
ENDBLK
  5
79
330
75
100
AcDbEntity
  8
0
100
AcDbBlockEnd
  0
BLOCK
  5
38
330
37
100
AcDbEntity
  8
0
100
AcDbBlockBegin
  2
*D4
 70
     1
 10
0.0
 20
0.0
 30
0.0
  3
*D4
  1

  0
LINE
  5
39
330
37
100
AcDbEntity
  8
BEM
100
AcDbLine
 10
4.999999999999912
 20
102.5
 30
0.0
 11
-18.43254960450509
 21
102.5
 31
0.0
  0
LINE
  5
3A
330
37
100
AcDbEntity
  8
BEM
100
AcDbLine
 10
4.999999999999912
 20
152.5
 30
0.0
 11
-18.43254960450509
 21
152.5
 31
0.0
  0
LINE
  5
3B
330
37
100
AcDbEntity
  8
BEM
100
AcDbLine
 10
-16.4325496045051
 20
106.0
 30
0.0
 11
-16.43254960450509
 21
149.0
 31
0.0
  0
SOLID
  5
3C
330
37
100
AcDbEntity
  8
BEM
100
AcDbTrace
 10
-17.01588293783843
 20
106.0
 30
0.0
 11
-15.84921627117176
 21
106.0
 31
0.0
 12
-16.4325496045051
 22
102.5
 32
0.0
 13
-16.4325496045051
 23
102.5
 33
0.0
  0
SOLID
  5
3D
330
37
100
AcDbEntity
  8
BEM
100
AcDbTrace
 10
-17.01588293783842
 20
149.0
 30
0.0
 11
-15.84921627117175
 21
149.0
 31
0.0
 12
-16.43254960450509
 22
152.5
 32
0.0
 13
-16.43254960450509
 23
152.5
 33
0.0
  0
INSERT
  5
3E
330
37
100
AcDbEntity
  8
BEM
100
AcDbBlockReference
  2
*U5
 10
0.0
 20
0.0
 30
0.0
  0
POINT
  5
44
330
37
100
AcDbEntity
  8
DEFPOINTS
 62
     0
100
AcDbPoint
 10
4.999999999999912
 20
102.5
 30
0.0
  0
POINT
  5
46
330
37
100
AcDbEntity
  8
DEFPOINTS
 62
     0
100
AcDbPoint
 10
4.999999999999912
 20
152.5
 30
0.0
  0
POINT
  5
47
330
37
100
AcDbEntity
  8
DEFPOINTS
 62
     0
100
AcDbPoint
 10
-16.43254960450509
 20
152.5
 30
0.0
  0
ENDBLK
  5
48
330
37
100
AcDbEntity
  8
0
100
AcDbBlockEnd
  0
BLOCK
  5
40
330
3F
100
AcDbEntity
  8
0
100
AcDbBlockBegin
  2
*U5
 70
     1
 10
0.0
 20
0.0
 30
0.0
  3
*U5
  1

  0
TEXT
  5
41
330
3F
100
AcDbEntity
  8
BEM
 62
     7
100
AcDbText
 10
-17.93254960450511
 20
124.1666666666666
 30
0.0
 40
3.5
  1
50
 50
90.0
  7
ROMANS
100
AcDbText
  0
ENDBLK
  5
43
330
3F
100
AcDbEntity
  8
0
100
AcDbBlockEnd
  0
BLOCK
  5
5F
330
5E
100
AcDbEntity
  8
0
100
AcDbBlockBegin
  2
*D6
 70
     1
 10
0.0
 20
0.0
 30
0.0
  3
*D6
  1

  0
LINE
  5
60
330
5E
100
AcDbEntity
  8
BEM
100
AcDbLine
 10
39.82629466967367
 20
130.108641333949
 30
0.0
 11
54.64628255121249
 21
134.0429862987628
 31
0.0
  0
INSERT
  5
61
330
5E
100
AcDbEntity
  8
BEM
100
AcDbBlockReference
  2
*U7
 10
0.0
 20
0.0
 30
0.0
  0
SOLID
  5
66
330
5E
100
AcDbEntity
  8
BEM
100
AcDbTrace
 10
54.49660638407284
 20
134.6067901855604
 30
0.0
 11
54.79595871835214
 21
133.4791824119651
 31
0.0
 12
58.02910587199852
 22
134.9410433016007
 32
0.0
 13
58.02910587199852
 23
134.9410433016007
 33
0.0
  0
POINT
  5
67
330
5E
100
AcDbEntity
  8
DEFPOINTS
 62
     0
100
AcDbPoint
 10
58.02910587199852
 20
134.9410433016007
 30
0.0
  0
POINT
  5
68
330
5E
100
AcDbEntity
  8
DEFPOINTS
 62
     0
100
AcDbPoint
 10
1.970894128001287
 20
120.0589566983993
 30
0.0
  0
ENDBLK
  5
69
330
5E
100
AcDbEntity
  8
0
100
AcDbBlockEnd
  0
BLOCK
  5
63
330
62
100
AcDbEntity
  8
0
100
AcDbBlockBegin
  2
*U7
 70
     1
 10
0.0
 20
0.0
 30
0.0
  3
*U7
  1

  0
TEXT
  5
64
330
62
100
AcDbEntity
  8
BEM
 62
     7
100
AcDbText
 10
40.56902087062421
 20
131.8577750914224
 30
0.0
 40
3.5
  1
\U+220558
 50
14.86768511622176
  7
ROMANS
100
AcDbText
  0
ENDBLK
  5
65
330
62
100
AcDbEntity
  8
0
100
AcDbBlockEnd
  0
BLOCK
  5
86
330
85
100
AcDbEntity
  8
0
100
AcDbBlockBegin
  2
*D8
 70
     1
 10
0.0
 20
0.0
 30
0.0
  3
*D8
  1

  0
LINE
  5
87
330
85
100
AcDbEntity
  8
BEM
100
AcDbLine
 10
54.99999999999992
 20
152.5
 30
0.0
 11
54.99999999999992
 21
175.4669101936961
 31
0.0
  0
LINE
  5
88
330
85
100
AcDbEntity
  8
BEM
100
AcDbLine
 10
4.999999999999912
 20
152.5
 30
0.0
 11
4.999999999999914
 21
175.4669101936961
 31
0.0
  0
LINE
  5
89
330
85
100
AcDbEntity
  8
BEM
100
AcDbLine
 10
51.49999999999991
 20
173.4669101936961
 30
0.0
 11
8.499999999999911
 21
173.4669101936961
 31
0.0
  0
SOLID
  5
8A
330
85
100
AcDbEntity
  8
BEM
100
AcDbTrace
 10
51.49999999999991
 20
174.0502435270294
 30
0.0
 11
51.49999999999991
 21
172.8835768603628
 31
0.0
 12
54.99999999999992
 22
173.4669101936961
 32
0.0
 13
54.99999999999992
 23
173.4669101936961
 33
0.0
  0
SOLID
  5
8B
330
85
100
AcDbEntity
  8
BEM
100
AcDbTrace
 10
8.499999999999911
 20
174.0502435270294
 30
0.0
 11
8.499999999999911
 21
172.8835768603628
 31
0.0
 12
4.999999999999913
 22
173.4669101936961
 32
0.0
 13
4.999999999999913
 23
173.4669101936961
 33
0.0
  0
INSERT
  5
8C
330
85
100
AcDbEntity
  8
BEM
100
AcDbBlockReference
  2
*U9
 10
0.0
 20
0.0
 30
0.0
  0
POINT
  5
91
330
85
100
AcDbEntity
  8
DEFPOINTS
 62
     0
100
AcDbPoint
 10
54.99999999999992
 20
152.5
 30
0.0
  0
POINT
  5
92
330
85
100
AcDbEntity
  8
DEFPOINTS
 62
     0
100
AcDbPoint
 10
4.999999999999912
 20
152.5
 30
0.0
  0
POINT
  5
93
330
85
100
AcDbEntity
  8
DEFPOINTS
 62
     0
100
AcDbPoint
 10
4.999999999999913
 20
173.4669101936961
 30
0.0
  0
ENDBLK
  5
94
330
85
100
AcDbEntity
  8
0
100
AcDbBlockEnd
  0
BLOCK
  5
8E
330
8D
100
AcDbEntity
  8
0
100
AcDbBlockBegin
  2
*U9
 70
     1
 10
0.0
 20
0.0
 30
0.0
  3
*U9
  1

  0
TEXT
  5
8F
330
8D
100
AcDbEntity
  8
BEM
 62
     7
100
AcDbText
 10
26.66666666666658
 20
174.9669101936961
 30
0.0
 40
3.5
  1
50
  7
ROMANS
100
AcDbText
  0
ENDBLK
  5
90
330
8D
100
AcDbEntity
  8
0
100
AcDbBlockEnd
  0
BLOCK
  5
29
330
28
100
AcDbEntity
  8
0
100
AcDbBlockBegin
  2
*U10
 70
     1
 10
0.0
 20
0.0
 30
0.0
  3
*U10
  1

  0
TEXT
  5
2A
330
28
100
AcDbEntity
  8
BEM
 62
     7
100
AcDbText
 10
9.58333333333325
 20
194.5165540392984
 30
0.0
 40
5.0
  1
Lochbild 1
100
AcDbText
  0
TEXT
  5
2B
330
28
100
AcDbEntity
  8
BEM
 62
     7
100
AcDbText
 10
1.666666666666588
 20
186.183220705965
 30
0.0
 40
5.0
  1
Hole layout 1
100
AcDbText
  0
ENDBLK
  5
2C
330
28
100
AcDbEntity
  8
0
100
AcDbBlockEnd
  0
BLOCK
  5
A6
330
9D
100
AcDbEntity
  8
0
100
AcDbBlockBegin
  2
*D11
 70
     1
 10
0.0
 20
0.0
 30
0.0
  3
*D11
  1

  0
LINE
  5
9E
330
9D
100
AcDbEntity
  8
BEM
370
    -2
100
AcDbLine
 10
37.25008635438253
 20
166.56993481055
 30
0.0
 11
50.57231734667815
 21
156.0097188379517
 31
0.0
  0
LINE
  5
9F
330
9D
100
AcDbEntity
  8
BEM
370
    -2
100
AcDbLine
 10
59.42768265332173
 20
148.9902811620482
 30
0.0
 11
62.17049491644141
 21
146.8161190500427
 31
0.0
  0
MTEXT
  5
A0
330
9D
100
AcDbEntity
  8
BEM
 62
     7
100
AcDbMText
 10
44.5586605372613
 20
164.9238049817219
 30
0.0
 40
3.5
 41
0.0
 71
     5
 72
     1
  1
\A1;\U+22054.3
 11
0.7836606466056246
 21
-0.6211891748587175
 31
0.0
 73
     1
 44
1.0
1001
ACAD
1000
MTEXTBEGIN
1070
    73
1070
     1
1070
    44
1040
1.0
1070
    74
1070
     0
1000
MTEXTEND
  0
LINE
  5
A1
330
9D
100
AcDbEntity
  8
BEM
370
    -2
100
AcDbLine
 10
56.68487039020204
 20
151.1644432740538
 30
0.0
 11
53.31512960979783
 21
153.8355567259463
 31
0.0
  0
SOLID
  5
A2
330
9D
100
AcDbEntity
  8
BEM
100
AcDbTrace
 10
59.79004300532264
 20
149.4474165392349
 30
0.0
 11
59.06532230132079
 21
148.5331457848616
 31
0.0
 12
56.68487039020204
 22
151.1644432740538
 32
0.0
 13
56.68487039020204
 23
151.1644432740538
 33
0.0
  0
SOLID
  5
A3
330
9D
100
AcDbEntity
  8
BEM
100
AcDbTrace
 10
50.93467769867906
 20
156.4668542151384
 30
0.0
 11
50.20995699467722
 21
155.5525834607651
 31
0.0
 12
53.31512960979783
 22
153.8355567259463
 32
0.0
 13
53.31512960979783
 23
153.8355567259463
 33
0.0
  0
POINT
  5
A4
330
9D
100
AcDbEntity
  8
DEFPOINTS
 62
     0
100
AcDbPoint
 10
53.31512960979783
 20
153.8355567259463
 30
0.0
  0
POINT
  5
A5
330
9D
100
AcDbEntity
  8
DEFPOINTS
 62
     0
100
AcDbPoint
 10
56.68487039020204
 20
151.1644432740538
 30
0.0
  0
ENDBLK
  5
A7
330
9D
100
AcDbEntity
  8
0
100
AcDbBlockEnd
  0
ENDSEC
  0
SECTION
  2
ENTITIES
  0
CIRCLE
  5
2D
330
2
100
AcDbEntity
  8
0
100
AcDbCircle
 10
54.99999999999992
 20
152.5
 30
0.0
 40
2.149999999999999
  0
CIRCLE
  5
2F
330
2
100
AcDbEntity
  8
0
100
AcDbCircle
 10
54.99999999999992
 20
102.5
 30
0.0
 40
2.149999999999999
  0
CIRCLE
  5
31
330
2
100
AcDbEntity
  8
0
100
AcDbCircle
 10
4.999999999999912
 20
152.5
 30
0.0
 40
2.149999999999999
  0
CIRCLE
  5
33
330
2
100
AcDbEntity
  8
0
100
AcDbCircle
 10
4.999999999999912
 20
102.5
 30
0.0
 40
2.149999999999999
  0
DIMENSION
  5
35
330
2
100
AcDbEntity
  8
BEM
100
AcDbDimension
  2
*D4
 10
-16.43254960450509
 20
152.5
 30
0.0
 11
-19.68254960450511
 21
127.5
 31
0.0
 71
     5
 42
-1.0
  3
ISO-25
100
AcDbAlignedDimension
 13
4.999999999999912
 23
102.5
 33
0.0
 14
4.999999999999912
 24
152.5
 34
0.0
 50
90.0
100
AcDbRotatedDimension
  0
DIMENSION
  5
5D
330
2
100
AcDbEntity
  8
BEM
100
AcDbDimension
  2
*D6
 10
1.970894128001287
 20
120.0589566983993
 30
0.0
 11
45.54487695005007
 21
131.626785314937
 31
0.0
 70
   131
 71
     5
 42
-1.0
  3
ISO-25
100
AcDbDiametricDimension
 15
58.02910587199852
 25
134.9410433016007
 35
0.0
 40
0.0
1001
ACAD
1000
DSTYLE
1002
{
1070
   288
1070
     1
1002
}
  0
LINE
  5
6A
330
2
100
AcDbEntity
  8
SYM1
100
AcDbLine
 10
61.99999829999993
 20
127.5
 30
0.0
 11
-1.999998300000071
 21
127.5
 31
0.0
  0
CIRCLE
  5
6D
330
2
100
AcDbEntity
  8
0
100
AcDbCircle
 10
29.99999999999993
 20
127.5
 30
0.0
 40
28.9999983
  0
LWPOLYLINE
  5
80
330
2
100
AcDbEntity
  8
VER1
100
AcDbPolyline
 90
        8
 70
     1
 43
0.0
 10
43.52774925846857
 20
98.50000000000001
 42
0.1762564983613012
 10
58.99999999999991
 20
113.9722507415313
 10
58.99999999999991
 20
141.0277492584687
 42
0.1762564983613013
 10
43.52774925846857
 20
156.5
 10
16.47225074153124
 20
156.5
 42
0.1762564983613012
 10
0.9999999999999149
 20
141.0277492584687
 10
0.9999999999999149
 20
113.9722507415313
 42
0.1762564983613012
 10
16.47225074153124
 20
98.50000000000001
  0
LINE
  5
83
330
2
100
AcDbEntity
  8
SYM1
100
AcDbLine
 10
29.99999999999993
 20
159.4999983
 30
0.0
 11
29.99999999999993
 21
95.50000170000002
 31
0.0
  0
DIMENSION
  5
84
330
2
100
AcDbEntity
  8
BEM
100
AcDbDimension
  2
*D8
 10
4.999999999999913
 20
173.4669101936961
 30
0.0
 11
29.99999999999993
 21
176.7169101936961
 31
0.0
 71
     5
 42
-1.0
  3
ISO-25
100
AcDbAlignedDimension
 13
54.99999999999992
 23
152.5
 33
0.0
 14
4.999999999999912
 24
152.5
 34
0.0
100
AcDbRotatedDimension
  0
TEXT
  5
9A
330
2
100
AcDbEntity
  8
BEM
 62
     7
100
AcDbText
 10
0.2065556036352447
 20
194.5165540392984
 30
0.0
 40
5.0
  1
Lochbild SLM-60
100
AcDbText
  0
TEXT
  5
9B
330
2
100
AcDbEntity
  8
BEM
 62
     7
100
AcDbText
 10
-7.710111063031419
 20
186.183220705965
 30
0.0
 40
5.0
  1
Hole layout SLM-60
100
AcDbText
  0
DIMENSION
  5
9C
330
2
100
AcDbEntity
  8
BEM
100
AcDbDimension
  2
*D11
 10
56.68487039020204
 20
151.1644432740538
 30
0.0
 11
42.53979571897048
 21
162.3769078802536
 31
0.0
 70
    35
 71
     5
 42
4.300000000000025
  3
1ZU1
100
AcDbDiametricDimension
 15
53.31512960979783
 25
153.8355567259463
 35
0.0
 40
0.0
1001
ACAD
1000
DSTYLE
1002
{
1070
   279
1070
     0
1070
   284
1070
     0
1070
   285
1070
     0
1070
   286
1070
     0
1070
   288
1070
     1
1002
}
  0
ENDSEC
  0
SECTION
  2
OBJECTS
  0
DICTIONARY
  5
7
330
0
100
AcDbDictionary
281
     1
  3
ACAD_COLOR
350
23
  3
ACAD_GROUP
350
1F
  3
ACAD_LAYOUT
350
B
  3
ACAD_MATERIAL
350
22
  3
ACAD_MLINESTYLE
350
20
  3
ACAD_PLOTSETTINGS
350
21
  3
ACAD_PLOTSTYLENAME
350
6
  3
ACDBHEADERROUNDTRIPXREC
350
B2
  3
AcDbVariableDictionary
350
AC
  3
ASE_INDEX_DICTIONARY
350
A9
  3
DWGPROPS
350
B1
  0
DICTIONARY
  5
23
102
{ACAD_REACTORS
330
7
102
}
330
7
100
AcDbDictionary
281
     1
  0
DICTIONARY
  5
1F
102
{ACAD_REACTORS
330
7
102
}
330
7
100
AcDbDictionary
281
     1
  0
DICTIONARY
  5
B
102
{ACAD_REACTORS
330
7
102
}
330
7
100
AcDbDictionary
281
     1
  3
Layout1
350
F
  3
Model
350
A
  0
DICTIONARY
  5
22
102
{ACAD_REACTORS
330
7
102
}
330
7
100
AcDbDictionary
281
     1
  0
DICTIONARY
  5
20
102
{ACAD_REACTORS
330
7
102
}
330
7
100
AcDbDictionary
281
     1
  3
Standard
350
25
  0
DICTIONARY
  5
21
102
{ACAD_REACTORS
330
7
102
}
330
7
100
AcDbDictionary
281
     1
  0
ACDBDICTIONARYWDFLT
  5
6
102
{ACAD_REACTORS
330
7
102
}
330
7
100
AcDbDictionary
281
     1
  3
Normal
350
5
100
AcDbDictionaryWithDefault
340
5
  0
DICTIONARY
  5
B2
102
{ACAD_REACTORS
330
7
102
}
330
7
100
AcDbDictionary
281
     1
  3
COLORDICT
350
B4
  3
MATERIALDICT
350
B3
  0
DICTIONARY
  5
AC
102
{ACAD_REACTORS
330
7
102
}
330
7
100
AcDbDictionary
281
     1
  3
DIMASSOC
350
AE
  3
HIDETEXT
350
AD
  3
PROJECTNAME
350
AF
  0
DICTIONARY
  5
A9
102
{ACAD_REACTORS
330
7
102
}
330
7
100
AcDbDictionary
281
     1
  3
ASEBlockHierarchyIndexRecord
350
AB
1001
DCO15
1040
1828004557.976
  0
XRECORD
  5
B1
102
{ACAD_REACTORS
330
7
102
}
330
7
100
AcDbXrecord
280
     1
  1
DWGPROPS COOKIE
  2

  3

  4

  6

  7

  8

  9

300
=
301
=
302
=
303
=
304
=
305
=
306
=
307
=
308
=
309
=
 40
0.789594525462963
 41
2452694.801882592
 42
2456960.672013611
  1

 90
        0
  0
LAYOUT
  5
F
102
{ACAD_XDICTIONARY
360
B7
102
}
102
{ACAD_REACTORS
330
B
102
}
330
B
100
AcDbPlotSettings
  1

  2
HP LaserJet 5000 N PCL 6
  4

  6

 40
0.0
 41
0.0
 42
0.0
 43
0.0
 44
0.0
 45
0.0
 46
0.0
 47
0.0
 48
0.0
 49
0.0
140
0.0
141
0.0
142
1.0
143
1.0
 70
   688
 72
     0
 73
     0
 74
     5
  7
fein.ctb
 75
    16
147
1.0
148
0.0
149
0.0
100
AcDbLayout
  1
Layout1
 70
     1
 71
     1
 10
-12.74318078855802
 20
-6.351582024086956
 11
432.7567981061398
 21
308.6868943834866
 12
0.0
 22
0.0
 32
0.0
 14
0.0
 24
0.0
 34
0.0
 15
420.0
 25
297.0
 35
0.0
146
0.0
 13
0.0
 23
0.0
 33
0.0
 16
1.0
 26
0.0
 36
0.0
 17
0.0
 27
1.0
 37
0.0
 76
     0
330
C
  0
LAYOUT
  5
A
102
{ACAD_XDICTIONARY
360
B5
102
}
102
{ACAD_REACTORS
330
B
102
}
330
B
100
AcDbPlotSettings
  1

  2
HP LaserJet 5000 N PCL 6
  4

  6

 40
0.0
 41
0.0
 42
0.0
 43
0.0
 44
0.0
 45
0.0
 46
0.0
 47
0.0
 48
0.0
 49
0.0
140
0.0
141
0.0
142
1.0
143
1.0
 70
  1712
 72
     0
 73
     0
 74
     0
  7
fein.ctb
 75
     0
147
1.0
148
0.0
149
0.0
100
AcDbLayout
  1
Model
 70
     1
 71
     0
 10
0.0
 20
0.0
 11
12.0
 21
9.0
 12
0.0
 22
0.0
 32
0.0
 14
0.0
 24
0.0
 34
0.0
 15
0.0
 25
0.0
 35
0.0
146
0.0
 13
0.0
 23
0.0
 33
0.0
 16
1.0
 26
0.0
 36
0.0
 17
0.0
 27
1.0
 37
0.0
 76
     0
330
2
  0
MLINESTYLE
  5
25
102
{ACAD_REACTORS
330
20
102
}
330
20
100
AcDbMlineStyle
  2
STANDARD
 70
     0
  3

 62
   256
 51
90.0
 52
90.0
 71
     2
 49
0.5
 62
   256
  6
BYLAYER
 49
-0.5
 62
   256
  6
BYLAYER
  0
ACDBPLACEHOLDER
  5
5
102
{ACAD_REACTORS
330
6
102
}
330
6
  0
XRECORD
  5
B4
102
{ACAD_REACTORS
330
B2
102
}
330
B2
100
AcDbXrecord
280
     1
340
23
  0
XRECORD
  5
B3
102
{ACAD_REACTORS
330
B2
102
}
330
B2
100
AcDbXrecord
280
     1
340
22
  0
DICTIONARYVAR
  5
AE
102
{ACAD_REACTORS
330
AC
102
}
330
AC
100
DictionaryVariables
280
     0
  1
1
  0
DICTIONARYVAR
  5
AD
102
{ACAD_REACTORS
330
AC
102
}
330
AC
100
DictionaryVariables
280
     0
  1
1
  0
DICTIONARYVAR
  5
AF
102
{ACAD_REACTORS
330
AC
102
}
330
AC
100
DictionaryVariables
280
     0
  1

  0
XRECORD
  5
AB
102
{ACAD_REACTORS
330
A9
102
}
330
A9
100
AcDbXrecord
280
     1
330
53
330
74
330
3E
330
61
330
8C
  0
DICTIONARY
  5
B7
330
F
100
AcDbDictionary
280
     1
281
     1
  3
ACAD_XREC_ROUNDTRIP
360
B8
  0
DICTIONARY
  5
B5
330
A
100
AcDbDictionary
280
     1
281
     1
  3
ACAD_XREC_ROUNDTRIP
360
B6
  0
XRECORD
  5
B8
102
{ACAD_REACTORS
330
B7
102
}
330
B7
100
AcDbXrecord
280
     1
102
SHADEPLOT
 70
     0
102
SHADEPLOTRESLEVEL
 70
     2
102
SHADEPLOTCUSTOMDPI
 70
   300
  0
XRECORD
  5
B6
102
{ACAD_REACTORS
330
B5
102
}
330
B5
100
AcDbXrecord
280
     1
102
SHADEPLOT
 70
     0
102
SHADEPLOTRESLEVEL
 70
     2
102
SHADEPLOTCUSTOMDPI
 70
   300
  0
ENDSEC
  0
EOF
