  0
SECTION
  2
HEADER
  9
$ACADVER
  1
AC1015
  9
$ACADMAINTVER
 70
    20
  9
$DWGCODEPAGE
  3
ANSI_1252
  9
$INSBASE
 10
0.0
 20
0.0
 30
0.0
  9
$EXTMIN
 10
-121.0905415274132
 20
456.8571242081868
 30
-0.0015258207003583
  9
$EXTMAX
 10
-0.8333333333331886
 20
596.9123015209804
 30
0.0000000349246037
  9
$LIMMIN
 10
0.0
 20
0.0
  9
$LIMMAX
 10
420.0
 20
297.0
  9
$ORTHOMODE
 70
     1
  9
$REGENMODE
 70
     1
  9
$FILLMODE
 70
     1
  9
$QTEXTMODE
 70
     0
  9
$MIRRTEXT
 70
     1
  9
$LTSCALE
 40
1.0
  9
$ATTMODE
 70
     1
  9
$TEXTSIZE
 40
2.5
  9
$TRACEWID
 40
1.0
  9
$TEXTSTYLE
  7
STANDARD
  9
$CLAYER
  8
BEM
  9
$CELTYPE
  6
ByLayer
  9
$CECOLOR
 62
   256
  9
$CELTSCALE
 40
1.0
  9
$DISPSILH
 70
     0
  9
$DIMSCALE
 40
1.0
  9
$DIMASZ
 40
3.5
  9
$DIMEXO
 40
0.0
  9
$DIMDLI
 40
10.0
  9
$DIMRND
 40
0.0
  9
$DIMDLE
 40
0.0
  9
$DIMEXE
 40
2.0
  9
$DIMTP
 40
0.0
  9
$DIMTM
 40
0.000000001
  9
$DIMTXT
 40
3.5
  9
$DIMCEN
 40
1.5
  9
$DIMTSZ
 40
0.0
  9
$DIMTOL
 70
     0
  9
$DIMLIM
 70
     0
  9
$DIMTIH
 70
     0
  9
$DIMTOH
 70
     0
  9
$DIMSE1
 70
     0
  9
$DIMSE2
 70
     0
  9
$DIMTAD
 70
     1
  9
$DIMZIN
 70
     8
  9
$DIMBLK
  1

  9
$DIMASO
 70
     1
  9
$DIMSHO
 70
     1
  9
$DIMPOST
  1

  9
$DIMAPOST
  1

  9
$DIMALT
 70
     0
  9
$DIMALTD
 70
     2
  9
$DIMALTF
 40
25.4
  9
$DIMLFAC
 40
1.0
  9
$DIMTOFL
 70
     1
  9
$DIMTVP
 40
0.0
  9
$DIMTIX
 70
     0
  9
$DIMSOXD
 70
     0
  9
$DIMSAH
 70
     0
  9
$DIMBLK1
  1

  9
$DIMBLK2
  1

  9
$DIMSTYLE
  2
1ZU1
  9
$DIMCLRD
 70
   256
  9
$DIMCLRE
 70
   256
  9
$DIMCLRT
 70
     7
  9
$DIMTFAC
 40
0.7
  9
$DIMGAP
 40
1.5
  9
$DIMJUST
 70
     0
  9
$DIMSD1
 70
     0
  9
$DIMSD2
 70
     0
  9
$DIMTOLJ
 70
     1
  9
$DIMTZIN
 70
     0
  9
$DIMALTZ
 70
     0
  9
$DIMALTTZ
 70
     0
  9
$DIMUPT
 70
     0
  9
$DIMDEC
 70
     4
  9
$DIMTDEC
 70
     4
  9
$DIMALTU
 70
     2
  9
$DIMALTTD
 70
     2
  9
$DIMTXSTY
  7
STANDARD
  9
$DIMAUNIT
 70
     0
  9
$DIMADEC
 70
     0
  9
$DIMALTRND
 40
0.0
  9
$DIMAZIN
 70
     0
  9
$DIMDSEP
 70
    46
  9
$DIMATFIT
 70
     3
  9
$DIMFRAC
 70
     0
  9
$DIMLDRBLK
  1

  9
$DIMLUNIT
 70
     2
  9
$DIMLWD
 70
    -2
  9
$DIMLWE
 70
    -2
  9
$DIMTMOVE
 70
     0
  9
$LUNITS
 70
     2
  9
$LUPREC
 70
     4
  9
$SKETCHINC
 40
1.0
  9
$FILLETRAD
 40
0.5
  9
$AUNITS
 70
     0
  9
$AUPREC
 70
     0
  9
$MENU
  1
.
  9
$ELEVATION
 40
0.0
  9
$PELEVATION
 40
0.0
  9
$THICKNESS
 40
0.0
  9
$LIMCHECK
 70
     0
  9
$CHAMFERA
 40
10.0
  9
$CHAMFERB
 40
10.0
  9
$CHAMFERC
 40
0.0
  9
$CHAMFERD
 40
0.0
  9
$SKPOLY
 70
     0
  9
$TDCREATE
 40
2452694.801882592
  9
$TDUCREATE
 40
2452694.760215926
  9
$TDUPDATE
 40
2456960.674672025
  9
$TDUUPDATE
 40
2456960.633005359
  9
$TDINDWG
 40
1.1326079630
  9
$TDUSRTIMER
 40
1.1326079630
  9
$USRTIMER
 70
     1
  9
$ANGBASE
 50
0.0
  9
$ANGDIR
 70
     0
  9
$PDMODE
 70
     0
  9
$PDSIZE
 40
0.0
  9
$PLINEWID
 40
0.0
  9
$SPLFRAME
 70
     0
  9
$SPLINETYPE
 70
     6
  9
$SPLINESEGS
 70
     8
  9
$HANDSEED
  5
B6
  9
$SURFTAB1
 70
     6
  9
$SURFTAB2
 70
     6
  9
$SURFTYPE
 70
     6
  9
$SURFU
 70
     6
  9
$SURFV
 70
     6
  9
$UCSBASE
  2

  9
$UCSNAME
  2

  9
$UCSORG
 10
0.0
 20
0.0
 30
0.0
  9
$UCSXDIR
 10
1.0
 20
0.0
 30
0.0
  9
$UCSYDIR
 10
0.0
 20
1.0
 30
0.0
  9
$UCSORTHOREF
  2

  9
$UCSORTHOVIEW
 70
     0
  9
$UCSORGTOP
 10
0.0
 20
0.0
 30
0.0
  9
$UCSORGBOTTOM
 10
0.0
 20
0.0
 30
0.0
  9
$UCSORGLEFT
 10
0.0
 20
0.0
 30
0.0
  9
$UCSORGRIGHT
 10
0.0
 20
0.0
 30
0.0
  9
$UCSORGFRONT
 10
0.0
 20
0.0
 30
0.0
  9
$UCSORGBACK
 10
0.0
 20
0.0
 30
0.0
  9
$PUCSBASE
  2

  9
$PUCSNAME
  2

  9
$PUCSORG
 10
0.0
 20
0.0
 30
0.0
  9
$PUCSXDIR
 10
1.0
 20
0.0
 30
0.0
  9
$PUCSYDIR
 10
0.0
 20
1.0
 30
0.0
  9
$PUCSORTHOREF
  2

  9
$PUCSORTHOVIEW
 70
     0
  9
$PUCSORGTOP
 10
0.0
 20
0.0
 30
0.0
  9
$PUCSORGBOTTOM
 10
0.0
 20
0.0
 30
0.0
  9
$PUCSORGLEFT
 10
0.0
 20
0.0
 30
0.0
  9
$PUCSORGRIGHT
 10
0.0
 20
0.0
 30
0.0
  9
$PUCSORGFRONT
 10
0.0
 20
0.0
 30
0.0
  9
$PUCSORGBACK
 10
0.0
 20
0.0
 30
0.0
  9
$USERI1
 70
     0
  9
$USERI2
 70
     0
  9
$USERI3
 70
     0
  9
$USERI4
 70
     0
  9
$USERI5
 70
     0
  9
$USERR1
 40
3.0
  9
$USERR2
 40
1.0
  9
$USERR3
 40
1.0
  9
$USERR4
 40
0.0
  9
$USERR5
 40
0.0
  9
$WORLDVIEW
 70
     1
  9
$SHADEDGE
 70
     3
  9
$SHADEDIF
 70
    70
  9
$TILEMODE
 70
     1
  9
$MAXACTVP
 70
    64
  9
$PINSBASE
 10
0.0
 20
0.0
 30
0.0
  9
$PLIMCHECK
 70
     0
  9
$PEXTMIN
 10
0.0
 20
0.0
 30
0.0
  9
$PEXTMAX
 10
594.0
 20
420.0
 30
0.0
  9
$PLIMMIN
 10
-17.99944229392567
 20
-8.982035185577514
  9
$PLIMMAX
 10
612.0005278601925
 20
436.5269213503848
  9
$UNITMODE
 70
     0
  9
$VISRETAIN
 70
     1
  9
$PLINEGEN
 70
     0
  9
$PSLTSCALE
 70
     1
  9
$TREEDEPTH
 70
  3020
  9
$CMLSTYLE
  2
Standard
  9
$CMLJUST
 70
     0
  9
$CMLSCALE
 40
1.0
  9
$PROXYGRAPHICS
 70
     1
  9
$MEASUREMENT
 70
     0
  9
$CELWEIGHT
370
    -1
  9
$ENDCAPS
280
     0
  9
$JOINSTYLE
280
     0
  9
$LWDISPLAY
290
     0
  9
$INSUNITS
 70
     0
  9
$HYPERLINKBASE
  1

  9
$STYLESHEET
  1

  9
$XEDIT
290
     1
  9
$CEPSNTYPE
380
     0
  9
$PSTYLEMODE
290
     1
  9
$FINGERPRINTGUID
  2
{DBB3D7C9-402A-4331-99CF-9FB0D9D77A93}
  9
$VERSIONGUID
  2
{186F0308-B7D6-4A19-83FF-DA80055CC8AE}
  9
$EXTNAMES
290
     1
  9
$PSVPSCALE
 40
0.0
  9
$OLESTARTUP
290
     0
  0
ENDSEC
  0
SECTION
  2
CLASSES
  0
CLASS
  1
ACDBDICTIONARYWDFLT
  2
AcDbDictionaryWithDefault
  3
ObjectDBX Classes
 90
        0
280
     0
281
     0
  0
CLASS
  1
DICTIONARYVAR
  2
AcDbDictionaryVar
  3
ObjectDBX Classes
 90
        0
280
     0
281
     0
  0
CLASS
  1
ACDBPLACEHOLDER
  2
AcDbPlaceHolder
  3
ObjectDBX Classes
 90
        0
280
     0
281
     0
  0
CLASS
  1
LAYOUT
  2
AcDbLayout
  3
ObjectDBX Classes
 90
        0
280
     0
281
     0
  0
ENDSEC
  0
SECTION
  2
TABLES
  0
TABLE
  2
VPORT
  5
19
330
0
100
AcDbSymbolTable
 70
     2
  0
VPORT
  5
AD
330
19
100
AcDbSymbolTableRecord
100
AcDbViewportTableRecord
  2
*Active
 70
     0
 10
0.0
 20
0.0
 11
1.0
 21
1.0
 12
-67.03350114805401
 22
526.8847128645837
 13
0.0
 23
0.0
 14
10.0
 24
10.0
 15
10.0
 25
10.0
 16
0.0
 26
0.0
 36
1.0
 17
0.0
 27
0.0
 37
0.0
 40
140.9786180423285
 41
2.031903190319031
 42
50.0
 43
0.0
 44
0.0
 50
0.0
 51
0.0
 71
     0
 72
   100
 73
     1
 74
     3
 75
     0
 76
     0
 77
     0
 78
     2
281
     0
 65
     1
110
0.0
120
0.0
130
0.0
111
1.0
121
0.0
131
0.0
112
0.0
122
1.0
132
0.0
 79
     0
146
0.0
  0
ENDTAB
  0
TABLE
  2
LTYPE
  5
14
330
0
100
AcDbSymbolTable
 70
     3
  0
LTYPE
  5
15
330
14
100
AcDbSymbolTableRecord
100
AcDbLinetypeTableRecord
  2
ByBlock
 70
     0
  3

 72
    65
 73
     0
 40
0.0
  0
LTYPE
  5
16
330
14
100
AcDbSymbolTableRecord
100
AcDbLinetypeTableRecord
  2
ByLayer
 70
     0
  3

 72
    65
 73
     0
 40
0.0
  0
LTYPE
  5
8
330
14
100
AcDbSymbolTableRecord
100
AcDbLinetypeTableRecord
  2
CONTINUOUS
 70
     0
  3
Solid line
 72
    65
 73
     0
 40
0.0
  0
LTYPE
  5
54
330
14
100
AcDbSymbolTableRecord
100
AcDbLinetypeTableRecord
  2
ACAD_ISO04W100
 70
     0
  3
ISO Lang gestrichelt punktiert ____ . ____ . __
 72
    65
 73
     4
 40
30.0
 49
24.0
 74
     0
 49
-3.0
 74
     0
 49
0.0
 74
     0
 49
-3.0
 74
     0
  0
LTYPE
  5
77
330
14
100
AcDbSymbolTableRecord
100
AcDbLinetypeTableRecord
  2
VERDECKT
 70
     0
  3
Verdeckt __ __ __ __ __ __ __ __ __ __ __ __ __
 72
    65
 73
     2
 40
9.524999999999996
 49
6.349999999999997
 74
     0
 49
-3.174999999999998
 74
     0
  0
ENDTAB
  0
TABLE
  2
LAYER
  5
10
330
0
100
AcDbSymbolTable
 70
     5
  0
LAYER
  5
4
330
10
100
AcDbSymbolTableRecord
100
AcDbLayerTableRecord
  2
0
 70
     0
 62
     7
  6
CONTINUOUS
370
    -3
390
5
  0
LAYER
  5
24
330
10
100
AcDbSymbolTableRecord
100
AcDbLayerTableRecord
  2
BEM
 70
     0
 62
     3
  6
CONTINUOUS
370
    -3
390
5
  0
LAYER
  5
36
330
10
100
AcDbSymbolTableRecord
100
AcDbLayerTableRecord
  2
DEFPOINTS
 70
     0
 62
     7
  6
CONTINUOUS
290
     0
370
    -3
390
5
  0
LAYER
  5
53
330
10
100
AcDbSymbolTableRecord
100
AcDbLayerTableRecord
  2
SYM1
 70
     0
 62
     6
  6
ACAD_ISO04W100
370
    -3
390
5
  0
LAYER
  5
76
330
10
100
AcDbSymbolTableRecord
100
AcDbLayerTableRecord
  2
VER1
 70
     0
 62
     8
  6
VERDECKT
370
    -3
390
5
  0
ENDTAB
  0
TABLE
  2
STYLE
  5
11
330
0
100
AcDbSymbolTable
 70
     2
  0
STYLE
  5
12
330
11
100
AcDbSymbolTableRecord
100
AcDbTextStyleTableRecord
  2
STANDARD
 70
     0
 40
0.0
 41
1.0
 50
0.0
 71
     0
 42
2.5
  3
txt
  4

  0
STYLE
  5
30
330
11
100
AcDbSymbolTableRecord
100
AcDbTextStyleTableRecord
  2
ROMANS
 70
     0
 40
0.0
 41
1.0
 50
0.0
 71
     0
 42
3.5
  3
C:\ACAD13\COM\FONTS\ROMANS.SHX
  4

  0
ENDTAB
  0
TABLE
  2
VIEW
  5
17
330
0
100
AcDbSymbolTable
 70
     0
  0
ENDTAB
  0
TABLE
  2
UCS
  5
18
330
0
100
AcDbSymbolTable
 70
     0
  0
ENDTAB
  0
TABLE
  2
APPID
  5
1B
330
0
100
AcDbSymbolTable
 70
     2
  0
APPID
  5
1C
330
1B
100
AcDbSymbolTableRecord
100
AcDbRegAppTableRecord
  2
ACAD
 70
     0
  0
APPID
  5
A7
330
1B
100
AcDbSymbolTableRecord
100
AcDbRegAppTableRecord
  2
DCO15
 70
     0
  0
ENDTAB
  0
TABLE
  2
DIMSTYLE
  5
1D
330
0
100
AcDbSymbolTable
 70
     1
100
AcDbDimStyleTable
 71
     1
340
26
  0
DIMSTYLE
105
26
102
{ACAD_REACTORS
330
66
330
55
330
41
330
99
102
}
330
1D
100
AcDbSymbolTableRecord
100
AcDbDimStyleTableRecord
  2
1ZU1
 70
     0
 41
3.5
 42
0.0
 43
10.0
 44
2.0
 48
0.000000001
 73
     0
 74
     0
 77
     1
 78
     8
140
3.5
141
1.5
146
0.7
147
1.5
172
     1
176
   256
177
   256
178
     7
279
     2
284
     8
285
     8
286
     8
340
12
  0
ENDTAB
  0
TABLE
  2
BLOCK_RECORD
  5
1
330
0
100
AcDbSymbolTable
 70
    12
  0
BLOCK_RECORD
  5
2
330
1
100
AcDbSymbolTableRecord
100
AcDbBlockTableRecord
  2
*Model_Space
340
A
  0
BLOCK_RECORD
  5
C
330
1
100
AcDbSymbolTableRecord
100
AcDbBlockTableRecord
  2
*Paper_Space
340
F
  0
BLOCK_RECORD
  5
7F
330
1
100
AcDbSymbolTableRecord
100
AcDbBlockTableRecord
  2
*D0
340
0
  0
BLOCK_RECORD
  5
89
330
1
100
AcDbSymbolTableRecord
100
AcDbBlockTableRecord
  2
*U1
340
0
102
{BLKREFS
331
88
102
}
  0
BLOCK_RECORD
  5
28
330
1
100
AcDbSymbolTableRecord
100
AcDbBlockTableRecord
  2
*D2
340
0
  0
BLOCK_RECORD
  5
2D
330
1
100
AcDbSymbolTableRecord
100
AcDbBlockTableRecord
  2
*U3
340
0
102
{BLKREFS
331
2C
102
}
  0
BLOCK_RECORD
  5
42
330
1
100
AcDbSymbolTableRecord
100
AcDbBlockTableRecord
  2
*D4
340
0
  0
BLOCK_RECORD
  5
4A
330
1
100
AcDbSymbolTableRecord
100
AcDbBlockTableRecord
  2
*U5
340
0
102
{BLKREFS
331
49
102
}
  0
BLOCK_RECORD
  5
56
330
1
100
AcDbSymbolTableRecord
100
AcDbBlockTableRecord
  2
*D6
340
0
  0
BLOCK_RECORD
  5
5E
330
1
100
AcDbSymbolTableRecord
100
AcDbBlockTableRecord
  2
*U7
340
0
102
{BLKREFS
331
5D
102
}
  0
BLOCK_RECORD
  5
67
330
1
100
AcDbSymbolTableRecord
100
AcDbBlockTableRecord
  2
*D8
340
0
  0
BLOCK_RECORD
  5
6B
330
1
100
AcDbSymbolTableRecord
100
AcDbBlockTableRecord
  2
*U9
340
0
102
{BLKREFS
331
6A
102
}
  0
BLOCK_RECORD
  5
79
330
1
100
AcDbSymbolTableRecord
100
AcDbBlockTableRecord
  2
*U10
340
0
  0
BLOCK_RECORD
  5
9A
330
1
100
AcDbSymbolTableRecord
100
AcDbBlockTableRecord
  2
*D11
340
0
  0
ENDTAB
  0
ENDSEC
  0
SECTION
  2
BLOCKS
  0
BLOCK
  5
3
330
2
100
AcDbEntity
  8
0
100
AcDbBlockBegin
  2
*Model_Space
 70
     0
 10
0.0
 20
0.0
 30
0.0
  3
*Model_Space
  1

  0
ENDBLK
  5
9
330
2
100
AcDbEntity
  8
0
100
AcDbBlockEnd
  0
BLOCK
  5
D
330
C
100
AcDbEntity
 67
     1
  8
0
100
AcDbBlockBegin
  2
*Paper_Space
 70
     0
 10
0.0
 20
0.0
 30
0.0
  3
*Paper_Space
  1

  0
ENDBLK
  5
E
330
C
100
AcDbEntity
 67
     1
  8
0
100
AcDbBlockEnd
  0
BLOCK
  5
80
330
7F
100
AcDbEntity
  8
0
100
AcDbBlockBegin
  2
*D0
 70
     1
 10
0.0
 20
0.0
 30
0.0
  3
*D0
  1

  0
LINE
  5
81
330
7F
100
AcDbEntity
  8
BEM
100
AcDbLine
 10
-94.49999999999985
 20
463.1404876456251
 30
0.0
 11
-94.49999999999985
 21
448.0422489723713
 31
0.0
  0
LINE
  5
82
330
7F
100
AcDbEntity
  8
BEM
100
AcDbLine
 10
-93.99999999999984
 20
463.1404876456251
 30
0.0
 11
-93.99999999999984
 21
448.0422489723713
 31
0.0
  0
LINE
  5
83
330
7F
100
AcDbEntity
  8
BEM
100
AcDbLine
 10
-97.99999999999984
 20
450.0422489723716
 30
0.0
 11
-101.4999999999998
 21
450.0422489723716
 31
0.0
  0
LINE
  5
84
330
7F
100
AcDbEntity
  8
BEM
100
AcDbLine
 10
-90.49999999999984
 20
450.0422489723716
 30
0.0
 11
-3.499999999999884
 21
450.0422489723716
 31
0.0
  0
LINE
  5
85
330
7F
100
AcDbEntity
  8
BEM
100
AcDbLine
 10
-94.49999999999985
 20
450.0422489723716
 30
0.0
 11
-93.99999999999984
 21
450.0422489723716
 31
0.0
  0
SOLID
  5
86
330
7F
100
AcDbEntity
  8
BEM
100
AcDbTrace
 10
-97.99999999999984
 20
450.6255823057048
 30
0.0
 11
-97.99999999999984
 21
449.4589156390381
 31
0.0
 12
-94.49999999999985
 22
450.0422489723716
 32
0.0
 13
-94.49999999999985
 23
450.0422489723716
 33
0.0
  0
SOLID
  5
87
330
7F
100
AcDbEntity
  8
BEM
100
AcDbTrace
 10
-90.49999999999984
 20
450.6255823057048
 30
0.0
 11
-90.49999999999984
 21
449.4589156390381
 31
0.0
 12
-93.99999999999984
 22
450.0422489723716
 32
0.0
 13
-93.99999999999984
 23
450.0422489723716
 33
0.0
  0
INSERT
  5
88
330
7F
100
AcDbEntity
  8
BEM
100
AcDbBlockReference
  2
*U1
 10
0.0
 20
0.0
 30
0.0
  0
POINT
  5
8E
330
7F
100
AcDbEntity
  8
DEFPOINTS
 62
     0
100
AcDbPoint
 10
-94.49999999999985
 20
463.1404876456251
 30
0.0
  0
POINT
  5
8F
330
7F
100
AcDbEntity
  8
DEFPOINTS
 62
     0
100
AcDbPoint
 10
-93.99999999999984
 20
463.1404876456251
 30
0.0
  0
POINT
  5
90
330
7F
100
AcDbEntity
  8
DEFPOINTS
 62
     0
100
AcDbPoint
 10
-93.99999999999984
 20
450.0422489723716
 30
0.0
  0
ENDBLK
  5
91
330
7F
100
AcDbEntity
  8
0
100
AcDbBlockEnd
  0
BLOCK
  5
8A
330
89
100
AcDbEntity
  8
0
100
AcDbBlockBegin
  2
*U1
 70
     1
 10
0.0
 20
0.0
 30
0.0
  3
*U1
  1

  0
TEXT
  5
8B
330
89
100
AcDbEntity
  8
BEM
 62
     7
100
AcDbText
 10
-86.16666666666651
 20
453.0422489723715
 30
0.0
 40
3.5
  1
Fase / Chamfer 0.5
  7
ROMANS
100
AcDbText
  0
TEXT
  5
8C
330
89
100
AcDbEntity
  8
BEM
 62
     7
100
AcDbText
 10
-29.66666666666657
 20
453.0422489723715
 30
0.0
 40
3.5
  1
x45° (4x)
  7
ROMANS
100
AcDbText
  0
ENDBLK
  5
8D
330
89
100
AcDbEntity
  8
0
100
AcDbBlockEnd
  0
BLOCK
  5
29
330
28
100
AcDbEntity
  8
0
100
AcDbBlockBegin
  2
*D2
 70
     1
 10
0.0
 20
0.0
 30
0.0
  3
*D2
  1

  0
LINE
  5
2A
330
28
100
AcDbEntity
  8
BEM
100
AcDbLine
 10
-38.47517816029853
 20
508.705574938294
 30
0.0
 11
-23.26969359745809
 21
529.2178901700095
 31
0.0
  0
LINE
  5
2B
330
28
100
AcDbEntity
  8
BEM
100
AcDbLine
 10
-15.23030640254174
 20
540.0630851212411
 30
0.0
 11
-13.14602083348936
 21
542.8748023308194
 31
0.0
  0
INSERT
  5
2C
330
28
100
AcDbEntity
  8
BEM
100
AcDbBlockReference
  2
*U3
 10
0.0
 20
0.0
 30
0.0
  0
LINE
  5
32
330
28
100
AcDbEntity
  8
BEM
100
AcDbLine
 10
-17.31459197159412
 20
537.2513679116625
 30
0.0
 11
-21.1854080284057
 21
532.0296073795881
 31
0.0
  0
SOLID
  5
33
330
28
100
AcDbEntity
  8
BEM
100
AcDbTrace
 10
-15.69892593747144
 20
540.4104660494165
 30
0.0
 11
-14.76168686761198
 21
539.7157041930657
 31
0.0
 12
-17.31459197159412
 22
537.2513679116625
 32
0.0
 13
-17.31459197159412
 23
537.2513679116625
 33
0.0
  0
SOLID
  5
34
330
28
100
AcDbEntity
  8
BEM
100
AcDbTrace
 10
-23.73831313238779
 20
529.5652710981851
 30
0.0
 11
-22.80107406252833
 21
528.8705092418344
 31
0.0
 12
-21.1854080284057
 22
532.0296073795881
 32
0.0
 13
-21.1854080284057
 23
532.0296073795881
 33
0.0
  0
POINT
  5
35
330
28
100
AcDbEntity
  8
DEFPOINTS
 62
     0
100
AcDbPoint
 10
-21.1854080284057
 20
532.0296073795881
 30
0.0
  0
POINT
  5
37
330
28
100
AcDbEntity
  8
DEFPOINTS
 62
     0
100
AcDbPoint
 10
-17.31459197159412
 20
537.2513679116625
 30
0.0
  0
ENDBLK
  5
38
330
28
100
AcDbEntity
  8
0
100
AcDbBlockEnd
  0
BLOCK
  5
2E
330
2D
100
AcDbEntity
  8
0
100
AcDbBlockBegin
  2
*U3
 70
     1
 10
0.0
 20
0.0
 30
0.0
  3
*U3
  1

  0
TEXT
  5
2F
330
2D
100
AcDbEntity
  8
BEM
 62
     7
100
AcDbText
 10
-38.98543796519561
 20
510.5360792520328
 30
0.0
 40
3.5
  1
\U+22056.5
 50
53.45099101752889
  7
ROMANS
100
AcDbText
  0
ENDBLK
  5
31
330
2D
100
AcDbEntity
  8
0
100
AcDbBlockEnd
  0
BLOCK
  5
43
330
42
100
AcDbEntity
  8
0
100
AcDbBlockBegin
  2
*D4
 70
     1
 10
0.0
 20
0.0
 30
0.0
  3
*D4
  1

  0
LINE
  5
44
330
42
100
AcDbEntity
  8
BEM
100
AcDbLine
 10
-90.74999999999985
 20
463.1404876456251
 30
0.0
 11
-118.0740305181825
 21
463.1404876456251
 31
0.0
  0
LINE
  5
45
330
42
100
AcDbEntity
  8
BEM
100
AcDbLine
 10
-90.74999999999985
 20
534.6404876456253
 30
0.0
 11
-118.0740305181825
 21
534.6404876456253
 31
0.0
  0
LINE
  5
46
330
42
100
AcDbEntity
  8
BEM
100
AcDbLine
 10
-116.0740305181825
 20
466.6404876456251
 30
0.0
 11
-116.0740305181825
 21
531.1404876456252
 31
0.0
  0
SOLID
  5
47
330
42
100
AcDbEntity
  8
BEM
100
AcDbTrace
 10
-116.6573638515158
 20
466.6404876456251
 30
0.0
 11
-115.4906971848492
 21
466.6404876456251
 31
0.0
 12
-116.0740305181825
 22
463.1404876456251
 32
0.0
 13
-116.0740305181825
 23
463.1404876456251
 33
0.0
  0
SOLID
  5
48
330
42
100
AcDbEntity
  8
BEM
100
AcDbTrace
 10
-116.6573638515158
 20
531.1404876456252
 30
0.0
 11
-115.4906971848492
 21
531.1404876456252
 31
0.0
 12
-116.0740305181825
 22
534.6404876456253
 32
0.0
 13
-116.0740305181825
 23
534.6404876456253
 33
0.0
  0
INSERT
  5
49
330
42
100
AcDbEntity
  8
BEM
100
AcDbBlockReference
  2
*U5
 10
0.0
 20
0.0
 30
0.0
  0
POINT
  5
4E
330
42
100
AcDbEntity
  8
DEFPOINTS
 62
     0
100
AcDbPoint
 10
-90.74999999999985
 20
463.1404876456251
 30
0.0
  0
POINT
  5
4F
330
42
100
AcDbEntity
  8
DEFPOINTS
 62
     0
100
AcDbPoint
 10
-90.74999999999985
 20
534.6404876456253
 30
0.0
  0
POINT
  5
50
330
42
100
AcDbEntity
  8
DEFPOINTS
 62
     0
100
AcDbPoint
 10
-116.0740305181825
 20
534.6404876456253
 30
0.0
  0
ENDBLK
  5
51
330
42
100
AcDbEntity
  8
0
100
AcDbBlockEnd
  0
BLOCK
  5
4B
330
4A
100
AcDbEntity
  8
0
100
AcDbBlockBegin
  2
*U5
 70
     1
 10
0.0
 20
0.0
 30
0.0
  3
*U5
  1

  0
TEXT
  5
4C
330
4A
100
AcDbEntity
  8
BEM
 62
     7
100
AcDbText
 10
-117.5740305181826
 20
493.0571543122918
 30
0.0
 40
3.5
  1
71.5
 50
90.0
  7
ROMANS
100
AcDbText
  0
ENDBLK
  5
4D
330
4A
100
AcDbEntity
  8
0
100
AcDbBlockEnd
  0
BLOCK
  5
57
330
56
100
AcDbEntity
  8
0
100
AcDbBlockBegin
  2
*D6
 70
     1
 10
0.0
 20
0.0
 30
0.0
  3
*D6
  1

  0
LINE
  5
58
330
56
100
AcDbEntity
  8
BEM
100
AcDbLine
 10
-90.74999999999985
 20
534.6404876456253
 30
0.0
 11
-90.74999999999985
 21
565.0918164502715
 31
0.0
  0
LINE
  5
59
330
56
100
AcDbEntity
  8
BEM
100
AcDbLine
 10
-19.24999999999986
 20
534.6404876456253
 30
0.0
 11
-19.24999999999984
 21
565.0918164502715
 31
0.0
  0
LINE
  5
5A
330
56
100
AcDbEntity
  8
BEM
100
AcDbLine
 10
-87.24999999999985
 20
563.0918164502713
 30
0.0
 11
-22.74999999999986
 21
563.0918164502713
 31
0.0
  0
SOLID
  5
5B
330
56
100
AcDbEntity
  8
BEM
100
AcDbTrace
 10
-87.24999999999985
 20
563.6751497836049
 30
0.0
 11
-87.24999999999985
 21
562.5084831169381
 31
0.0
 12
-90.74999999999985
 22
563.0918164502713
 32
0.0
 13
-90.74999999999985
 23
563.0918164502713
 33
0.0
  0
SOLID
  5
5C
330
56
100
AcDbEntity
  8
BEM
100
AcDbTrace
 10
-22.74999999999986
 20
563.6751497836049
 30
0.0
 11
-22.74999999999986
 21
562.5084831169381
 31
0.0
 12
-19.24999999999986
 22
563.0918164502713
 32
0.0
 13
-19.24999999999986
 23
563.0918164502713
 33
0.0
  0
INSERT
  5
5D
330
56
100
AcDbEntity
  8
BEM
100
AcDbBlockReference
  2
*U7
 10
0.0
 20
0.0
 30
0.0
  0
POINT
  5
62
330
56
100
AcDbEntity
  8
DEFPOINTS
 62
     0
100
AcDbPoint
 10
-90.74999999999985
 20
534.6404876456253
 30
0.0
  0
POINT
  5
63
330
56
100
AcDbEntity
  8
DEFPOINTS
 62
     0
100
AcDbPoint
 10
-19.24999999999986
 20
534.6404876456253
 30
0.0
  0
POINT
  5
64
330
56
100
AcDbEntity
  8
DEFPOINTS
 62
     0
100
AcDbPoint
 10
-19.24999999999986
 20
563.0918164502713
 30
0.0
  0
ENDBLK
  5
65
330
56
100
AcDbEntity
  8
0
100
AcDbBlockEnd
  0
BLOCK
  5
5F
330
5E
100
AcDbEntity
  8
0
100
AcDbBlockBegin
  2
*U7
 70
     1
 10
0.0
 20
0.0
 30
0.0
  3
*U7
  1

  0
TEXT
  5
60
330
5E
100
AcDbEntity
  8
BEM
 62
     7
100
AcDbText
 10
-60.83333333333317
 20
564.5918164502715
 30
0.0
 40
3.5
  1
71.5
  7
ROMANS
100
AcDbText
  0
ENDBLK
  5
61
330
5E
100
AcDbEntity
  8
0
100
AcDbBlockEnd
  0
BLOCK
  5
68
330
67
100
AcDbEntity
  8
0
100
AcDbBlockBegin
  2
*D8
 70
     1
 10
0.0
 20
0.0
 30
0.0
  3
*D8
  1

  0
LINE
  5
69
330
67
100
AcDbEntity
  8
BEM
100
AcDbLine
 10
-64.64096465003158
 20
516.603371235297
 30
0.0
 11
-71.97128487980804
 21
530.0710182621558
 31
0.0
  0
INSERT
  5
6A
330
67
100
AcDbEntity
  8
BEM
100
AcDbBlockReference
  2
*U9
 10
0.0
 20
0.0
 30
0.0
  0
SOLID
  5
6F
330
67
100
AcDbEntity
  8
BEM
100
AcDbTrace
 10
-71.4589287429167
 20
530.3498891404624
 30
0.0
 11
-72.48364101669941
 21
529.792147383849
 31
0.0
 12
-73.6445101496483
 22
533.1451550835038
 32
0.0
 13
-73.6445101496483
 23
533.1451550835038
 33
0.0
  0
POINT
  5
70
330
67
100
AcDbEntity
  8
DEFPOINTS
 62
     0
100
AcDbPoint
 10
-73.6445101496483
 20
533.1451550835038
 30
0.0
  0
POINT
  5
71
330
67
100
AcDbEntity
  8
DEFPOINTS
 62
     0
100
AcDbPoint
 10
-36.35548985035149
 20
464.6358202077466
 30
0.0
  0
ENDBLK
  5
72
330
67
100
AcDbEntity
  8
0
100
AcDbBlockEnd
  0
BLOCK
  5
6C
330
6B
100
AcDbEntity
  8
0
100
AcDbBlockBegin
  2
*U9
 70
     1
 10
0.0
 20
0.0
 30
0.0
  3
*U9
  1

  0
TEXT
  5
6D
330
6B
100
AcDbEntity
  8
BEM
 62
     7
100
AcDbText
 10
-68.42283064420513
 20
526.6892657112419
 30
0.0
 40
3.5
  1
\U+220578
 50
298.5590586326482
  7
ROMANS
100
AcDbText
  0
ENDBLK
  5
6E
330
6B
100
AcDbEntity
  8
0
100
AcDbBlockEnd
  0
BLOCK
  5
7A
330
79
100
AcDbEntity
  8
0
100
AcDbBlockBegin
  2
*U10
 70
     1
 10
0.0
 20
0.0
 30
0.0
  3
*U10
  1

  0
TEXT
  5
7B
330
79
100
AcDbEntity
  8
BEM
 62
     7
100
AcDbText
 10
-75.41666666666654
 20
591.8842903757679
 30
0.0
 40
5.0
  1
Lochbild 1
100
AcDbText
  0
TEXT
  5
7C
330
79
100
AcDbEntity
  8
BEM
 62
     7
100
AcDbText
 10
-83.33333333333319
 20
583.5509570424343
 30
0.0
 40
5.0
  1
Hole layout 1
100
AcDbText
  0
ENDBLK
  5
7D
330
79
100
AcDbEntity
  8
0
100
AcDbBlockEnd
  0
BLOCK
  5
A3
330
9A
100
AcDbEntity
  8
0
100
AcDbBlockBegin
  2
*D11
 70
     1
 10
0.0
 20
0.0
 30
0.0
  3
*D11
  1

  0
LINE
  5
9B
330
9A
100
AcDbEntity
  8
BEM
370
    -2
100
AcDbLine
 10
-37.10314509236554
 20
548.579200294609
 30
0.0
 11
-23.7034335440116
 21
538.1174733615969
 31
0.0
  0
LINE
  5
9C
330
9A
100
AcDbEntity
  8
BEM
370
    -2
100
AcDbLine
 10
-14.79656645598808
 20
531.1635019296536
 30
0.0
 11
-12.03780231367992
 21
529.0096169728569
 31
0.0
  0
MTEXT
  5
9D
330
9A
100
AcDbEntity
  8
BEM
 62
     7
100
AcDbMText
 10
-29.78263535803151
 20
546.986988867216
 30
0.0
 40
3.5
 41
0.0
 71
     5
 72
     1
  1
\A1;\U+22054.3
 11
0.7882183263737611
 21
-0.6153957019418864
 31
0.0
 73
     1
 44
1.0
1001
ACAD
1000
MTEXTBEGIN
1070
    73
1070
     1
1070
    44
1040
1.0
1070
    74
1070
     0
1000
MTEXTEND
  0
LINE
  5
9E
330
9A
100
AcDbEntity
  8
BEM
370
    -2
100
AcDbLine
 10
-17.55533059829625
 20
533.3173868864502
 30
0.0
 11
-20.94466940170343
 21
535.9635884048002
 31
0.0
  0
SOLID
  5
9F
330
9A
100
AcDbEntity
  8
BEM
100
AcDbTrace
 10
-14.43758562985533
 20
531.6232959533716
 30
0.0
 11
-15.15554728212083
 21
530.7037079059356
 31
0.0
 12
-17.55533059829625
 22
533.3173868864502
 32
0.0
 13
-17.55533059829625
 23
533.3173868864502
 33
0.0
  0
SOLID
  5
A0
330
9A
100
AcDbEntity
  8
BEM
100
AcDbTrace
 10
-23.34445271787885
 20
538.5772673853149
 30
0.0
 11
-24.06241437014438
 21
537.6576793378789
 31
0.0
 12
-20.94466940170343
 22
535.9635884048002
 32
0.0
 13
-20.94466940170343
 23
535.9635884048002
 33
0.0
  0
POINT
  5
A1
330
9A
100
AcDbEntity
  8
DEFPOINTS
 62
     0
100
AcDbPoint
 10
-20.94466940170343
 20
535.9635884048002
 30
0.0
  0
POINT
  5
A2
330
9A
100
AcDbEntity
  8
DEFPOINTS
 62
     0
100
AcDbPoint
 10
-17.55533059829625
 20
533.3173868864502
 30
0.0
  0
ENDBLK
  5
A4
330
9A
100
AcDbEntity
  8
0
100
AcDbBlockEnd
  0
ENDSEC
  0
SECTION
  2
ENTITIES
  0
CIRCLE
  5
39
330
2
100
AcDbEntity
  8
0
100
AcDbCircle
 10
-19.24999999999986
 20
534.6404876456253
 30
0.0
 40
2.149999999999999
  0
CIRCLE
  5
3B
330
2
100
AcDbEntity
  8
0
100
AcDbCircle
 10
-19.24999999999991
 20
463.1404876456254
 30
0.0
 40
2.149999999999999
  0
CIRCLE
  5
3D
330
2
100
AcDbEntity
  8
0
100
AcDbCircle
 10
-90.74999999999985
 20
534.6404876456253
 30
0.0
 40
2.149999999999999
  0
CIRCLE
  5
3F
330
2
100
AcDbEntity
  8
0
100
AcDbCircle
 10
-90.74999999999985
 20
463.1404876456251
 30
0.0
 40
2.149999999999999
  0
DIMENSION
  5
41
330
2
100
AcDbEntity
  8
BEM
100
AcDbDimension
  2
*D4
 10
-116.0740305181825
 20
534.6404876456253
 30
0.0
 11
-119.3240305181826
 21
498.8904876456252
 31
0.0
 71
     5
 42
-1.0
  3
1ZU1
100
AcDbAlignedDimension
 13
-90.74999999999985
 23
463.1404876456251
 33
0.0
 14
-90.74999999999985
 24
534.6404876456253
 34
0.0
 50
90.0
100
AcDbRotatedDimension
  0
LINE
  5
52
330
2
100
AcDbEntity
  8
SYM1
100
AcDbLine
 10
-54.99999999999985
 20
540.8904876456253
 30
0.0
 11
-54.99999999999985
 21
456.8904876456251
 31
0.0
  0
DIMENSION
  5
55
330
2
100
AcDbEntity
  8
BEM
100
AcDbDimension
  2
*D6
 10
-19.24999999999986
 20
563.0918164502713
 30
0.0
 11
-54.99999999999985
 21
566.3418164502712
 31
0.0
 71
     5
 42
-1.0
  3
1ZU1
100
AcDbAlignedDimension
 13
-90.74999999999985
 23
534.6404876456253
 33
0.0
 14
-19.24999999999986
 24
534.6404876456253
 34
0.0
100
AcDbRotatedDimension
  0
DIMENSION
  5
66
330
2
100
AcDbEntity
  8
BEM
100
AcDbDimension
  2
*D8
 10
-36.35548985035149
 20
464.6358202077466
 30
0.0
 11
-67.46951212999967
 21
521.8001263380523
 31
0.0
 70
   131
 71
     5
 42
-1.0
  3
1ZU1
100
AcDbDiametricDimension
 15
-73.6445101496483
 25
533.1451550835038
 35
0.0
 40
0.0
1001
ACAD
1000
DSTYLE
1002
{
1070
   288
1070
     1
1002
}
  0
LINE
  5
73
330
2
100
AcDbEntity
  8
SYM1
100
AcDbLine
 10
-12.99999999999986
 20
498.8904876456252
 30
0.0
 11
-96.99999999999985
 21
498.8904876456252
 31
0.0
  0
CIRCLE
  5
74
330
2
100
AcDbEntity
  8
0
100
AcDbCircle
 10
-54.99999999999985
 20
498.8904876456252
 30
0.0
 40
39.0
  0
LWPOLYLINE
  5
75
330
2
100
AcDbEntity
  8
VER1
100
AcDbPolyline
 90
        8
 70
     1
 43
0.0
 10
-78.29699551444334
 20
537.3904876456252
 42
0.1212007004336776
 10
-93.49999999999985
 20
522.1874831600685
 10
-93.49999999999985
 20
475.5934921311817
 42
0.1212007004336774
 10
-78.29699551444334
 20
460.3904876456251
 10
-31.70300448555638
 20
460.3904876456251
 42
0.1212007004336773
 10
-16.49999999999986
 20
475.5934921311817
 10
-16.49999999999986
 20
522.1874831600685
 42
0.1212007004336777
 10
-31.70300448555637
 20
537.3904876456252
  0
TEXT
  5
97
330
2
100
AcDbEntity
  8
BEM
 62
     7
100
AcDbText
 10
-88.43734534902162
 20
591.8842903757679
 30
0.0
 40
5.0
  1
Lochbild SLM-80
100
AcDbText
  0
TEXT
  5
98
330
2
100
AcDbEntity
  8
BEM
 62
     7
100
AcDbText
 10
-96.35401201568827
 20
583.5509570424343
 30
0.0
 40
5.0
  1
Hole layout SLM-80
100
AcDbText
  0
DIMENSION
  5
99
330
2
100
AcDbEntity
  8
BEM
100
AcDbDimension
  2
*D11
 10
-17.55533059829625
 20
533.3173868864502
 30
0.0
 11
-31.78267138934265
 21
544.4252793065012
 31
0.0
 70
    35
 71
     5
 42
4.300000000000011
  3
1ZU1
100
AcDbDiametricDimension
 15
-20.94466940170343
 25
535.9635884048002
 35
0.0
 40
0.0
1001
ACAD
1000
DSTYLE
1002
{
1070
   279
1070
     0
1070
   284
1070
     0
1070
   285
1070
     0
1070
   286
1070
     0
1070
   288
1070
     1
1002
}
  0
ENDSEC
  0
SECTION
  2
OBJECTS
  0
DICTIONARY
  5
7
330
0
100
AcDbDictionary
281
     1
  3
ACAD_COLOR
350
23
  3
ACAD_GROUP
350
1F
  3
ACAD_LAYOUT
350
B
  3
ACAD_MATERIAL
350
22
  3
ACAD_MLINESTYLE
350
20
  3
ACAD_PLOTSETTINGS
350
21
  3
ACAD_PLOTSTYLENAME
350
6
  3
ACDBHEADERROUNDTRIPXREC
350
AF
  3
AcDbVariableDictionary
350
A9
  3
ASE_INDEX_DICTIONARY
350
A6
  3
DWGPROPS
350
AE
  0
DICTIONARY
  5
23
102
{ACAD_REACTORS
330
7
102
}
330
7
100
AcDbDictionary
281
     1
  0
DICTIONARY
  5
1F
102
{ACAD_REACTORS
330
7
102
}
330
7
100
AcDbDictionary
281
     1
  0
DICTIONARY
  5
B
102
{ACAD_REACTORS
330
7
102
}
330
7
100
AcDbDictionary
281
     1
  3
Layout1
350
F
  3
Model
350
A
  0
DICTIONARY
  5
22
102
{ACAD_REACTORS
330
7
102
}
330
7
100
AcDbDictionary
281
     1
  0
DICTIONARY
  5
20
102
{ACAD_REACTORS
330
7
102
}
330
7
100
AcDbDictionary
281
     1
  3
Standard
350
25
  0
DICTIONARY
  5
21
102
{ACAD_REACTORS
330
7
102
}
330
7
100
AcDbDictionary
281
     1
  0
ACDBDICTIONARYWDFLT
  5
6
102
{ACAD_REACTORS
330
7
102
}
330
7
100
AcDbDictionary
281
     1
  3
Normal
350
5
100
AcDbDictionaryWithDefault
340
5
  0
DICTIONARY
  5
AF
102
{ACAD_REACTORS
330
7
102
}
330
7
100
AcDbDictionary
281
     1
  3
COLORDICT
350
B1
  3
MATERIALDICT
350
B0
  0
DICTIONARY
  5
A9
102
{ACAD_REACTORS
330
7
102
}
330
7
100
AcDbDictionary
281
     1
  3
DIMASSOC
350
AB
  3
HIDETEXT
350
AA
  3
PROJECTNAME
350
AC
  0
DICTIONARY
  5
A6
102
{ACAD_REACTORS
330
7
102
}
330
7
100
AcDbDictionary
281
     1
  3
ASEBlockHierarchyIndexRecord
350
A8
1001
DCO15
1040
1828004787.663
  0
XRECORD
  5
AE
102
{ACAD_REACTORS
330
7
102
}
330
7
100
AcDbXrecord
280
     1
  1
DWGPROPS COOKIE
  2

  3

  4

  6

  7

  8

  9

300
=
301
=
302
=
303
=
304
=
305
=
306
=
307
=
308
=
309
=
 40
1.132607962962962
 41
2452694.801882592
 42
2456960.674672025
  1

 90
        0
  0
LAYOUT
  5
F
102
{ACAD_XDICTIONARY
360
B4
102
}
102
{ACAD_REACTORS
330
B
102
}
330
B
100
AcDbPlotSettings
  1

  2
HP LaserJet 5000 N PCL 6
  4

  6

 40
0.0
 41
0.0
 42
0.0
 43
0.0
 44
0.0
 45
0.0
 46
0.0
 47
0.0
 48
0.0
 49
0.0
140
0.0
141
0.0
142
1.0
143
1.0
 70
   688
 72
     0
 73
     0
 74
     5
  7
fein.ctb
 75
    16
147
1.0
148
0.0
149
0.0
100
AcDbLayout
  1
Layout1
 70
     1
 71
     1
 10
-17.99944229392567
 20
-8.982035185577514
 11
612.0005278601925
 21
436.5269213503848
 12
0.0
 22
0.0
 32
0.0
 14
0.0
 24
0.0
 34
0.0
 15
594.0
 25
420.0
 35
0.0
146
0.0
 13
0.0
 23
0.0
 33
0.0
 16
1.0
 26
0.0
 36
0.0
 17
0.0
 27
1.0
 37
0.0
 76
     0
330
C
  0
LAYOUT
  5
A
102
{ACAD_XDICTIONARY
360
B2
102
}
102
{ACAD_REACTORS
330
B
102
}
330
B
100
AcDbPlotSettings
  1

  2
HP LaserJet 5000 N PCL 6
  4

  6

 40
0.0
 41
0.0
 42
0.0
 43
0.0
 44
0.0
 45
0.0
 46
0.0
 47
0.0
 48
0.0
 49
0.0
140
0.0
141
0.0
142
1.0
143
1.0
 70
  1712
 72
     0
 73
     0
 74
     0
  7
fein.ctb
 75
     0
147
1.0
148
0.0
149
0.0
100
AcDbLayout
  1
Model
 70
     1
 71
     0
 10
0.0
 20
0.0
 11
12.0
 21
9.0
 12
0.0
 22
0.0
 32
0.0
 14
0.0
 24
0.0
 34
0.0
 15
0.0
 25
0.0
 35
0.0
146
0.0
 13
0.0
 23
0.0
 33
0.0
 16
1.0
 26
0.0
 36
0.0
 17
0.0
 27
1.0
 37
0.0
 76
     0
330
2
  0
MLINESTYLE
  5
25
102
{ACAD_REACTORS
330
20
102
}
330
20
100
AcDbMlineStyle
  2
STANDARD
 70
     0
  3

 62
   256
 51
90.0
 52
90.0
 71
     2
 49
0.5
 62
   256
  6
BYLAYER
 49
-0.5
 62
   256
  6
BYLAYER
  0
ACDBPLACEHOLDER
  5
5
102
{ACAD_REACTORS
330
6
102
}
330
6
  0
XRECORD
  5
B1
102
{ACAD_REACTORS
330
AF
102
}
330
AF
100
AcDbXrecord
280
     1
340
23
  0
XRECORD
  5
B0
102
{ACAD_REACTORS
330
AF
102
}
330
AF
100
AcDbXrecord
280
     1
340
22
  0
DICTIONARYVAR
  5
AB
102
{ACAD_REACTORS
330
A9
102
}
330
A9
100
DictionaryVariables
280
     0
  1
1
  0
DICTIONARYVAR
  5
AA
102
{ACAD_REACTORS
330
A9
102
}
330
A9
100
DictionaryVariables
280
     0
  1
1
  0
DICTIONARYVAR
  5
AC
102
{ACAD_REACTORS
330
A9
102
}
330
A9
100
DictionaryVariables
280
     0
  1

  0
XRECORD
  5
A8
102
{ACAD_REACTORS
330
A6
102
}
330
A6
100
AcDbXrecord
280
     1
330
88
330
2C
330
49
330
5D
330
6A
  0
DICTIONARY
  5
B4
330
F
100
AcDbDictionary
280
     1
281
     1
  3
ACAD_XREC_ROUNDTRIP
360
B5
  0
DICTIONARY
  5
B2
330
A
100
AcDbDictionary
280
     1
281
     1
  3
ACAD_XREC_ROUNDTRIP
360
B3
  0
XRECORD
  5
B5
102
{ACAD_REACTORS
330
B4
102
}
330
B4
100
AcDbXrecord
280
     1
102
SHADEPLOT
 70
     0
102
SHADEPLOTRESLEVEL
 70
     2
102
SHADEPLOTCUSTOMDPI
 70
   300
  0
XRECORD
  5
B3
102
{ACAD_REACTORS
330
B2
102
}
330
B2
100
AcDbXrecord
280
     1
102
SHADEPLOT
 70
     0
102
SHADEPLOTRESLEVEL
 70
     2
102
SHADEPLOTCUSTOMDPI
 70
   300
  0
ENDSEC
  0
EOF
