  0
SECTION
  2
HEADER
  9
$ACADVER
  1
AC1009
  9
$INSBASE
 10
-111.0740305181825
 20
326.50411633185138
 30
0.0
  9
$EXTMIN
 10
-121.0740305181826
 20
299.8788243084955
 30
0.0
  9
$EXTMAX
 10
116.9748771837592
 20
626.52942917995074
 30
0.0
  9
$LIMMIN
 10
0.0
 20
0.0
  9
$LIMMAX
 10
420.0
 20
297.0
  9
$ORTHOMODE
 70
     0
  9
$REGENMODE
 70
     1
  9
$FILLMODE
 70
     1
  9
$QTEXTMODE
 70
     0
  9
$MIRRTEXT
 70
     1
  9
$DRAGMODE
 70
     2
  9
$LTSCALE
 40
1.0
  9
$OSMODE
 70
     0
  9
$ATTMODE
 70
     1
  9
$TEXTSIZE
 40
2.5
  9
$TRACEWID
 40
1.0
  9
$TEXTSTYLE
  7
STANDARD
  9
$CLAYER
  8
BEM
  9
$CELTYPE
  6
BYLAYER
  9
$CECOLOR
 62
   256
  9
$DIMSCALE
 40
1.0
  9
$DIMASZ
 40
3.5
  9
$DIMEXO
 40
0.0
  9
$DIMDLI
 40
10.0
  9
$DIMRND
 40
0.0
  9
$DIMDLE
 40
0.0
  9
$DIMEXE
 40
2.0
  9
$DIMTP
 40
0.0
  9
$DIMTM
 40
0.000000001
  9
$DIMTXT
 40
3.5
  9
$DIMCEN
 40
1.5
  9
$DIMTSZ
 40
0.0
  9
$DIMTOL
 70
     0
  9
$DIMLIM
 70
     0
  9
$DIMTIH
 70
     0
  9
$DIMTOH
 70
     0
  9
$DIMSE1
 70
     0
  9
$DIMSE2
 70
     0
  9
$DIMTAD
 70
     1
  9
$DIMZIN
 70
     8
  9
$DIMBLK
  1

  9
$DIMASO
 70
     1
  9
$DIMSHO
 70
     1
  9
$DIMPOST
  1

  9
$DIMAPOST
  1

  9
$DIMALT
 70
     0
  9
$DIMALTD
 70
     2
  9
$DIMALTF
 40
25.399999999999999
  9
$DIMLFAC
 40
1.0
  9
$DIMTOFL
 70
     1
  9
$DIMTVP
 40
0.0
  9
$DIMTIX
 70
     0
  9
$DIMSOXD
 70
     0
  9
$DIMSAH
 70
     0
  9
$DIMBLK1
  1

  9
$DIMBLK2
  1

  9
$DIMSTYLE
  2
1ZU1
  9
$DIMCLRD
 70
   256
  9
$DIMCLRE
 70
   256
  9
$DIMCLRT
 70
     7
  9
$DIMTFAC
 40
0.7
  9
$DIMGAP
 40
1.5
  9
$LUNITS
 70
     2
  9
$LUPREC
 70
     4
  9
$SKETCHINC
 40
1.0
  9
$FILLETRAD
 40
0.5
  9
$AUNITS
 70
     0
  9
$AUPREC
 70
     0
  9
$MENU
  1
.
  9
$ELEVATION
 40
0.0
  9
$PELEVATION
 40
0.0
  9
$THICKNESS
 40
0.0
  9
$LIMCHECK
 70
     0
  9
$BLIPMODE
 70
     0
  9
$CHAMFERA
 40
10.0
  9
$CHAMFERB
 40
10.0
  9
$SKPOLY
 70
     0
  9
$TDCREATE
 40
2452694.801882592
  9
$TDUPDATE
 40
2453476.4718386461
  9
$TDINDWG
 40
1.1303716318999999
  9
$TDUSRTIMER
 40
1.1303716318999999
  9
$USRTIMER
 70
     1
  9
$ANGBASE
 50
0.0
  9
$ANGDIR
 70
     0
  9
$PDMODE
 70
     0
  9
$PDSIZE
 40
0.0
  9
$PLINEWID
 40
0.0
  9
$COORDS
 70
     2
  9
$SPLFRAME
 70
     0
  9
$SPLINETYPE
 70
     6
  9
$SPLINESEGS
 70
     8
  9
$ATTDIA
 70
     0
  9
$ATTREQ
 70
     1
  9
$HANDLING
 70
     1
  9
$HANDSEED
  5
83D
  9
$SURFTAB1
 70
     6
  9
$SURFTAB2
 70
     6
  9
$SURFTYPE
 70
     6
  9
$SURFU
 70
     6
  9
$SURFV
 70
     6
  9
$UCSNAME
  2

  9
$UCSORG
 10
0.0
 20
0.0
 30
0.0
  9
$UCSXDIR
 10
1.0
 20
0.0
 30
0.0
  9
$UCSYDIR
 10
0.0
 20
1.0
 30
0.0
  9
$PUCSNAME
  2

  9
$PUCSORG
 10
0.0
 20
0.0
 30
0.0
  9
$PUCSXDIR
 10
1.0
 20
0.0
 30
0.0
  9
$PUCSYDIR
 10
0.0
 20
1.0
 30
0.0
  9
$USERI1
 70
     0
  9
$USERI2
 70
     0
  9
$USERI3
 70
     0
  9
$USERI4
 70
     0
  9
$USERI5
 70
     0
  9
$USERR1
 40
3.0
  9
$USERR2
 40
1.0
  9
$USERR3
 40
1.0
  9
$USERR4
 40
0.0
  9
$USERR5
 40
0.0
  9
$WORLDVIEW
 70
     1
  9
$SHADEDGE
 70
     3
  9
$SHADEDIF
 70
    70
  9
$TILEMODE
 70
     1
  9
$MAXACTVP
 70
    64
  9
$PLIMCHECK
 70
     0
  9
$PEXTMIN
 10
0.0
 20
0.0
 30
0.0
  9
$PEXTMAX
 10
594.0
 20
420.0
 30
0.0
  9
$PLIMMIN
 10
-17.999442293925672
 20
-8.982035185577514
  9
$PLIMMAX
 10
612.00052786019251
 20
436.52692135038501
  9
$UNITMODE
 70
     0
  9
$VISRETAIN
 70
     1
  9
$PLINEGEN
 70
     0
  9
$PSLTSCALE
 70
     1
  0
ENDSEC
  0
SECTION
  2
TABLES
  0
TABLE
  2
VPORT
 70
     2
  0
VPORT
  2
*ACTIVE
 70
     0
 10
0.0
 20
0.0
 11
1.0
 21
1.0
 12
-2.0429622124053699
 22
463.20611785672668
 13
0.0
 23
0.0
 14
10.0
 24
10.0
 15
10.0
 25
10.0
 16
0.0
 26
0.0
 36
1.0
 17
0.0
 27
0.0
 37
0.0
 40
328.94874040721243
 41
1.6743421052631571
 42
50.0
 43
0.0
 44
0.0
 50
0.0
 51
0.0
 71
     0
 72
   100
 73
     1
 74
     3
 75
     0
 76
     0
 77
     0
 78
     2
  0
ENDTAB
  0
TABLE
  2
LTYPE
 70
     3
  0
LTYPE
  2
CONTINUOUS
 70
     0
  3
Solid line
 72
    65
 73
     0
 40
0.0
  0
LTYPE
  2
ACAD_ISO04W100
 70
     0
  3
ISO Lang gestrichelt punktiert ____ . ____ . __
 72
    65
 73
     4
 40
30.0
 49
24.0
 49
-3.0
 49
0.0
 49
-3.0
  0
LTYPE
  2
VERDECKT
 70
     0
  3
Verdeckt __ __ __ __ __ __ __ __ __ __ __ __ __
 72
    65
 73
     2
 40
9.5249999999999986
 49
6.3499999999999988
 49
-3.1749999999999989
  0
ENDTAB
  0
TABLE
  2
LAYER
 70
     5
  0
LAYER
  2
0
 70
     0
 62
     7
  6
CONTINUOUS
  0
LAYER
  2
DEFPOINTS
 70
     0
 62
     7
  6
CONTINUOUS
  0
LAYER
  2
BEM
 70
     0
 62
     3
  6
CONTINUOUS
  0
LAYER
  2
SYM1
 70
     0
 62
     6
  6
ACAD_ISO04W100
  0
LAYER
  2
VER1
 70
     0
 62
     8
  6
VERDECKT
  0
ENDTAB
  0
TABLE
  2
STYLE
 70
     2
  0
STYLE
  2
STANDARD
 70
     0
 40
0.0
 41
1.0
 50
0.0
 71
     0
 42
2.5
  3
txt
  4

  0
STYLE
  2
ROMANS
 70
     0
 40
0.0
 41
1.0
 50
0.0
 71
     0
 42
3.5
  3
C:\ACAD13\COM\FONTS\ROMANS.SHX
  4

  0
ENDTAB
  0
TABLE
  2
VIEW
 70
     0
  0
ENDTAB
  0
TABLE
  2
UCS
 70
     0
  0
ENDTAB
  0
TABLE
  2
APPID
 70
     1
  0
APPID
  2
ACAD
 70
     0
  0
ENDTAB
  0
TABLE
  2
DIMSTYLE
 70
     1
  0
DIMSTYLE
  2
1ZU1
 70
     0
  3

  4

  5

  6

  7

 40
1.0
 41
3.5
 42
0.0
 43
10.0
 44
2.0
 45
0.0
 46
0.0
 47
0.0
 48
0.000000001
140
3.5
141
1.5
142
0.0
143
25.399999999999999
144
1.0
145
0.0
146
0.7
147
1.5
 71
     0
 72
     0
 73
     0
 74
     0
 75
     0
 76
     0
 77
     1
 78
     8
170
     0
171
     2
172
     1
173
     0
174
     0
175
     0
176
   256
177
   256
178
     7
  0
ENDTAB
  0
ENDSEC
  0
SECTION
  2
BLOCKS
  0
BLOCK
  8
0
  2
$MODEL_SPACE
 70
     0
 10
0.0
 20
0.0
 30
0.0
  3
$MODEL_SPACE
  1

  0
ENDBLK
  5
9
  8
0
  0
BLOCK
 67
     1
  8
0
  2
$PAPER_SPACE
 70
     0
 10
0.0
 20
0.0
 30
0.0
  3
$PAPER_SPACE
  1

  0
ENDBLK
  5
E
 67
     1
  8
0
  0
BLOCK
  8
0
  2
*D0
 70
     1
 10
0.0
 20
0.0
 30
0.0
  3
*D0
  1

  0
LINE
  5
4BB
  8
BEM
 10
-42.055652502150821
 20
401.62130286384252
 30
0.0
 11
-29.689816688016489
 21
413.78314963091321
 31
0.0
  0
INSERT
  5
4BC
  8
BEM
  2
*U42
 10
0.0
 20
0.0
 30
0.0
  0
SOLID
  5
4BD
  8
BEM
 10
-30.098851039887421
 20
414.19904466186131
 30
0.0
 11
-29.280782336145592
 21
413.36725459996518
 31
0.0
 12
-27.194446502327992
 22
416.23735574213879
 32
0.0
 13
-27.194446502327992
 23
416.23735574213879
 33
0.0
  0
POINT
  5
4BE
  8
DEFPOINTS
 62
     0
 10
-27.194446502327992
 20
416.23735574213879
 30
0.0
  0
POINT
  5
4BF
  8
DEFPOINTS
 62
     0
 10
-82.805553497671667
 20
361.54361954911201
 30
0.0
  0
ENDBLK
  5
1BE
  8
0
  0
BLOCK
  8
0
  2
*D1
 70
     1
 10
0.0
 20
0.0
 30
0.0
  3
*D1
  1

  0
LINE
  5
465
  8
BEM
 10
38.919432723795623
 20
503.27130831993719
 30
0.0
 11
20.748296504731961
 21
508.22166161636648
 31
0.0
  0
INSERT
  5
466
  8
BEM
  2
*U36
 10
0.0
 20
0.0
 30
0.0
  0
SOLID
  5
467
  8
BEM
 10
20.90162565448593
 20
508.7844830353028
 30
0.0
 11
20.59496735497801
 21
507.6588401974301
 31
0.0
 12
17.37136799111396
 22
509.14163651489019
 32
0.0
 13
17.37136799111396
 23
509.14163651489019
 33
0.0
  0
POINT
  5
468
  8
DEFPOINTS
 62
     0
 10
17.37136799111396
 20
509.14163651489019
 30
0.0
  0
POINT
  5
469
  8
DEFPOINTS
 62
     0
 10
92.628632008886328
 20
488.6393387763606
 30
0.0
  0
ENDBLK
  5
1CD
  8
0
  0
BLOCK
  8
0
  2
*D2
 70
     1
 10
0.0
 20
0.0
 30
0.0
  3
*D2
  1

  0
LINE
  5
3C8
  8
BEM
 10
-94.499999999999858
 20
463.14048764562529
 30
0.0
 11
-94.499999999999858
 21
448.04224897237151
 31
0.0
  0
LINE
  5
3C9
  8
BEM
 10
-93.999999999999858
 20
463.14048764562529
 30
0.0
 11
-93.999999999999858
 21
448.04224897237151
 31
0.0
  0
LINE
  5
3CA
  8
BEM
 10
-97.999999999999858
 20
450.04224897237162
 30
0.0
 11
-101.4999999999998
 21
450.04224897237162
 31
0.0
  0
LINE
  5
3CB
  8
BEM
 10
-90.499999999999858
 20
450.04224897237162
 30
0.0
 11
-3.4999999999998859
 21
450.04224897237162
 31
0.0
  0
LINE
  5
3CC
  8
BEM
 10
-94.499999999999858
 20
450.04224897237162
 30
0.0
 11
-93.999999999999858
 21
450.04224897237162
 31
0.0
  0
SOLID
  5
3CD
  8
BEM
 10
-97.999999999999858
 20
450.62558230570482
 30
0.0
 11
-97.999999999999858
 21
449.4589156390382
 31
0.0
 12
-94.499999999999858
 22
450.04224897237162
 32
0.0
 13
-94.499999999999858
 23
450.04224897237162
 33
0.0
  0
SOLID
  5
3CE
  8
BEM
 10
-90.499999999999858
 20
450.62558230570482
 30
0.0
 11
-90.499999999999858
 21
449.4589156390382
 31
0.0
 12
-93.999999999999858
 22
450.04224897237162
 32
0.0
 13
-93.999999999999858
 23
450.04224897237162
 33
0.0
  0
INSERT
  5
3CF
  8
BEM
  2
*U33
 10
0.0
 20
0.0
 30
0.0
  0
POINT
  5
3D0
  8
DEFPOINTS
 62
     0
 10
-94.499999999999858
 20
463.14048764562529
 30
0.0
  0
POINT
  5
3D1
  8
DEFPOINTS
 62
     0
 10
-93.999999999999858
 20
463.14048764562529
 30
0.0
  0
POINT
  5
3D2
  8
DEFPOINTS
 62
     0
 10
-93.999999999999858
 20
450.04224897237162
 30
0.0
  0
ENDBLK
  5
1E0
  8
0
  0
BLOCK
  8
0
  2
*D3
 70
     1
 10
0.0
 20
0.0
 30
0.0
  3
*D3
  1

  0
LINE
  5
3D3
  8
BEM
 10
-38.475178160298533
 20
508.70557493829398
 30
0.0
 11
-23.26969359745809
 21
529.21789017000958
 31
0.0
  0
LINE
  5
3D4
  8
BEM
 10
-15.230306402541739
 20
540.0630851212411
 30
0.0
 11
-13.146020833489359
 21
542.87480233081953
 31
0.0
  0
INSERT
  5
3D5
  8
BEM
  2
*U34
 10
0.0
 20
0.0
 30
0.0
  0
LINE
  5
3D6
  8
BEM
 10
-17.314591971594119
 20
537.25136791166256
 30
0.0
 11
-21.1854080284057
 21
532.02960737958824
 31
0.0
  0
SOLID
  5
3D7
  8
BEM
 10
-15.69892593747144
 20
540.41046604941653
 30
0.0
 11
-14.76168686761198
 21
539.71570419306568
 31
0.0
 12
-17.314591971594119
 22
537.25136791166256
 32
0.0
 13
-17.314591971594119
 23
537.25136791166256
 33
0.0
  0
SOLID
  5
3D8
  8
BEM
 10
-23.738313132387791
 20
529.56527109818512
 30
0.0
 11
-22.801074062528329
 21
528.87050924183438
 31
0.0
 12
-21.1854080284057
 22
532.02960737958824
 32
0.0
 13
-21.1854080284057
 23
532.02960737958824
 33
0.0
  0
POINT
  5
3D9
  8
DEFPOINTS
 62
     0
 10
-21.1854080284057
 20
532.02960737958824
 30
0.0
  0
POINT
  5
3DA
  8
DEFPOINTS
 62
     0
 10
-17.314591971594119
 20
537.25136791166256
 30
0.0
  0
ENDBLK
  5
1EB
  8
0
  0
BLOCK
  8
0
  2
*D4
 70
     1
 10
0.0
 20
0.0
 30
0.0
  3
*D4
  1

  0
LINE
  5
61B
  8
BEM
 10
90.750000000000213
 20
431.64048764562529
 30
0.0
 11
116.9748771837592
 21
431.64048764562529
 31
0.0
  0
LINE
  5
61C
  8
BEM
 10
90.750000000000213
 20
424.64048764562523
 30
0.0
 11
116.9748771837592
 21
424.64048764562523
 31
0.0
  0
LINE
  5
61D
  8
BEM
 10
114.9748771837592
 20
435.14048764562529
 30
0.0
 11
114.9748771837592
 21
438.64048764562529
 31
0.0
  0
LINE
  5
61E
  8
BEM
 10
114.9748771837592
 20
421.14048764562529
 30
0.0
 11
114.9748771837592
 21
417.64048764562529
 31
0.0
  0
LINE
  5
61F
  8
BEM
 10
114.9748771837592
 20
431.64048764562529
 30
0.0
 11
114.9748771837592
 21
424.64048764562523
 31
0.0
  0
SOLID
  5
620
  8
BEM
 10
114.3915438504258
 20
435.14048764562529
 30
0.0
 11
115.5582105170925
 21
435.14048764562529
 31
0.0
 12
114.9748771837592
 22
431.64048764562529
 32
0.0
 13
114.9748771837592
 23
431.64048764562529
 33
0.0
  0
SOLID
  5
621
  8
BEM
 10
114.3915438504258
 20
421.14048764562529
 30
0.0
 11
115.5582105170925
 21
421.14048764562529
 31
0.0
 12
114.9748771837592
 22
424.64048764562523
 32
0.0
 13
114.9748771837592
 23
424.64048764562523
 33
0.0
  0
INSERT
  5
622
  8
BEM
  2
*U51
 10
0.0
 20
0.0
 30
0.0
  0
POINT
  5
623
  8
DEFPOINTS
 62
     0
 10
90.750000000000213
 20
431.64048764562529
 30
0.0
  0
POINT
  5
624
  8
DEFPOINTS
 62
     0
 10
90.750000000000213
 20
424.64048764562523
 30
0.0
  0
POINT
  5
625
  8
DEFPOINTS
 62
     0
 10
114.9748771837592
 20
424.64048764562523
 30
0.0
  0
ENDBLK
  5
218
  8
0
  0
BLOCK
  8
0
  2
*D5
 70
     1
 10
0.0
 20
0.0
 30
0.0
  3
*D5
  1

  0
LINE
  5
719
  8
BEM
 10
39.504563491724639
 20
441.42399305499362
 30
0.0
 11
32.504563491724639
 21
441.42399305499362
 31
0.0
  0
LINE
  5
71A
  8
BEM
 10
32.504563491724639
 20
441.42399305499362
 30
0.0
 11
25.28422397928728
 21
436.09449044847543
 31
0.0
  0
LINE
  5
71B
  8
BEM
 10
13.215776020712889
 20
427.1864848427752
 30
0.0
 11
10.39980483037891
 21
425.10795020144519
 31
0.0
  0
INSERT
  5
71C
  8
BEM
  2
*U53
 10
0.0
 20
0.0
 30
0.0
  0
LINE
  5
71D
  8
BEM
 10
16.031747211046898
 20
429.26501948410532
 30
0.0
 11
22.46825278895329
 21
434.0159558071453
 31
0.0
  0
SOLID
  5
71E
  8
BEM
 10
12.86935358049123
 20
427.6558133744976
 30
0.0
 11
13.56219846093455
 21
426.71715631105297
 31
0.0
 12
16.031747211046898
 22
429.26501948410532
 32
0.0
 13
16.031747211046898
 23
429.26501948410532
 33
0.0
  0
SOLID
  5
71F
  8
BEM
 10
24.937801539065621
 20
436.56381898019771
 30
0.0
 11
25.630646419508938
 21
435.62516191675309
 31
0.0
 12
22.46825278895329
 22
434.0159558071453
 32
0.0
 13
22.46825278895329
 23
434.0159558071453
 33
0.0
  0
POINT
  5
720
  8
DEFPOINTS
 62
     0
 10
22.46825278895329
 20
434.0159558071453
 30
0.0
  0
POINT
  5
721
  8
DEFPOINTS
 62
     0
 10
16.031747211046898
 20
429.26501948410532
 30
0.0
  0
ENDBLK
  5
231
  8
0
  0
BLOCK
  8
0
  2
*D6
 70
     1
 10
0.0
 20
0.0
 30
0.0
  3
*D6
  1

  0
LINE
  5
707
  8
BEM
 10
1.6131311505524191
 20
416.3274243666861
 30
0.0
 11
8.6131311505524462
 21
416.3274243666861
 31
0.0
  0
LINE
  5
708
  8
BEM
 10
8.6131311505524462
 20
416.3274243666861
 30
0.0
 11
14.128544628043921
 21
420.63790162243231
 31
0.0
  0
LINE
  5
709
  8
BEM
 10
24.371455371956529
 20
428.64307366881809
 30
0.0
 11
27.129162110702278
 21
430.79831229669122
 31
0.0
  0
INSERT
  5
70A
  8
BEM
  2
*U52
 10
0.0
 20
0.0
 30
0.0
  0
LINE
  5
70B
  8
BEM
 10
21.613748633210779
 20
426.48783504094501
 30
0.0
 11
16.886251366789679
 21
422.79314025030538
 31
0.0
  0
SOLID
  5
70C
  8
BEM
 10
24.01224893397767
 20
429.102691458609
 30
0.0
 11
24.730661809935359
 21
428.18345587902712
 31
0.0
 12
21.613748633210779
 22
426.48783504094501
 32
0.0
 13
21.613748633210779
 23
426.48783504094501
 33
0.0
  0
SOLID
  5
70D
  8
BEM
 10
13.769338190065101
 20
421.09751941222322
 30
0.0
 11
14.487751066022749
 21
420.1782838326414
 31
0.0
 12
16.886251366789679
 22
422.79314025030538
 32
0.0
 13
16.886251366789679
 23
422.79314025030538
 33
0.0
  0
POINT
  5
70E
  8
DEFPOINTS
 62
     0
 10
16.886251366789679
 20
422.79314025030538
 30
0.0
  0
POINT
  5
70F
  8
DEFPOINTS
 62
     0
 10
21.613748633210779
 20
426.48783504094501
 30
0.0
  0
ENDBLK
  5
23C
  8
0
  0
BLOCK
  8
0
  2
*D7
 70
     1
 10
0.0
 20
0.0
 30
0.0
  3
*D7
  1

  0
LINE
  5
5E1
  8
BEM
 10
19.250000000000188
 20
353.14048764562523
 30
0.0
 11
19.250000000000188
 21
324.62200315709299
 31
0.0
  0
LINE
  5
5E2
  8
BEM
 10
90.750000000000199
 20
353.14048764562523
 30
0.0
 11
90.750000000000199
 21
324.62200315709299
 31
0.0
  0
LINE
  5
5E3
  8
BEM
 10
22.750000000000188
 20
326.62200315709299
 30
0.0
 11
87.250000000000199
 21
326.62200315709299
 31
0.0
  0
SOLID
  5
5E4
  8
BEM
 10
22.750000000000188
 20
327.2053364904263
 30
0.0
 11
22.750000000000188
 21
326.03866982375968
 31
0.0
 12
19.250000000000188
 22
326.62200315709299
 32
0.0
 13
19.250000000000188
 23
326.62200315709299
 33
0.0
  0
SOLID
  5
5E5
  8
BEM
 10
87.250000000000199
 20
327.2053364904263
 30
0.0
 11
87.250000000000199
 21
326.03866982375968
 31
0.0
 12
90.750000000000199
 22
326.62200315709299
 32
0.0
 13
90.750000000000199
 23
326.62200315709299
 33
0.0
  0
INSERT
  5
5E6
  8
BEM
  2
*U50
 10
0.0
 20
0.0
 30
0.0
  0
POINT
  5
5E7
  8
DEFPOINTS
 62
     0
 10
19.250000000000188
 20
353.14048764562523
 30
0.0
  0
POINT
  5
5E8
  8
DEFPOINTS
 62
     0
 10
90.750000000000199
 20
353.14048764562523
 30
0.0
  0
POINT
  5
5E9
  8
DEFPOINTS
 62
     0
 10
90.750000000000199
 20
326.62200315709299
 30
0.0
  0
ENDBLK
  5
248
  8
0
  0
BLOCK
  8
0
  2
*D8
 70
     1
 10
0.0
 20
0.0
 30
0.0
  3
*D8
  1

  0
LINE
  5
4C0
  8
BEM
 10
-75.335020269172219
 20
405.58533503591337
 30
0.0
 11
-86.661913188700254
 21
419.58701891382537
 31
0.0
  0
LINE
  5
4C1
  8
BEM
 10
-94.838086811299519
 20
429.6939563774248
 30
0.0
 11
-97.039364325076235
 21
432.41505492531701
 31
0.0
  0
INSERT
  5
4C2
  8
BEM
  2
*U43
 10
0.0
 20
0.0
 30
0.0
  0
LINE
  5
4C3
  8
BEM
 10
-92.636809297522774
 20
426.97285782953259
 30
0.0
 11
-88.863190702476984
 21
422.30811746171747
 31
0.0
  0
SOLID
  5
4C4
  8
BEM
 10
-94.384570386650836
 20
430.06083596305422
 30
0.0
 11
-95.29160323594823
 21
429.32707679179532
 31
0.0
 12
-92.636809297522774
 22
426.97285782953259
 32
0.0
 13
-92.636809297522774
 23
426.97285782953259
 33
0.0
  0
SOLID
  5
4C5
  8
BEM
 10
-86.208396764051571
 20
419.95389849945479
 30
0.0
 11
-87.115429613348965
 21
419.2201393281959
 31
0.0
 12
-88.863190702476984
 22
422.30811746171747
 32
0.0
 13
-88.863190702476984
 23
422.30811746171747
 33
0.0
  0
POINT
  5
4C6
  8
DEFPOINTS
 62
     0
 10
-88.863190702476984
 20
422.30811746171747
 30
0.0
  0
POINT
  5
4C7
  8
DEFPOINTS
 62
     0
 10
-92.636809297522774
 20
426.97285782953259
 30
0.0
  0
ENDBLK
  5
25B
  8
0
  0
BLOCK
  8
0
  2
*D9
 70
     1
 10
0.0
 20
0.0
 30
0.0
  3
*D9
  1

  0
LINE
  5
48A
  8
BEM
 10
-67.763176019367094
 20
411.7457891907834
 30
0.0
 11
-80.102097665473906
 21
423.98604064044071
 31
0.0
  0
LINE
  5
48B
  8
BEM
 10
-90.751192530903666
 20
434.54997828447642
 30
0.0
 11
-93.235981332837284
 21
437.01489706808468
 31
0.0
  0
INSERT
  5
48C
  8
BEM
  2
*U39
 10
0.0
 20
0.0
 30
0.0
  0
LINE
  5
48D
  8
BEM
 10
-88.266403728970033
 20
432.085059500868
 30
0.0
 11
-82.586886467407538
 21
426.45095942404902
 31
0.0
  0
SOLID
  5
48E
  8
BEM
 10
-90.340372733635604
 20
434.96410975146529
 30
0.0
 11
-91.162012328171755
 21
434.1358468174875
 31
0.0
 12
-88.266403728970033
 22
432.085059500868
 32
0.0
 13
-88.266403728970033
 23
432.085059500868
 33
0.0
  0
SOLID
  5
48F
  8
BEM
 10
-79.691277868205844
 20
424.40017210742968
 30
0.0
 11
-80.512917462741967
 21
423.57190917345179
 31
0.0
 12
-82.586886467407538
 22
426.45095942404902
 32
0.0
 13
-82.586886467407538
 23
426.45095942404902
 33
0.0
  0
POINT
  5
490
  8
DEFPOINTS
 62
     0
 10
-82.586886467407538
 20
426.45095942404902
 30
0.0
  0
POINT
  5
491
  8
DEFPOINTS
 62
     0
 10
-88.266403728970033
 20
432.085059500868
 30
0.0
  0
ENDBLK
  5
266
  8
0
  0
BLOCK
  8
0
  2
*D10
 70
     1
 10
0.0
 20
0.0
 30
0.0
  3
*D10
  1

  0
LINE
  5
79F
  8
BEM
 10
-75.046722832811867
 20
375.88690002164782
 30
0.0
 11
-89.349782370125297
 21
358.894989507216
 31
0.0
  0
TEXT
  8
BEM
  40
3.5
  5
83A
  62
7
  72
0
  71
0
 10
-88.9336
 20
366.557
 30
0.000000
  1
R0.5
  7
ROMANS
  0
SOLID
  5
7A1
  8
BEM
 10
-89.796057137805064
 20
359.27064441469111
 30
0.0
 11
-88.903507602445558
 21
358.51933459974089
 31
0.0
 12
-91.603711814976066
 22
356.21734090113739
 32
0.0
 13
-91.603711814976066
 23
356.21734090113739
 33
0.0
  0
POINT
  5
7A2
  8
DEFPOINTS
 62
     0
 10
-91.603711814976066
 20
356.21734090113739
 30
0.0
  0
POINT
  5
7A3
  8
DEFPOINTS
 62
     0
 10
-91.281721894282583
 20
356.59986213057772
 30
0.0
  0
ENDBLK
  5
26E
  8
0
  0
BLOCK
  8
0
  2
*D11
 70
     1
 10
0.0
 20
0.0
 30
0.0
  3
*D11
  1

  0
LINE
  5
497
  8
BEM
 10
-90.749999999999716
 20
353.14048764562523
 30
0.0
 11
-90.749999999999716
 21
324.62200315709299
 31
0.0
  0
LINE
  5
498
  8
BEM
 10
-19.249999999999972
 20
353.14048764562523
 30
0.0
 11
-19.249999999999972
 21
324.62200315709299
 31
0.0
  0
LINE
  5
499
  8
BEM
 10
-87.249999999999716
 20
326.62200315709299
 30
0.0
 11
-22.749999999999972
 21
326.62200315709299
 31
0.0
  0
SOLID
  5
49A
  8
BEM
 10
-87.249999999999716
 20
327.2053364904263
 30
0.0
 11
-87.249999999999716
 21
326.03866982375968
 31
0.0
 12
-90.749999999999716
 22
326.62200315709299
 32
0.0
 13
-90.749999999999716
 23
326.62200315709299
 33
0.0
  0
SOLID
  5
49B
  8
BEM
 10
-22.749999999999972
 20
327.2053364904263
 30
0.0
 11
-22.749999999999972
 21
326.03866982375968
 31
0.0
 12
-19.249999999999972
 22
326.62200315709299
 32
0.0
 13
-19.249999999999972
 23
326.62200315709299
 33
0.0
  0
INSERT
  5
49C
  8
BEM
  2
*U40
 10
0.0
 20
0.0
 30
0.0
  0
POINT
  5
49D
  8
DEFPOINTS
 62
     0
 10
-90.749999999999716
 20
353.14048764562523
 30
0.0
  0
POINT
  5
49E
  8
DEFPOINTS
 62
     0
 10
-19.249999999999972
 20
353.14048764562523
 30
0.0
  0
POINT
  5
49F
  8
DEFPOINTS
 62
     0
 10
-19.249999999999972
 20
326.62200315709299
 30
0.0
  0
ENDBLK
  5
27A
  8
0
  0
BLOCK
  8
0
  2
*D12
 70
     1
 10
0.0
 20
0.0
 30
0.0
  3
*D12
  1

  0
ARC
  5
4A0
  8
BEM
 10
-54.999999999999829
 20
388.89048764562523
 30
0.0
 40
30.57633059284311
 50
293.8541609169929
 51
307.00000000000011
  0
LINE
  5
4A1
  8
BEM
 10
-42.634625692707878
 20
360.9260546858207
 30
0.0
 11
-48.731810981154467
 21
358.22998792055063
 31
0.0
  0
ARC
  5
4A2
  8
BEM
 10
-54.999999999999829
 20
388.89048764562523
 30
0.0
 40
30.57633059284311
 50
293.87580434750208
 51
300.43790217375113
  0
ARC
  5
4A3
  8
BEM
 10
-54.999999999999829
 20
388.89048764562523
 30
0.0
 40
30.57633059284311
 50
321.56209782624921
 51
328.12419565249809
  0
ARC
  5
4A4
  8
BEM
 10
-54.999999999999829
 20
388.89048764562523
 30
0.0
 40
30.57633059284311
 50
307.00000000000011
 51
315.00000000000023
  0
SOLID
  5
4A5
  8
BEM
 10
-39.833721596647393
 20
363.01342525224641
 30
0.0
 11
-39.186082094473448
 21
362.0430262691807
 31
0.0
 12
-36.598704896363223
 22
364.47114426723527
 32
0.0
 13
-36.598704896363223
 23
364.47114426723527
 33
0.0
  0
SOLID
  5
4A6
  8
BEM
 10
-30.614688265374131
 20
369.49402524941661
 30
0.0
 11
-31.48550939442163
 21
370.27041540411687
 31
0.0
 12
-33.379269293998732
 22
367.26975693962419
 32
0.0
 13
-33.379269293998732
 23
367.26975693962419
 33
0.0
  0
INSERT
  5
4A7
  8
BEM
  2
*U41
 10
0.0
 20
0.0
 30
0.0
  0
POINT
  5
4A8
  8
DEFPOINTS
 62
     0
 10
-34.408593384173201
 20
366.28725853771851
 30
0.0
  0
POINT
  5
4A9
  8
DEFPOINTS
 62
     0
 10
-19.249999999999709
 20
353.14048764562529
 30
0.0
  0
POINT
  5
4AA
  8
DEFPOINTS
 62
     0
 10
-54.999999999999829
 20
388.89048764562523
 30
0.0
  0
POINT
  5
4AB
  8
DEFPOINTS
 62
     0
 10
-24.573354901810919
 20
348.51296582879178
 30
0.0
  0
POINT
  5
4AC
  8
DEFPOINTS
 62
     0
 10
-54.999999999999829
 20
388.89048764562523
 30
0.0
  0
ENDBLK
  5
28A
  8
0
  0
BLOCK
  8
0
  2
*D13
 70
     1
 10
0.0
 20
0.0
 30
0.0
  3
*D13
  1

  0
LINE
  5
4CD
  8
BEM
 10
-60.475817049918533
 20
381.07040630155541
 30
0.0
 11
-81.991890905420775
 21
350.34303790681662
 31
0.0
  0
INSERT
  5
4CE
  8
BEM
  2
*U44
 10
0.0
 20
0.0
 30
0.0
  0
SOLID
  5
4CF
  8
BEM
 10
-82.469725660601824
 20
350.67762978436122
 30
0.0
 11
-81.514056150239753
 21
350.00844602927191
 31
0.0
 12
-83.999442170688582
 22
347.47602937573032
 32
0.0
 13
-83.999442170688582
 23
347.47602937573032
 33
0.0
  0
POINT
  5
4D0
  8
DEFPOINTS
 62
     0
 10
-83.999442170688582
 20
347.47602937573032
 30
0.0
  0
POINT
  5
4D1
  8
DEFPOINTS
 62
     0
 10
-26.000557829311191
 20
430.30494591552031
 30
0.0
  0
ENDBLK
  5
292
  8
0
  0
BLOCK
  8
0
  2
*D14
 70
     1
 10
0.0
 20
0.0
 30
0.0
  3
*D14
  1

  0
LINE
  5
4E4
  8
BEM
 10
-90.749999999999787
 20
353.14048764562523
 30
0.0
 11
-118.0740305181825
 21
353.14048764562523
 31
0.0
  0
LINE
  5
4E5
  8
BEM
 10
-90.749999999999972
 20
424.64048764562511
 30
0.0
 11
-118.0740305181825
 21
424.64048764562511
 31
0.0
  0
LINE
  5
4E6
  8
BEM
 10
-116.0740305181825
 20
356.64048764562523
 30
0.0
 11
-116.0740305181825
 21
421.14048764562511
 31
0.0
  0
SOLID
  5
4E7
  8
BEM
 10
-116.6573638515159
 20
356.64048764562523
 30
0.0
 11
-115.4906971848492
 21
356.64048764562523
 31
0.0
 12
-116.0740305181825
 22
353.14048764562523
 32
0.0
 13
-116.0740305181825
 23
353.14048764562523
 33
0.0
  0
SOLID
  5
4E8
  8
BEM
 10
-116.6573638515159
 20
421.14048764562511
 30
0.0
 11
-115.4906971848492
 21
421.14048764562511
 31
0.0
 12
-116.0740305181825
 22
424.64048764562511
 32
0.0
 13
-116.0740305181825
 23
424.64048764562511
 33
0.0
  0
INSERT
  5
4E9
  8
BEM
  2
*U45
 10
0.0
 20
0.0
 30
0.0
  0
POINT
  5
4EA
  8
DEFPOINTS
 62
     0
 10
-90.749999999999787
 20
353.14048764562523
 30
0.0
  0
POINT
  5
4EB
  8
DEFPOINTS
 62
     0
 10
-90.749999999999972
 20
424.64048764562511
 30
0.0
  0
POINT
  5
4EC
  8
DEFPOINTS
 62
     0
 10
-116.0740305181825
 20
424.64048764562511
 30
0.0
  0
ENDBLK
  5
29E
  8
0
  0
BLOCK
  8
0
  2
*D15
 70
     1
 10
0.0
 20
0.0
 30
0.0
  3
*D15
  1

  0
LINE
  5
58B
  8
BEM
 10
44.708981608171477
 20
406.23376833018648
 30
0.0
 11
36.88440564083033
 21
419.42039496638228
 31
0.0
  0
INSERT
  5
58C
  8
BEM
  2
*U46
 10
0.0
 20
0.0
 30
0.0
  0
SOLID
  5
58D
  8
BEM
 10
37.386070784598623
 20
419.71806905209638
 30
0.0
 11
36.382740497062002
 21
419.12272088066823
 31
0.0
 12
35.098361126545967
 22
422.43038582899209
 32
0.0
 13
35.098361126545967
 23
422.43038582899209
 33
0.0
  0
POINT
  5
58E
  8
DEFPOINTS
 62
     0
 10
35.098361126545967
 20
422.43038582899209
 30
0.0
  0
POINT
  5
58F
  8
DEFPOINTS
 62
     0
 10
74.901638873454573
 20
355.35058946225809
 30
0.0
  0
ENDBLK
  5
2A6
  8
0
  0
BLOCK
  8
0
  2
*D16
 70
     1
 10
0.0
 20
0.0
 30
0.0
  3
*D16
  1

  0
LINE
  5
5A2
  8
BEM
 10
90.750000000000085
 20
353.14048764562529
 30
0.0
 11
116.9748771837592
 21
353.14048764562529
 31
0.0
  0
LINE
  5
5A3
  8
BEM
 10
90.749999999999986
 20
424.64048764562551
 30
0.0
 11
116.9748771837592
 21
424.64048764562551
 31
0.0
  0
LINE
  5
5A4
  8
BEM
 10
114.9748771837592
 20
356.64048764562529
 30
0.0
 11
114.9748771837592
 21
421.14048764562551
 31
0.0
  0
SOLID
  5
5A5
  8
BEM
 10
114.3915438504258
 20
356.64048764562529
 30
0.0
 11
115.5582105170925
 21
356.64048764562529
 31
0.0
 12
114.9748771837592
 22
353.14048764562529
 32
0.0
 13
114.9748771837592
 23
353.14048764562529
 33
0.0
  0
SOLID
  5
5A6
  8
BEM
 10
114.3915438504258
 20
421.14048764562551
 30
0.0
 11
115.5582105170925
 21
421.14048764562551
 31
0.0
 12
114.9748771837592
 22
424.64048764562551
 32
0.0
 13
114.9748771837592
 23
424.64048764562551
 33
0.0
  0
INSERT
  5
5A7
  8
BEM
  2
*U47
 10
0.0
 20
0.0
 30
0.0
  0
POINT
  5
5A8
  8
DEFPOINTS
 62
     0
 10
90.750000000000085
 20
353.14048764562529
 30
0.0
  0
POINT
  5
5A9
  8
DEFPOINTS
 62
     0
 10
90.749999999999986
 20
424.64048764562551
 30
0.0
  0
POINT
  5
5AA
  8
DEFPOINTS
 62
     0
 10
114.9748771837592
 20
424.64048764562551
 30
0.0
  0
ENDBLK
  5
2B2
  8
0
  0
BLOCK
  8
0
  2
*D17
 70
     1
 10
0.0
 20
0.0
 30
0.0
  3
*D17
  1

  0
LINE
  5
7B3
  8
BEM
 10
70.83332827860184
 20
545.3362518479106
 30
0.0
 11
84.899993524208611
 21
535.49636499325186
 31
0.0
  0
TEXT
  8
BEM
  40
3.5
  5
83B
  62
7
  72
0
  71
0
 10
71.2956
 20
537.888
 30
0.000000
  1
R0.5
  7
ROMANS
  0
SOLID
  5
7B5
  8
BEM
 10
85.234358611502799
 20
535.97435847247164
 30
0.0
 11
84.565628436914338
 21
535.01837151403231
 31
0.0
 12
87.767954399526502
 22
533.49017446948665
 32
0.0
 13
87.767954399526502
 23
533.49017446948665
 33
0.0
  0
POINT
  5
7B6
  8
DEFPOINTS
 62
     0
 10
87.767954399526502
 20
533.49017446948665
 30
0.0
  0
POINT
  5
7B7
  8
DEFPOINTS
 62
     0
 10
87.358245703052489
 20
533.77677311573882
 30
0.0
  0
ENDBLK
  5
2EB
  8
0
  0
BLOCK
  8
0
  2
*D18
 70
     1
 10
0.0
 20
0.0
 30
0.0
  3
*D18
  1

  0
LINE
  5
475
  8
BEM
 10
35.568468472372302
 20
543.35585262456925
 30
0.0
 11
24.98351594975259
 21
537.70264290849752
 31
0.0
  0
LINE
  5
476
  8
BEM
 10
13.51648405024798
 20
531.57833238275316
 30
0.0
 11
10.429206231150539
 21
529.92947954889905
 31
0.0
  0
INSERT
  5
477
  8
BEM
  2
*U38
 10
0.0
 20
0.0
 30
0.0
  0
LINE
  5
478
  8
BEM
 10
16.603761869345391
 20
533.2271852166075
 30
0.0
 11
21.896238130655181
 21
536.05379007464319
 31
0.0
  0
SOLID
  5
479
  8
BEM
 10
13.241675244605601
 20
532.09287868593606
 30
0.0
 11
13.79129285589033
 21
531.06378607957026
 31
0.0
 12
16.603761869345391
 22
533.2271852166075
 32
0.0
 13
16.603761869345391
 23
533.2271852166075
 33
0.0
  0
SOLID
  5
47A
  8
BEM
 10
24.70870714411021
 20
538.21718921168042
 30
0.0
 11
25.258324755394941
 21
537.18809660531463
 31
0.0
 12
21.896238130655181
 22
536.05379007464319
 32
0.0
 13
21.896238130655181
 23
536.05379007464319
 33
0.0
  0
POINT
  5
47B
  8
DEFPOINTS
 62
     0
 10
21.896238130655181
 20
536.05379007464319
 30
0.0
  0
POINT
  5
47C
  8
DEFPOINTS
 62
     0
 10
16.603761869345391
 20
533.2271852166075
 30
0.0
  0
ENDBLK
  5
2F6
  8
0
  0
BLOCK
  8
0
  2
*D19
 70
     1
 10
0.0
 20
0.0
 30
0.0
  3
*D19
  1

  0
LINE
  5
5BD
  8
BEM
 10
90.750000000000085
 20
463.14048764562523
 30
0.0
 11
116.9748771837592
 21
463.14048764562523
 31
0.0
  0
LINE
  5
5BE
  8
BEM
 10
90.750000000000014
 20
534.64048764562529
 30
0.0
 11
116.9748771837592
 21
534.64048764562529
 31
0.0
  0
LINE
  5
5BF
  8
BEM
 10
114.9748771837592
 20
466.64048764562523
 30
0.0
 11
114.9748771837592
 21
531.14048764562529
 31
0.0
  0
SOLID
  5
5C0
  8
BEM
 10
114.3915438504258
 20
466.64048764562523
 30
0.0
 11
115.5582105170925
 21
466.64048764562523
 31
0.0
 12
114.9748771837592
 22
463.14048764562523
 32
0.0
 13
114.9748771837592
 23
463.14048764562523
 33
0.0
  0
SOLID
  5
5C1
  8
BEM
 10
114.3915438504258
 20
531.14048764562529
 30
0.0
 11
115.5582105170925
 21
531.14048764562529
 31
0.0
 12
114.9748771837592
 22
534.64048764562529
 32
0.0
 13
114.9748771837592
 23
534.64048764562529
 33
0.0
  0
INSERT
  5
5C2
  8
BEM
  2
*U48
 10
0.0
 20
0.0
 30
0.0
  0
POINT
  5
5C3
  8
DEFPOINTS
 62
     0
 10
90.750000000000085
 20
463.14048764562523
 30
0.0
  0
POINT
  5
5C4
  8
DEFPOINTS
 62
     0
 10
90.750000000000014
 20
534.64048764562529
 30
0.0
  0
POINT
  5
5C5
  8
DEFPOINTS
 62
     0
 10
114.9748771837592
 20
534.64048764562529
 30
0.0
  0
ENDBLK
  5
302
  8
0
  0
BLOCK
  8
0
  2
*D20
 70
     1
 10
0.0
 20
0.0
 30
0.0
  3
*D20
  1

  0
LINE
  5
3B1
  8
BEM
 10
-90.749999999999858
 20
463.14048764562529
 30
0.0
 11
-118.0740305181825
 21
463.14048764562529
 31
0.0
  0
LINE
  5
3B2
  8
BEM
 10
-90.749999999999858
 20
534.64048764562529
 30
0.0
 11
-118.0740305181825
 21
534.64048764562529
 31
0.0
  0
LINE
  5
3B3
  8
BEM
 10
-116.0740305181825
 20
466.64048764562529
 30
0.0
 11
-116.0740305181825
 21
531.14048764562517
 31
0.0
  0
SOLID
  5
3B4
  8
BEM
 10
-116.6573638515158
 20
466.64048764562529
 30
0.0
 11
-115.4906971848492
 21
466.64048764562529
 31
0.0
 12
-116.0740305181825
 22
463.14048764562529
 32
0.0
 13
-116.0740305181825
 23
463.14048764562529
 33
0.0
  0
SOLID
  5
3B5
  8
BEM
 10
-116.6573638515158
 20
531.14048764562517
 30
0.0
 11
-115.4906971848492
 21
531.14048764562517
 31
0.0
 12
-116.0740305181825
 22
534.64048764562529
 32
0.0
 13
-116.0740305181825
 23
534.64048764562529
 33
0.0
  0
INSERT
  5
3B6
  8
BEM
  2
*U31
 10
0.0
 20
0.0
 30
0.0
  0
POINT
  5
3B7
  8
DEFPOINTS
 62
     0
 10
-90.749999999999858
 20
463.14048764562529
 30
0.0
  0
POINT
  5
3B8
  8
DEFPOINTS
 62
     0
 10
-90.749999999999858
 20
534.64048764562529
 30
0.0
  0
POINT
  5
3B9
  8
DEFPOINTS
 62
     0
 10
-116.0740305181825
 20
534.64048764562529
 30
0.0
  0
ENDBLK
  5
30E
  8
0
  0
BLOCK
  8
0
  2
*D21
 70
     1
 10
0.0
 20
0.0
 30
0.0
  3
*D21
  1

  0
LINE
  5
5CF
  8
BEM
 10
19.25000000000006
 20
534.64048764562529
 30
0.0
 11
19.250000000000071
 21
565.09181645027149
 31
0.0
  0
LINE
  5
5D0
  8
BEM
 10
90.750000000000014
 20
534.64048764562529
 30
0.0
 11
90.750000000000014
 21
565.09181645027149
 31
0.0
  0
LINE
  5
5D1
  8
BEM
 10
22.750000000000071
 20
563.09181645027138
 30
0.0
 11
87.250000000000028
 21
563.09181645027138
 31
0.0
  0
SOLID
  5
5D2
  8
BEM
 10
22.750000000000071
 20
563.67514978360487
 30
0.0
 11
22.750000000000071
 21
562.50848311693812
 31
0.0
 12
19.25000000000006
 22
563.09181645027138
 32
0.0
 13
19.25000000000006
 23
563.09181645027138
 33
0.0
  0
SOLID
  5
5D3
  8
BEM
 10
87.250000000000028
 20
563.67514978360487
 30
0.0
 11
87.250000000000028
 21
562.50848311693812
 31
0.0
 12
90.750000000000014
 22
563.09181645027138
 32
0.0
 13
90.750000000000014
 23
563.09181645027138
 33
0.0
  0
INSERT
  5
5D4
  8
BEM
  2
*U49
 10
0.0
 20
0.0
 30
0.0
  0
POINT
  5
5D5
  8
DEFPOINTS
 62
     0
 10
19.25000000000006
 20
534.64048764562529
 30
0.0
  0
POINT
  5
5D6
  8
DEFPOINTS
 62
     0
 10
90.750000000000014
 20
534.64048764562529
 30
0.0
  0
POINT
  5
5D7
  8
DEFPOINTS
 62
     0
 10
90.750000000000014
 20
563.09181645027138
 30
0.0
  0
ENDBLK
  5
31A
  8
0
  0
BLOCK
  8
0
  2
*D22
 70
     1
 10
0.0
 20
0.0
 30
0.0
  3
*D22
  1

  0
LINE
  5
3BA
  8
BEM
 10
-90.749999999999858
 20
534.64048764562529
 30
0.0
 11
-90.749999999999858
 21
565.09181645027149
 31
0.0
  0
LINE
  5
3BB
  8
BEM
 10
-19.249999999999861
 20
534.64048764562529
 30
0.0
 11
-19.249999999999851
 21
565.09181645027149
 31
0.0
  0
LINE
  5
3BC
  8
BEM
 10
-87.249999999999844
 20
563.09181645027138
 30
0.0
 11
-22.749999999999861
 21
563.09181645027138
 31
0.0
  0
SOLID
  5
3BD
  8
BEM
 10
-87.249999999999844
 20
563.67514978360487
 30
0.0
 11
-87.249999999999844
 21
562.50848311693812
 31
0.0
 12
-90.749999999999858
 22
563.09181645027138
 32
0.0
 13
-90.749999999999858
 23
563.09181645027138
 33
0.0
  0
SOLID
  5
3BE
  8
BEM
 10
-22.749999999999861
 20
563.67514978360487
 30
0.0
 11
-22.749999999999861
 21
562.50848311693812
 31
0.0
 12
-19.249999999999861
 22
563.09181645027138
 32
0.0
 13
-19.249999999999861
 23
563.09181645027138
 33
0.0
  0
INSERT
  5
3BF
  8
BEM
  2
*U32
 10
0.0
 20
0.0
 30
0.0
  0
POINT
  5
3C0
  8
DEFPOINTS
 62
     0
 10
-90.749999999999858
 20
534.64048764562529
 30
0.0
  0
POINT
  5
3C1
  8
DEFPOINTS
 62
     0
 10
-19.249999999999861
 20
534.64048764562529
 30
0.0
  0
POINT
  5
3C2
  8
DEFPOINTS
 62
     0
 10
-19.249999999999861
 20
563.09181645027138
 30
0.0
  0
ENDBLK
  5
326
  8
0
  0
BLOCK
  8
0
  2
*D23
 70
     1
 10
0.0
 20
0.0
 30
0.0
  3
*D23
  1

  0
LINE
  5
3ED
  8
BEM
 10
-64.640964650031577
 20
516.60337123529723
 30
0.0
 11
-71.971284879808053
 21
530.0710182621558
 31
0.0
  0
INSERT
  5
3EE
  8
BEM
  2
*U35
 10
0.0
 20
0.0
 30
0.0
  0
SOLID
  5
3EF
  8
BEM
 10
-71.458928742916697
 20
530.34988914046255
 30
0.0
 11
-72.483641016699409
 21
529.79214738384906
 31
0.0
 12
-73.644510149648283
 22
533.14515508350382
 32
0.0
 13
-73.644510149648283
 23
533.14515508350382
 33
0.0
  0
POINT
  5
3F0
  8
DEFPOINTS
 62
     0
 10
-73.644510149648283
 20
533.14515508350382
 30
0.0
  0
POINT
  5
3F1
  8
DEFPOINTS
 62
     0
 10
-36.355489850351489
 20
464.63582020774669
 30
0.0
  0
ENDBLK
  5
32E
  8
0
  0
BLOCK
  8
0
  2
*D24
 70
     1
 10
0.0
 20
0.0
 30
0.0
  3
*D24
  1

  0
LINE
  5
46A
  8
BEM
 10
78.880738502814424
 20
529.72407855813822
 30
0.0
 11
66.195031256870493
 21
524.46948656857353
 31
0.0
  0
LINE
  5
46B
  8
BEM
 10
85.833590912513102
 20
522.77122614843961
 30
0.0
 11
80.578998922948685
 21
510.08551890249561
 31
0.0
  0
ARC
  5
46C
  8
BEM
 10
90.750000000000085
 20
534.64048764562529
 30
0.0
 40
24.57810664598713
 50
210.66600969218089
 51
239.3339903078201
  0
SOLID
  5
46D
  8
BEM
 10
69.087351348022395
 20
521.84381081480558
 30
0.0
 11
70.130686195852576
 21
522.36588696482067
 31
0.0
 12
68.042790321893023
 22
525.23485343330367
 32
0.0
 13
68.042790321893023
 23
525.23485343330367
 33
0.0
  0
SOLID
  5
46E
  8
BEM
 10
78.475399319195617
 20
514.02117384147778
 30
0.0
 11
77.953323169180806
 21
512.97783899364754
 31
0.0
 12
81.344365787678782
 22
511.93327796751822
 32
0.0
 13
81.344365787678782
 23
511.93327796751822
 33
0.0
  0
INSERT
  5
46F
  8
BEM
  2
*U37
 10
0.0
 20
0.0
 30
0.0
  0
POINT
  5
470
  8
DEFPOINTS
 62
     0
 10
71.250876994372163
 20
519.67828432148542
 30
0.0
  0
POINT
  5
471
  8
DEFPOINTS
 62
     0
 10
87.549587419235024
 20
533.31483334948302
 30
0.0
  0
POINT
  5
472
  8
DEFPOINTS
 62
     0
 10
85.833590912513102
 20
522.77122614843961
 30
0.0
  0
POINT
  5
473
  8
DEFPOINTS
 62
     0
 10
89.424345703857711
 20
531.44007506486025
 30
0.0
  0
POINT
  5
474
  8
DEFPOINTS
 62
     0
 10
78.880738502814424
 20
529.72407855813822
 30
0.0
  0
ENDBLK
  5
341
  8
0
  0
BLOCK
  8
0
  2
*D25
 70
     1
 10
0.0
 20
0.0
 30
0.0
  3
*D25
  1

  0
LINE
  5
835
  8
BEM
 10
-1.4673747309704619
 20
348.77341444627882
 30
0.0
 11
14.53656525832686
 21
354.98375656756451
 31
0.0
  0
TEXT
  8
BEM
  40
3.5
  5
83C
  62
7
  72
0
  71
0
 10
-3.27262
 20
348.080
 30
0.000000
  1
R0.5
  7
ROMANS
  0
SOLID
  5
837
  8
BEM
 10
14.325534215370549
 20
355.52757977108428
 30
0.0
 11
14.747596301283171
 21
354.43993336404469
 31
0.0
 12
17.79950447944573
 22
356.2499428253023
 32
0.0
 13
17.79950447944573
 23
356.2499428253023
 33
0.0
  0
POINT
  5
838
  8
DEFPOINTS
 62
     0
 10
17.79950447944573
 20
356.2499428253023
 30
0.0
  0
POINT
  5
839
  8
DEFPOINTS
 62
     0
 10
17.333370305000141
 20
356.06905907419701
 30
0.0
  0
ENDBLK
  5
72A
  8
0
  0
BLOCK
  8
0
  2
*U26
 70
     1
 10
0.0
 20
0.0
 30
0.0
  3
*U26
  1

  0
TEXT
  5
74F
  8
BEM
 62
     7
 10
-90.835919115914336
 20
621.52942917995074
 30
0.0
 40
5.0
  1
Empfohlene Lochbilder für Axiallüfter 80 mm
  0
TEXT
  5
750
  8
BEM
 62
     7
 10
-93.752585782581008
 20
613.19609584661725
 30
0.0
 40
5.0
  1
Recommended hole layouts vor Axialfan 80 mm
  0
ENDBLK
  5
752
  8
0
  0
BLOCK
  8
0
  2
*U27
 70
     1
 10
0.0
 20
0.0
 30
0.0
  3
*U27
  1

  0
TEXT
  5
754
  8
BEM
 62
     7
 10
-76.249999999999844
 20
309.8788243084955
 30
0.0
 40
5.0
  1
Lochbild 3
  0
TEXT
  5
755
  8
BEM
 62
     7
 10
-84.166666666666515
 20
301.54549097516218
 30
0.0
 40
5.0
  1
Hole layout 3
  0
ENDBLK
  5
757
  8
0
  0
BLOCK
  8
0
  2
*U28
 70
     1
 10
0.0
 20
0.0
 30
0.0
  3
*U28
  1

  0
TEXT
  5
759
  8
BEM
 62
     7
 10
-75.416666666666529
 20
591.88429037576793
 30
0.0
 40
5.0
  1
Lochbild 1
  0
TEXT
  5
75A
  8
BEM
 62
     7
 10
-83.333333333333186
 20
583.55095704243456
 30
0.0
 40
5.0
  1
Hole layout 1
  0
ENDBLK
  5
75C
  8
0
  0
BLOCK
  8
0
  2
*U29
 70
     1
 10
0.0
 20
0.0
 30
0.0
  3
*U29
  1

  0
TEXT
  5
79B
  8
BEM
 62
     7
 10
33.750000000000163
 20
309.8788243084955
 30
0.0
 40
5.0
  1
Lochbild 4
  0
TEXT
  5
79C
  8
BEM
 62
     7
 10
25.833333333333488
 20
301.54549097516218
 30
0.0
 40
5.0
  1
Hole layout 4
  0
ENDBLK
  5
79E
  8
0
  0
BLOCK
  8
0
  2
*U30
 70
     1
 10
0.0
 20
0.0
 30
0.0
  3
*U30
  1

  0
TEXT
  5
7D2
  8
BEM
 62
     7
 10
33.750000000000163
 20
591.88429037576793
 30
0.0
 40
5.0
  1
Lochbild 2
  0
TEXT
  5
7D3
  8
BEM
 62
     7
 10
25.833333333333488
 20
583.55095704243456
 30
0.0
 40
5.0
  1
Hole layout 2
  0
ENDBLK
  5
7D5
  8
0
  0
BLOCK
  8
0
  2
*U31
 70
     1
 10
0.0
 20
0.0
 30
0.0
  3
*U31
  1

  0
TEXT
  5
7D7
  8
BEM
 62
     7
 10
-117.5740305181826
 20
493.05715431229191
 30
0.0
 40
3.5
  1
71.5
 50
90.0
  7
ROMANS
  0
ENDBLK
  5
7D9
  8
0
  0
BLOCK
  8
0
  2
*U32
 70
     1
 10
0.0
 20
0.0
 30
0.0
  3
*U32
  1

  0
TEXT
  5
7DB
  8
BEM
 62
     7
 10
-60.833333333333186
 20
564.59181645027149
 30
0.0
 40
3.5
  1
71.5
  7
ROMANS
  0
ENDBLK
  5
7DD
  8
0
  0
BLOCK
  8
0
  2
*U33
 70
     1
 10
0.0
 20
0.0
 30
0.0
  3
*U33
  1

  0
TEXT
  5
7DF
  8
BEM
 62
     7
 10
-86.166666666666515
 20
453.04224897237151
 30
0.0
 40
3.5
  1
Fase / Chamfer 0.5
  7
ROMANS
  0
TEXT
  5
7E0
  8
BEM
 62
     7
 10
-29.666666666666568
 20
453.04224897237151
 30
0.0
 40
3.5
  1
x45° (4x)
  7
ROMANS
  0
ENDBLK
  5
7E2
  8
0
  0
BLOCK
  8
0
  2
*U34
 70
     1
 10
0.0
 20
0.0
 30
0.0
  3
*U34
  1

  0
TEXT
  5
7E4
  8
BEM
 62
     7
 10
-38.985437965195622
 20
510.53607925203301
 30
0.0
 40
3.5
  1
\U+22056.5
 50
53.450991017528878
  7
ROMANS
  0
ENDBLK
  5
7E6
  8
0
  0
BLOCK
  8
0
  2
*U35
 70
     1
 10
0.0
 20
0.0
 30
0.0
  3
*U35
  1

  0
TEXT
  5
7E8
  8
BEM
 62
     7
 10
-68.422830644205135
 20
526.689265711242
 30
0.0
 40
3.5
  1
\U+220578
 50
298.5590586326482
  7
ROMANS
  0
ENDBLK
  5
7EA
  8
0
  0
BLOCK
  8
0
  2
*U36
 70
     1
 10
0.0
 20
0.0
 30
0.0
  3
*U36
  1

  0
TEXT
  5
7EC
  8
BEM
 62
     7
 10
29.02211601975576
 20
507.52229642127458
 30
0.0
 40
3.5
  1
\U+220578
 50
344.76076322077319
  7
ROMANS
  0
ENDBLK
  5
7EE
  8
0
  0
BLOCK
  8
0
  2
*U37
 70
     1
 10
0.0
 20
0.0
 30
0.0
  3
*U37
  1

  0
TEXT
  5
7F0
  8
BEM
 62
     7
 10
71.602887168930195
 20
521.15022906404761
 30
0.0
 40
3.5
  1
45°
 50
315.00000000000051
  7
ROMANS
  0
ENDBLK
  5
7F2
  8
0
  0
BLOCK
  8
0
  2
*U38
 70
     1
 10
0.0
 20
0.0
 30
0.0
  3
*U38
  1

  0
TEXT
  5
7F4
  8
BEM
 62
     7
 10
28.39323516070683
 20
541.22423241896399
 30
0.0
 40
3.5
  1
\U+22056
 50
28.105776223800031
  7
ROMANS
  0
ENDBLK
  5
7F6
  8
0
  0
BLOCK
  8
0
  2
*U39
 70
     1
 10
0.0
 20
0.0
 30
0.0
  3
*U39
  1

  0
TEXT
  5
7F8
  8
BEM
 62
     7
 10
-71.91300641139587
 20
417.97529041441049
 30
0.0
 40
3.5
  1
\U+22058
 50
315.23000592533958
  7
ROMANS
  0
ENDBLK
  5
7FA
  8
0
  0
BLOCK
  8
0
  2
*U40
 70
     1
 10
0.0
 20
0.0
 30
0.0
  3
*U40
  1

  0
TEXT
  5
7FC
  8
BEM
 62
     7
 10
-60.833333333333172
 20
328.12200315709299
 30
0.0
 40
3.5
  1
71.5
  7
ROMANS
  0
ENDBLK
  5
7FE
  8
0
  0
BLOCK
  8
0
  2
*U41
 70
     1
 10
0.0
 20
0.0
 30
0.0
  3
*U41
  1

  0
TEXT
  5
800
  8
BEM
 62
     7
 10
-48.423848210073338
 20
360.00626462524161
 30
0.0
 40
3.5
  1
8°
 50
23.854160916992939
  7
ROMANS
  0
ENDBLK
  5
802
  8
0
  0
BLOCK
  8
0
  2
*U42
 70
     1
 10
0.0
 20
0.0
 30
0.0
  3
*U42
  1

  0
TEXT
  5
804
  8
BEM
 62
     7
 10
-42.275665059351347
 20
403.50881593287932
 30
0.0
 40
3.5
  1
\U+220578
 50
44.523499948799653
  7
ROMANS
  0
ENDBLK
  5
806
  8
0
  0
BLOCK
  8
0
  2
*U43
 70
     1
 10
0.0
 20
0.0
 30
0.0
  3
*U43
  1

  0
TEXT
  5
808
  8
BEM
 62
     7
 10
-78.781035682274478
 20
412.23008902311568
 30
0.0
 40
3.5
  1
\U+22056
 50
308.97169797315001
  7
ROMANS
  0
ENDBLK
  5
80A
  8
0
  0
BLOCK
  8
0
  2
*U44
 70
     1
 10
0.0
 20
0.0
 30
0.0
  3
*U44
  1

  0
TEXT
  5
80C
  8
BEM
 62
     7
 10
-74.514624017807236
 20
363.63654050259572
 30
0.0
 40
3.5
  1
\U+2205101.12
 50
54.999325764375349
  7
ROMANS
  0
ENDBLK
  5
80E
  8
0
  0
BLOCK
  8
0
  2
*U45
 70
     1
 10
0.0
 20
0.0
 30
0.0
  3
*U45
  1

  0
TEXT
  5
810
  8
BEM
 62
     7
 10
-117.5740305181826
 20
383.05715431229191
 30
0.0
 40
3.5
  1
71.5
 50
90.0
  7
ROMANS
  0
ENDBLK
  5
812
  8
0
  0
BLOCK
  8
0
  2
*U46
 70
     1
 10
0.0
 20
0.0
 30
0.0
  3
*U46
  1

  0
TEXT
  5
814
  8
BEM
 62
     7
 10
40.555794410518622
 20
416.17252146521452
 30
0.0
 40
3.5
  1
\U+220578
 50
300.6837102350118
  7
ROMANS
  0
ENDBLK
  5
816
  8
0
  0
BLOCK
  8
0
  2
*U47
 70
     1
 10
0.0
 20
0.0
 30
0.0
  3
*U47
  1

  0
TEXT
  5
818
  8
BEM
 62
     7
 10
113.47487718375911
 20
383.05715431229208
 30
0.0
 40
3.5
  1
71.5
 50
90.0
  7
ROMANS
  0
ENDBLK
  5
81A
  8
0
  0
BLOCK
  8
0
  2
*U48
 70
     1
 10
0.0
 20
0.0
 30
0.0
  3
*U48
  1

  0
TEXT
  5
81C
  8
BEM
 62
     7
 10
113.47487718375911
 20
493.05715431229191
 30
0.0
 40
3.5
  1
71.5
 50
90.0
  7
ROMANS
  0
ENDBLK
  5
81E
  8
0
  0
BLOCK
  8
0
  2
*U49
 70
     1
 10
0.0
 20
0.0
 30
0.0
  3
*U49
  1

  0
TEXT
  5
820
  8
BEM
 62
     7
 10
49.166666666666707
 20
564.59181645027149
 30
0.0
 40
3.5
  1
71.5
  7
ROMANS
  0
ENDBLK
  5
822
  8
0
  0
BLOCK
  8
0
  2
*U50
 70
     1
 10
0.0
 20
0.0
 30
0.0
  3
*U50
  1

  0
TEXT
  5
824
  8
BEM
 62
     7
 10
49.166666666666863
 20
328.12200315709299
 30
0.0
 40
3.5
  1
71.5
  7
ROMANS
  0
ENDBLK
  5
826
  8
0
  0
BLOCK
  8
0
  2
*U51
 70
     1
 10
0.0
 20
0.0
 30
0.0
  3
*U51
  1

  0
TEXT
  5
828
  8
BEM
 62
     7
 10
113.47487718375911
 20
426.4738209789586
 30
0.0
 40
3.5
  1
7
 50
90.0
  7
ROMANS
  0
ENDBLK
  5
82A
  8
0
  0
BLOCK
  8
0
  2
*U52
 70
     1
 10
0.0
 20
0.0
 30
0.0
  3
*U52
  1

  0
TEXT
  5
82C
  8
BEM
 62
     7
 10
1.2797978172190869
 20
417.8274243666861
 30
0.0
 40
3.5
  1
\U+2205
  7
ROMANS
  0
TEXT
  5
82D
  8
BEM
 62
     7
 10
4.4464644838857534
 20
417.8274243666861
 30
0.0
 40
3.5
  1
6
  7
ROMANS
  0
ENDBLK
  5
82F
  8
0
  0
BLOCK
  8
0
  2
*U53
 70
     1
 10
0.0
 20
0.0
 30
0.0
  3
*U53
  1

  0
TEXT
  5
831
  8
BEM
 62
     7
 10
33.671230158391332
 20
442.92399305499362
 30
0.0
 40
3.5
  1
\U+2205
  7
ROMANS
  0
TEXT
  5
832
  8
BEM
 62
     7
 10
36.837896825058003
 20
442.92399305499362
 30
0.0
 40
3.5
  1
8
  7
ROMANS
  0
ENDBLK
  5
834
  8
0
  0
ENDSEC
  0
SECTION
  2
ENTITIES
  0
DIMENSION
  5
26
  8
BEM
  2
*D2
 10
-93.999999999999858
 20
450.04224897237162
 30
0.0
 11
-45.249999999999872
 21
454.2089156390382
 31
0.0
 70
     0
  1
Fase / Chamfer <>x45° (4x)
 13
-94.499999999999858
 23
463.14048764562529
 33
0.0
 14
-93.999999999999858
 24
463.14048764562529
 34
0.0
1001
ACAD
1000
DSTYLE
1002
{
1070
     3
1000
<>\C7;\H3.5;
1070
    47
1040
0.0
1070
    48
1040
0.0
1070
    71
1070
     0
1070
    72
1070
     0
1070
    74
1070
     0
1002
}
  0
INSERT
  5
38
  8
BEM
  2
*U26
 10
0.0
 20
0.0
 30
0.0
  0
INSERT
  5
39
  8
BEM
  2
*U27
 10
0.0
 20
0.0
 30
0.0
  0
INSERT
  5
3A
  8
BEM
  2
*U28
 10
0.0
 20
0.0
 30
0.0
  0
DIMENSION
  5
3B
  8
BEM
  2
*D24
 10
78.880738502814424
 20
529.72407855813822
 30
0.0
 11
75.668751160752862
 21
519.55923880637795
 31
0.0
 70
     2
 13
85.833590912513074
 23
522.77122614843961
 33
0.0
 14
89.424345703857725
 24
531.44007506486025
 34
0.0
 15
87.549587419235024
 25
533.31483334948302
 35
0.0
 16
71.250876994372163
 26
519.67828432148542
 36
0.0
  0
POLYLINE
  5
4C
  8
0
 66
     1
 10
0.0
 20
0.0
 30
0.0
 70
     1
  0
VERTEX
  5
75D
  8
0
 10
78.880738502814424
 20
468.05689673311218
 30
0.0
  0
VERTEX
  5
75E
  8
0
 10
87.549587419235039
 20
464.46614194176749
 30
0.0
 42
-0.3728246932727024
  0
VERTEX
  5
75F
  8
0
 10
87.842782031187866
 20
463.88081438552808
 30
0.0
 42
3.6412466350725521
  0
VERTEX
  5
760
  8
0
 10
90.009673260097173
 20
466.04770561443752
 30
0.0
 42
-0.3728246932727028
  0
VERTEX
  5
761
  8
0
 10
89.424345703857711
 20
466.34090022639032
 30
0.0
  0
VERTEX
  5
762
  8
0
 10
85.833590912513074
 20
475.00974914281079
 30
0.0
 42
0.3419663544544349
  0
VERTEX
  5
763
  8
0
 10
85.833590912513074
 20
522.77122614843961
 30
0.0
  0
VERTEX
  5
764
  8
0
 10
89.424345703857725
 20
531.44007506486025
 30
0.0
 42
-0.3728246932726748
  0
VERTEX
  5
765
  8
0
 10
90.009673260097173
 20
531.73326967681305
 30
0.0
 42
3.6412466350725592
  0
VERTEX
  5
766
  8
0
 10
87.842782031187866
 20
533.90016090572237
 30
0.0
 42
-0.3728246932727011
  0
VERTEX
  5
767
  8
0
 10
87.549587419235024
 20
533.31483334948302
 30
0.0
  0
VERTEX
  5
768
  8
0
 10
78.880738502814424
 20
529.72407855813822
 30
0.0
 42
0.3419663544544327
  0
VERTEX
  5
769
  8
0
 10
31.119261497185899
 20
529.72407855813822
 30
0.0
  0
VERTEX
  5
76A
  8
0
 10
22.450412580765288
 20
533.31483334948302
 30
0.0
 42
-0.3728246932726962
  0
VERTEX
  5
76B
  8
0
 10
22.157217968812461
 20
533.90016090572237
 30
0.0
 42
3.641246635072461
  0
VERTEX
  5
76C
  8
0
 10
19.99032673990305
 20
531.73326967681305
 30
0.0
 42
-0.3728246932726952
  0
VERTEX
  5
76D
  8
0
 10
20.57565429614252
 20
531.44007506486014
 30
0.0
  0
VERTEX
  5
76E
  8
0
 10
24.166409087487249
 20
522.77122614843961
 30
0.0
 42
0.3419663544544348
  0
VERTEX
  5
76F
  8
0
 10
24.16640908748721
 20
475.0097491428109
 30
0.0
  0
VERTEX
  5
770
  8
0
 10
20.575654296142591
 20
466.34090022639032
 30
0.0
 42
-0.3728246932727001
  0
VERTEX
  5
771
  8
0
 10
19.990326739903121
 20
466.04770561443752
 30
0.0
 42
3.6412466350725432
  0
VERTEX
  5
772
  8
0
 10
22.157217968812461
 20
463.88081438552808
 30
0.0
 42
-0.3728246932726754
  0
VERTEX
  5
773
  8
0
 10
22.450412580765288
 20
464.46614194176749
 30
0.0
  0
VERTEX
  5
774
  8
0
 10
31.119261497185889
 20
468.05689673311218
 30
0.0
 42
0.3419663544544327
  0
SEQEND
  5
775
  8
0
  0
POLYLINE
  5
4D
  8
VER1
 66
     1
 10
0.0
 20
0.0
 30
0.0
 70
     1
  0
VERTEX
  5
776
  8
VER1
 10
31.703004485556761
 20
537.39048764562517
 30
0.0
 42
0.1212007004336776
  0
VERTEX
  5
777
  8
VER1
 10
16.500000000000249
 20
522.18748316006872
 30
0.0
  0
VERTEX
  5
778
  8
VER1
 10
16.500000000000249
 20
475.59349213118168
 30
0.0
 42
0.1212007004336774
  0
VERTEX
  5
779
  8
VER1
 10
31.703004485556761
 20
460.39048764562529
 30
0.0
  0
VERTEX
  5
77A
  8
VER1
 10
78.296995514443736
 20
460.39048764562529
 30
0.0
 42
0.1212007004336773
  0
VERTEX
  5
77B
  8
VER1
 10
93.500000000000242
 20
475.59349213118168
 30
0.0
  0
VERTEX
  5
77C
  8
VER1
 10
93.500000000000256
 20
522.18748316006872
 30
0.0
 42
0.1212007004336777
  0
VERTEX
  5
77D
  8
VER1
 10
78.296995514443751
 20
537.39048764562517
 30
0.0
  0
SEQEND
  5
77E
  8
VER1
  0
POLYLINE
  5
50
  8
VER1
 66
     1
 10
0.0
 20
0.0
 30
0.0
 70
     1
  0
VERTEX
  5
77F
  8
VER1
 10
-78.296995514443353
 20
537.39048764562517
 30
0.0
 42
0.1212007004336776
  0
VERTEX
  5
780
  8
VER1
 10
-93.499999999999844
 20
522.18748316006872
 30
0.0
  0
VERTEX
  5
781
  8
VER1
 10
-93.499999999999844
 20
475.59349213118168
 30
0.0
 42
0.1212007004336774
  0
VERTEX
  5
782
  8
VER1
 10
-78.296995514443353
 20
460.39048764562529
 30
0.0
  0
VERTEX
  5
783
  8
VER1
 10
-31.703004485556381
 20
460.39048764562529
 30
0.0
 42
0.1212007004336773
  0
VERTEX
  5
784
  8
VER1
 10
-16.499999999999869
 20
475.59349213118168
 30
0.0
  0
VERTEX
  5
785
  8
VER1
 10
-16.499999999999861
 20
522.18748316006872
 30
0.0
 42
0.1212007004336777
  0
VERTEX
  5
786
  8
VER1
 10
-31.70300448555637
 20
537.39048764562517
 30
0.0
  0
SEQEND
  5
787
  8
VER1
  0
CIRCLE
  5
51
  8
0
 10
-54.999999999999851
 20
498.89048764562529
 30
0.0
 40
39.0
  0
LINE
  5
52
  8
SYM1
 10
-12.99999999999986
 20
498.89048764562529
 30
0.0
 11
-96.999999999999858
 21
498.89048764562529
 31
0.0
  0
LINE
  5
55
  8
SYM1
 10
97.000000000000242
 20
498.89048764562529
 30
0.0
 11
13.000000000000099
 21
498.89048764562529
 31
0.0
  0
DIMENSION
  5
56
  8
BEM
  2
*D1
 10
92.628632008886328
 20
488.6393387763606
 30
0.0
 11
33.21081547458428
 21
504.82650398172751
 31
0.0
 70
   131
 15
17.37136799111396
 25
509.14163651489019
 35
0.0
 40
0.0
1001
ACAD
1000
DSTYLE
1002
{
1070
   288
1070
     1
1002
}
  0
DIMENSION
  5
5F
  8
BEM
  2
*D23
 10
-36.355489850351489
 20
464.63582020774669
 30
0.0
 11
-67.469512129999686
 21
521.80012633805234
 31
0.0
 70
   131
 15
-73.644510149648283
 25
533.14515508350382
 35
0.0
 40
0.0
1001
ACAD
1000
DSTYLE
1002
{
1070
   288
1070
     1
1002
}
  0
DIMENSION
  5
6A
  8
BEM
  2
*D22
 10
-19.249999999999861
 20
563.09181645027138
 30
0.0
 11
-54.999999999999851
 21
566.34181645027138
 31
0.0
 70
     0
 13
-90.749999999999858
 23
534.64048764562529
 33
0.0
 14
-19.249999999999861
 24
534.64048764562529
 34
0.0
  0
DIMENSION
  5
79
  8
BEM
  2
*D21
 10
90.750000000000014
 20
563.09181645027138
 30
0.0
 11
55.000000000000043
 21
566.34181645027138
 31
0.0
 70
     0
 13
19.25000000000006
 23
534.64048764562529
 33
0.0
 14
90.750000000000014
 24
534.64048764562529
 34
0.0
  0
LINE
  5
86
  8
SYM1
 10
-54.999999999999851
 20
540.89048764562529
 30
0.0
 11
-54.999999999999851
 21
456.89048764562529
 31
0.0
  0
DIMENSION
  5
87
  8
BEM
  2
*D20
 10
-116.0740305181825
 20
534.64048764562529
 30
0.0
 11
-119.3240305181826
 21
498.89048764562529
 31
0.0
 70
     0
 13
-90.749999999999858
 23
463.14048764562529
 33
0.0
 14
-90.749999999999858
 24
534.64048764562529
 34
0.0
 50
90.0
  0
LINE
  5
96
  8
SYM1
 10
55.000000000000149
 20
540.89048764562529
 30
0.0
 11
55.000000000000142
 21
456.89048764562523
 31
0.0
  0
DIMENSION
  5
97
  8
BEM
  2
*D19
 10
114.9748771837592
 20
534.64048764562529
 30
0.0
 11
111.72487718375911
 21
498.89048764562529
 31
0.0
 70
     0
 13
90.750000000000085
 23
463.14048764562523
 33
0.0
 14
90.750000000000014
 24
534.64048764562529
 34
0.0
 50
90.0
  0
DIMENSION
  5
A4
  8
BEM
  2
*D18
 10
16.603761869345391
 20
533.2271852166075
 30
0.0
 11
30.288553489175062
 21
544.22043215833673
 31
0.0
 70
     3
 15
21.896238130655181
 25
536.05379007464319
 35
0.0
 40
0.0
1001
ACAD
1000
DSTYLE
1002
{
1070
   288
1070
     1
1002
}
  0
CIRCLE
  5
B2
  8
0
 10
-90.749999999999858
 20
463.14048764562529
 30
0.0
 40
3.75
  0
CIRCLE
  5
B3
  8
0
 10
-90.749999999999858
 20
463.14048764562529
 30
0.0
 40
3.25
  0
CIRCLE
  5
B4
  8
0
 10
-90.749999999999858
 20
534.64048764562529
 30
0.0
 40
3.75
  0
CIRCLE
  5
B5
  8
0
 10
-90.749999999999858
 20
534.64048764562529
 30
0.0
 40
3.25
  0
POLYLINE
  5
B6
  8
VER1
 66
     1
 10
0.0
 20
0.0
 30
0.0
 70
     1
  0
VERTEX
  5
788
  8
VER1
 10
31.703004485556662
 20
427.39048764562529
 30
0.0
 42
0.1212007004336776
  0
VERTEX
  5
789
  8
VER1
 10
16.500000000000139
 20
412.18748316006872
 30
0.0
  0
VERTEX
  5
78A
  8
VER1
 10
16.500000000000139
 20
365.59349213118179
 30
0.0
 42
0.1212007004336774
  0
VERTEX
  5
78B
  8
VER1
 10
31.703004485556662
 20
350.39048764562529
 30
0.0
  0
VERTEX
  5
78C
  8
VER1
 10
78.296995514443623
 20
350.39048764562529
 30
0.0
 42
0.1212007004336773
  0
VERTEX
  5
78D
  8
VER1
 10
93.500000000000128
 20
365.59349213118179
 30
0.0
  0
VERTEX
  5
78E
  8
VER1
 10
93.500000000000156
 20
412.18748316006872
 30
0.0
 42
0.1212007004336777
  0
VERTEX
  5
78F
  8
VER1
 10
78.296995514443623
 20
427.39048764562529
 30
0.0
  0
SEQEND
  5
790
  8
VER1
  0
CIRCLE
  5
B7
  8
0
 10
55.000000000000149
 20
388.89048764562529
 30
0.0
 40
39.0
  0
DIMENSION
  5
B8
  8
BEM
  2
*D16
 10
114.9748771837592
 20
424.64048764562551
 30
0.0
 11
111.72487718375911
 21
388.8904876456254
 31
0.0
 70
     0
 13
90.750000000000085
 23
353.14048764562529
 33
0.0
 14
90.749999999999986
 24
424.64048764562551
 34
0.0
 50
90.0
  0
LINE
  5
C5
  8
SYM1
 10
55.000000000000149
 20
430.89048764562523
 30
0.0
 11
55.000000000000128
 21
346.89048764562529
 31
0.0
  0
DIMENSION
  5
C6
  8
BEM
  2
*D15
 10
74.901638873454573
 20
355.35058946225809
 30
0.0
 11
41.689715881643167
 21
411.3220862169793
 31
0.0
 70
   131
 15
35.098361126545967
 25
422.43038582899209
 35
0.0
 40
0.0
1001
ACAD
1000
DSTYLE
1002
{
1070
   288
1070
     1
1002
}
  0
DIMENSION
  5
D1
  8
BEM
  2
*D14
 10
-116.0740305181825
 20
424.64048764562511
 30
0.0
 11
-119.3240305181826
 21
388.89048764562523
 31
0.0
 70
     0
 13
-90.749999999999787
 23
353.14048764562523
 33
0.0
 14
-90.749999999999972
 24
424.64048764562511
 34
0.0
 50
90.0
  0
POLYLINE
  5
DE
  8
VER1
 66
     1
 10
0.0
 20
0.0
 30
0.0
 70
     1
  0
VERTEX
  5
791
  8
VER1
 10
-78.296995514443353
 20
427.39048764562529
 30
0.0
 42
0.1212007004336776
  0
VERTEX
  5
792
  8
VER1
 10
-93.499999999999844
 20
412.18748316006872
 30
0.0
  0
VERTEX
  5
793
  8
VER1
 10
-93.499999999999844
 20
365.59349213118179
 30
0.0
 42
0.1212007004336774
  0
VERTEX
  5
794
  8
VER1
 10
-78.296995514443353
 20
350.39048764562529
 30
0.0
  0
VERTEX
  5
795
  8
VER1
 10
-31.703004485556381
 20
350.39048764562529
 30
0.0
 42
0.1212007004336773
  0
VERTEX
  5
796
  8
VER1
 10
-16.499999999999869
 20
365.59349213118179
 30
0.0
  0
VERTEX
  5
797
  8
VER1
 10
-16.499999999999861
 20
412.18748316006872
 30
0.0
 42
0.1212007004336777
  0
VERTEX
  5
798
  8
VER1
 10
-31.70300448555636
 20
427.39048764562529
 30
0.0
  0
SEQEND
  5
799
  8
VER1
  0
DIMENSION
  5
DF
  8
BEM
  2
*D13
 10
-26.000557829311191
 20
430.30494591552031
 30
0.0
 11
-67.215453440460465
 21
371.4454490900514
 31
0.0
 70
   131
 15
-83.999442170688582
 25
347.47602937573032
 35
0.0
 40
0.0
1001
ACAD
1000
DSTYLE
1002
{
1070
   288
1070
     1
1002
}
  0
DIMENSION
  5
EA
  8
BEM
  2
*D12
 10
-54.999999999999851
 20
388.89048764562529
 30
0.0
 11
-46.997550885000493
 21
362.55039913130338
 31
0.0
 70
     2
 13
-54.999999999999851
 23
388.89048764562529
 33
0.0
 14
-24.57335490181093
 24
348.51296582879178
 34
0.0
 15
-19.249999999999709
 25
353.1404876456254
 35
0.0
 16
-34.408593384173201
 26
366.28725853771851
 36
0.0
  0
LINE
  5
FD
  8
BEM
 10
-54.999999999999851
 20
388.89048764562529
 30
0.0
 11
-24.57335490181093
 21
348.51296582879178
 31
0.0
  0
LINE
  5
FE
  8
BEM
 10
-19.249999999999709
 20
353.1404876456254
 30
0.0
 11
-54.999999999999851
 21
388.89048764562529
 31
0.0
  0
LINE
  5
FF
  8
SYM1
 10
-54.999999999999872
 20
430.89048764562523
 30
0.0
 11
-54.999999999999893
 21
346.89048764562511
 31
0.0
  0
CIRCLE
  5
100
  8
SYM1
 10
-54.999999999999851
 20
388.89048764562529
 30
0.0
 40
50.558134854838102
  0
CIRCLE
  5
101
  8
0
 10
-54.999999999999851
 20
388.89048764562529
 30
0.0
 40
39.0
  0
INSERT
  5
102
  8
BEM
  2
*U29
 10
0.0
 20
0.0
 30
0.0
  0
DIMENSION
  5
103
  8
BEM
  2
*D11
 10
-19.249999999999972
 20
326.62200315709299
 30
0.0
 11
-54.999999999999837
 21
329.87200315709299
 31
0.0
 70
     0
 13
-90.749999999999716
 23
353.14048764562523
 33
0.0
 14
-19.249999999999972
 24
353.14048764562523
 34
0.0
  0
DIMENSION
  5
110
  8
BEM
  2
*D10
 10
-91.281721894282583
 20
356.59986213057772
 30
0.0
 11
-79.447251748949043
 21
370.65910988597051
 31
0.0
 70
   132
 15
-91.603711814976066
 25
356.21734090113739
 35
0.0
 40
0.0
1001
ACAD
1000
DSTYLE
1002
{
1070
   287
1070
     4
1070
   279
1070
     1
1070
   288
1070
     1
1002
}
  0
POLYLINE
  5
11B
  8
0
 66
     1
 10
0.0
 20
0.0
 30
0.0
 70
     1
  0
VERTEX
  5
7A4
  8
0
 10
-91.205761623670753
 20
356.1056657755845
 30
0.0
 42
-0.5961688027278543
  0
VERTEX
  5
7A5
  8
0
 10
-91.736810774565967
 20
356.80697106578418
 30
0.0
 42
4.599926354837395
  0
VERTEX
  5
7A6
  8
0
 10
-94.243463939996445
 20
354.62797071277049
 30
0.0
 42
-0.5961688027278714
  0
VERTEX
  5
7A7
  8
0
 10
-93.622891461764425
 20
354.00448686374978
 30
0.0
 42
3.4575862238379891
  0
SEQEND
  5
7A8
  8
0
  0
POLYLINE
  5
11C
  8
0
 66
     1
 10
0.0
 20
0.0
 30
0.0
 70
     1
  0
VERTEX
  5
7A9
  8
0
 10
-22.215178129959071
 20
352.68472602195442
 30
0.0
 42
-0.5961688027278543
  0
VERTEX
  5
7AA
  8
0
 10
-22.916483420158809
 20
352.15367687105919
 30
0.0
 42
4.599926354837395
  0
VERTEX
  5
7AB
  8
0
 10
-20.737483067145011
 20
349.64702370562873
 30
0.0
 42
-0.5961688027278714
  0
VERTEX
  5
7AC
  8
0
 10
-20.11399921812432
 20
350.26759618386069
 30
0.0
 42
3.4575862238379891
  0
SEQEND
  5
7AD
  8
0
  0
DIMENSION
  5
11D
  8
BEM
  2
*D9
 10
-88.266403728970033
 20
432.085059500868
 30
0.0
 11
-70.780419564572213
 21
414.73890485659348
 31
0.0
 70
   131
 15
-82.586886467407538
 25
426.45095942404902
 35
0.0
 40
0.0
1001
ACAD
1000
DSTYLE
1002
{
1070
   288
1070
     1
1002
}
  0
LINE
  5
129
  8
SYM1
 10
-12.99999999999984
 20
388.89048764562529
 30
0.0
 11
-96.999999999999829
 21
388.89048764562529
 31
0.0
  0
DIMENSION
  5
12A
  8
BEM
  2
*D8
 10
-92.636809297522774
 20
426.97285782953259
 30
0.0
 11
-78.008000107329707
 21
408.8895261297825
 31
0.0
 70
   131
 15
-88.863190702476984
 25
422.30811746171747
 35
0.0
 40
0.0
1001
ACAD
1000
DSTYLE
1002
{
1070
   288
1070
     1
1002
}
  0
POLYLINE
  5
138
  8
0
 66
     1
 10
0.0
 20
0.0
 30
0.0
 70
     1
  0
VERTEX
  5
7AE
  8
0
 10
-87.784821870040645
 20
425.0962492692961
 30
0.0
 42
-0.5961688027278543
  0
VERTEX
  5
7AF
  8
0
 10
-87.083516579840946
 20
425.62729842019132
 30
0.0
 42
4.599926354837395
  0
VERTEX
  5
7B0
  8
0
 10
-89.262516932854695
 20
428.13395158562179
 30
0.0
 42
-0.5961688027278714
  0
VERTEX
  5
7B1
  8
0
 10
-89.886000781875396
 20
427.51337910738982
 30
0.0
 42
3.4575862238379891
  0
SEQEND
  5
7B2
  8
0
  0
DIMENSION
  5
139
  8
BEM
  2
*D17
 10
87.358245703052489
 20
533.77677311573882
 30
0.0
 11
76.432680463746237
 21
541.41940368246401
 31
0.0
 70
   132
 15
87.767954399526502
 25
533.49017446948665
 35
0.0
 40
0.0
1001
ACAD
1000
DSTYLE
1002
{
1070
   287
1070
     4
1070
   279
1070
     1
1070
   288
1070
     1
1002
}
  0
CIRCLE
  5
144
  8
0
 10
-19.249999999999911
 20
463.1404876456254
 30
0.0
 40
3.75
  0
CIRCLE
  5
145
  8
0
 10
-19.249999999999911
 20
463.1404876456254
 30
0.0
 40
3.25
  0
POLYLINE
  5
146
  8
0
 66
     1
 10
0.0
 20
0.0
 30
0.0
 70
     1
  0
VERTEX
  5
7B8
  8
0
 10
17.546329160000251
 20
356.52144002657758
 30
0.0
 42
-0.5866269293639981
  0
VERTEX
  5
7B9
  8
0
 10
17.607174547143071
 20
355.65069172725788
 30
0.0
 42
3.35410196624944
  0
VERTEX
  5
7BA
  8
0
 10
20.89282545285727
 20
355.65069172725788
 30
0.0
 42
-0.5866269293639977
  0
VERTEX
  5
7BB
  8
0
 10
20.95367084000009
 20
356.52144002657758
 30
0.0
 42
4.4721359549993744
  0
SEQEND
  5
7BC
  8
0
  0
POLYLINE
  5
152
  8
0
 66
     1
 10
0.0
 20
0.0
 30
0.0
 70
     1
  0
VERTEX
  5
7BD
  8
0
 10
-18.794238376328899
 20
421.67530951566602
 30
0.0
 42
-0.5961688027278543
  0
VERTEX
  5
7BE
  8
0
 10
-18.263189225433681
 20
420.97400422546627
 30
0.0
 42
4.599926354837395
  0
VERTEX
  5
7BF
  8
0
 10
-15.75653606000321
 20
423.15300457848008
 30
0.0
 42
-0.5961688027278714
  0
VERTEX
  5
7C0
  8
0
 10
-16.37710853823523
 20
423.77648842750079
 30
0.0
 42
3.4575862238379891
  0
SEQEND
  5
7C1
  8
0
  0
POLYLINE
  5
153
  8
0
 66
     1
 10
0.0
 20
0.0
 30
0.0
 70
     1
  0
VERTEX
  5
7C2
  8
0
 10
89.046329160000255
 20
356.52144002657758
 30
0.0
 42
-0.5866269293639981
  0
VERTEX
  5
7C3
  8
0
 10
89.107174547143075
 20
355.65069172725782
 30
0.0
 42
3.35410196624944
  0
VERTEX
  5
7C4
  8
0
 10
92.392825452857267
 20
355.65069172725782
 30
0.0
 42
-0.5866269293639977
  0
VERTEX
  5
7C5
  8
0
 10
92.453670840000086
 20
356.52144002657758
 30
0.0
 42
4.4721359549993744
  0
SEQEND
  5
7C6
  8
0
  0
DIMENSION
  5
154
  8
BEM
  2
*D7
 10
90.750000000000199
 20
326.62200315709299
 30
0.0
 11
55.000000000000199
 21
329.87200315709299
 31
0.0
 70
     0
 13
19.250000000000188
 23
353.14048764562523
 33
0.0
 14
90.750000000000199
 24
353.14048764562523
 34
0.0
  0
LINE
  5
161
  8
SYM1
 10
97.000000000000171
 20
388.89048764562529
 30
0.0
 11
13.00000000000016
 21
388.89048764562529
 31
0.0
  0
DIMENSION
  5
162
  8
BEM
  2
*D6
 10
21.613748633210779
 20
426.48783504094501
 30
0.0
 11
4.3631311505524186
 21
419.5774243666861
 31
0.0
 70
     3
  1
<>
 15
16.886251366789679
 25
422.79314025030538
 35
0.0
 40
0.0
1001
ACAD
1000
DSTYLE
1002
{
1070
     3
1000
%%c<>\C7;\H3.5;
1070
    47
1040
0.0
1070
    48
1040
0.0
1070
    71
1070
     0
1070
    72
1070
     0
1070
    74
1070
     1
1070
   288
1070
     1
1002
}
  0
POLYLINE
  5
170
  8
0
 66
     1
 10
0.0
 20
0.0
 30
0.0
 70
     1
  0
VERTEX
  5
7C7
  8
0
 10
20.953670840000029
 20
428.02144002657769
 30
0.0
 42
0.5866269293639981
  0
VERTEX
  5
7C8
  8
0
 10
20.89282545285727
 20
427.15069172725799
 30
0.0
 42
-3.35410196624944
  0
VERTEX
  5
7C9
  8
0
 10
17.607174547143071
 20
427.15069172725799
 30
0.0
 42
0.5866269293639977
  0
VERTEX
  5
7CA
  8
0
 10
17.546329160000191
 20
428.02144002657769
 30
0.0
 42
-4.4721359549993744
  0
SEQEND
  5
7CB
  8
0
  0
CIRCLE
  5
171
  8
0
 10
-19.249999999999861
 20
534.64048764562529
 30
0.0
 40
3.75
  0
CIRCLE
  5
172
  8
0
 10
-19.249999999999861
 20
534.64048764562529
 30
0.0
 40
3.25
  0
DIMENSION
  5
173
  8
BEM
  2
*D3
 10
-17.314591971594119
 20
537.25136791166256
 30
0.0
 11
-34.455484562840333
 21
514.12817241390974
 31
0.0
 70
   131
 15
-21.1854080284057
 25
532.02960737958824
 35
0.0
 40
0.0
1001
ACAD
1000
DSTYLE
1002
{
1070
   288
1070
     1
1002
}
  0
DIMENSION
  5
181
  8
BEM
  2
*D5
 10
16.031747211046898
 20
429.26501948410532
 30
0.0
 11
36.754563491724667
 21
441.42399305499362
 31
0.0
 70
   131
  1
<>
 15
22.46825278895329
 25
434.0159558071453
 35
0.0
 40
0.0
1001
ACAD
1000
DSTYLE
1002
{
1070
     3
1000
%%c<>\C7;\H3.5;
1070
    47
1040
0.0
1070
    48
1040
0.0
1070
    71
1070
     0
1070
    72
1070
     0
1070
    74
1070
     1
1070
   288
1070
     1
1002
}
  0
POLYLINE
  5
19C
  8
0
 66
     1
 10
0.0
 20
0.0
 30
0.0
 70
     1
  0
VERTEX
  5
7CC
  8
0
 10
92.453670840000086
 20
428.02144002657758
 30
0.0
 42
0.5866269293639981
  0
VERTEX
  5
7CD
  8
0
 10
92.392825452857323
 20
427.15069172725788
 30
0.0
 42
-3.35410196624944
  0
VERTEX
  5
7CE
  8
0
 10
89.107174547143146
 20
427.15069172725788
 30
0.0
 42
0.5866269293639977
  0
VERTEX
  5
7CF
  8
0
 10
89.046329160000255
 20
428.02144002657758
 30
0.0
 42
-4.4721359549993744
  0
SEQEND
  5
7D0
  8
0
  0
DIMENSION
  5
19D
  8
BEM
  2
*D4
 10
114.9748771837592
 20
424.64048764562523
 30
0.0
 11
111.72487718375911
 21
428.14048764562523
 31
0.0
 70
     0
 13
90.750000000000213
 23
431.64048764562529
 33
0.0
 14
90.750000000000213
 24
424.64048764562523
 34
0.0
 50
270.0
  0
INSERT
  5
1AC
  8
BEM
  2
*U30
 10
0.0
 20
0.0
 30
0.0
  0
DIMENSION
  5
1B6
  8
BEM
  2
*D0
 10
-82.805553497671667
 20
361.54361954911201
 30
0.0
 11
-37.837288616820267
 21
405.7700798613904
 31
0.0
 70
   131
 15
-27.194446502327992
 25
416.23735574213879
 35
0.0
 40
0.0
1001
ACAD
1000
DSTYLE
1002
{
1070
   288
1070
     1
1002
}
  0
DIMENSION
  5
722
  8
BEM
  2
*D25
 10
17.333370305000141
 20
356.06905907419701
 30
0.0
 11
4.9031256531187486
 21
351.24549237805269
 31
0.0
 70
   132
 15
17.79950447944573
 25
356.2499428253023
 35
0.0
 40
0.0
1001
ACAD
1000
DSTYLE
1002
{
1070
   287
1070
     4
1070
   279
1070
     1
1070
   288
1070
     1
1002
}
  0
ENDSEC
  0
EOF
