  0
SECTION
  2
HEADER
  9
$ACADVER
  1
AC1015
  9
$ACADMAINTVER
 70
    20
  9
$DWGCODEPAGE
  3
ANSI_1252
  9
$INSBASE
 10
0.0
 20
0.0
 30
0.0
  9
$EXTMIN
 10
-134.8825985641358
 20
453.344656112046
 30
-0.0015258207003583
  9
$EXTMAX
 10
-9.999999999999904
 20
609.4064538595071
 30
0.0000000349246037
  9
$LIMMIN
 10
0.0
 20
0.0
  9
$LIMMAX
 10
420.0
 20
297.0
  9
$ORTHOMODE
 70
     1
  9
$REGENMODE
 70
     1
  9
$FILLMODE
 70
     1
  9
$QTEXTMODE
 70
     0
  9
$MIRRTEXT
 70
     1
  9
$LTSCALE
 40
1.0
  9
$ATTMODE
 70
     1
  9
$TEXTSIZE
 40
2.5
  9
$TRACEWID
 40
1.0
  9
$TEXTSTYLE
  7
STANDARD
  9
$CLAYER
  8
BEM
  9
$CELTYPE
  6
ByLayer
  9
$CECOLOR
 62
   256
  9
$CELTSCALE
 40
1.0
  9
$DISPSILH
 70
     0
  9
$DIMSCALE
 40
1.0
  9
$DIMASZ
 40
3.5
  9
$DIMEXO
 40
0.0
  9
$DIMDLI
 40
10.0
  9
$DIMRND
 40
0.0
  9
$DIMDLE
 40
0.0
  9
$DIMEXE
 40
2.0
  9
$DIMTP
 40
0.0
  9
$DIMTM
 40
0.000000001
  9
$DIMTXT
 40
3.5
  9
$DIMCEN
 40
1.5
  9
$DIMTSZ
 40
0.0
  9
$DIMTOL
 70
     0
  9
$DIMLIM
 70
     0
  9
$DIMTIH
 70
     0
  9
$DIMTOH
 70
     0
  9
$DIMSE1
 70
     0
  9
$DIMSE2
 70
     0
  9
$DIMTAD
 70
     1
  9
$DIMZIN
 70
     8
  9
$DIMBLK
  1

  9
$DIMASO
 70
     1
  9
$DIMSHO
 70
     1
  9
$DIMPOST
  1

  9
$DIMAPOST
  1

  9
$DIMALT
 70
     0
  9
$DIMALTD
 70
     2
  9
$DIMALTF
 40
25.4
  9
$DIMLFAC
 40
1.0
  9
$DIMTOFL
 70
     1
  9
$DIMTVP
 40
0.0
  9
$DIMTIX
 70
     0
  9
$DIMSOXD
 70
     0
  9
$DIMSAH
 70
     0
  9
$DIMBLK1
  1

  9
$DIMBLK2
  1

  9
$DIMSTYLE
  2
1ZU1
  9
$DIMCLRD
 70
   256
  9
$DIMCLRE
 70
   256
  9
$DIMCLRT
 70
     7
  9
$DIMTFAC
 40
0.7
  9
$DIMGAP
 40
1.5
  9
$DIMJUST
 70
     0
  9
$DIMSD1
 70
     0
  9
$DIMSD2
 70
     0
  9
$DIMTOLJ
 70
     1
  9
$DIMTZIN
 70
     0
  9
$DIMALTZ
 70
     0
  9
$DIMALTTZ
 70
     0
  9
$DIMUPT
 70
     0
  9
$DIMDEC
 70
     4
  9
$DIMTDEC
 70
     4
  9
$DIMALTU
 70
     2
  9
$DIMALTTD
 70
     2
  9
$DIMTXSTY
  7
STANDARD
  9
$DIMAUNIT
 70
     0
  9
$DIMADEC
 70
     0
  9
$DIMALTRND
 40
0.0
  9
$DIMAZIN
 70
     0
  9
$DIMDSEP
 70
    46
  9
$DIMATFIT
 70
     3
  9
$DIMFRAC
 70
     0
  9
$DIMLDRBLK
  1

  9
$DIMLUNIT
 70
     2
  9
$DIMLWD
 70
    -2
  9
$DIMLWE
 70
    -2
  9
$DIMTMOVE
 70
     0
  9
$LUNITS
 70
     2
  9
$LUPREC
 70
     4
  9
$SKETCHINC
 40
1.0
  9
$FILLETRAD
 40
0.5
  9
$AUNITS
 70
     0
  9
$AUPREC
 70
     0
  9
$MENU
  1
.
  9
$ELEVATION
 40
0.0
  9
$PELEVATION
 40
0.0
  9
$THICKNESS
 40
0.0
  9
$LIMCHECK
 70
     0
  9
$CHAMFERA
 40
10.0
  9
$CHAMFERB
 40
10.0
  9
$CHAMFERC
 40
0.0
  9
$CHAMFERD
 40
0.0
  9
$SKPOLY
 70
     0
  9
$TDCREATE
 40
2452694.801882592
  9
$TDUCREATE
 40
2452694.760215926
  9
$TDUPDATE
 40
2456960.677513287
  9
$TDUUPDATE
 40
2456960.635846621
  9
$TDINDWG
 40
0.8112603009
  9
$TDUSRTIMER
 40
0.8112603009
  9
$USRTIMER
 70
     1
  9
$ANGBASE
 50
0.0
  9
$ANGDIR
 70
     0
  9
$PDMODE
 70
     0
  9
$PDSIZE
 40
0.0
  9
$PLINEWID
 40
0.0
  9
$SPLFRAME
 70
     0
  9
$SPLINETYPE
 70
     6
  9
$SPLINESEGS
 70
     8
  9
$HANDSEED
  5
BF
  9
$SURFTAB1
 70
     6
  9
$SURFTAB2
 70
     6
  9
$SURFTYPE
 70
     6
  9
$SURFU
 70
     6
  9
$SURFV
 70
     6
  9
$UCSBASE
  2

  9
$UCSNAME
  2

  9
$UCSORG
 10
0.0
 20
0.0
 30
0.0
  9
$UCSXDIR
 10
1.0
 20
0.0
 30
0.0
  9
$UCSYDIR
 10
0.0
 20
1.0
 30
0.0
  9
$UCSORTHOREF
  2

  9
$UCSORTHOVIEW
 70
     0
  9
$UCSORGTOP
 10
0.0
 20
0.0
 30
0.0
  9
$UCSORGBOTTOM
 10
0.0
 20
0.0
 30
0.0
  9
$UCSORGLEFT
 10
0.0
 20
0.0
 30
0.0
  9
$UCSORGRIGHT
 10
0.0
 20
0.0
 30
0.0
  9
$UCSORGFRONT
 10
0.0
 20
0.0
 30
0.0
  9
$UCSORGBACK
 10
0.0
 20
0.0
 30
0.0
  9
$PUCSBASE
  2

  9
$PUCSNAME
  2

  9
$PUCSORG
 10
0.0
 20
0.0
 30
0.0
  9
$PUCSXDIR
 10
1.0
 20
0.0
 30
0.0
  9
$PUCSYDIR
 10
0.0
 20
1.0
 30
0.0
  9
$PUCSORTHOREF
  2

  9
$PUCSORTHOVIEW
 70
     0
  9
$PUCSORGTOP
 10
0.0
 20
0.0
 30
0.0
  9
$PUCSORGBOTTOM
 10
0.0
 20
0.0
 30
0.0
  9
$PUCSORGLEFT
 10
0.0
 20
0.0
 30
0.0
  9
$PUCSORGRIGHT
 10
0.0
 20
0.0
 30
0.0
  9
$PUCSORGFRONT
 10
0.0
 20
0.0
 30
0.0
  9
$PUCSORGBACK
 10
0.0
 20
0.0
 30
0.0
  9
$USERI1
 70
     0
  9
$USERI2
 70
     0
  9
$USERI3
 70
     0
  9
$USERI4
 70
     0
  9
$USERI5
 70
     0
  9
$USERR1
 40
3.0
  9
$USERR2
 40
1.0
  9
$USERR3
 40
1.0
  9
$USERR4
 40
0.0
  9
$USERR5
 40
0.0
  9
$WORLDVIEW
 70
     1
  9
$SHADEDGE
 70
     3
  9
$SHADEDIF
 70
    70
  9
$TILEMODE
 70
     1
  9
$MAXACTVP
 70
    64
  9
$PINSBASE
 10
0.0
 20
0.0
 30
0.0
  9
$PLIMCHECK
 70
     0
  9
$PEXTMIN
 10
0.0
 20
0.0
 30
0.0
  9
$PEXTMAX
 10
594.0
 20
420.0
 30
0.0
  9
$PLIMMIN
 10
-17.99944229392567
 20
-8.982035185577514
  9
$PLIMMAX
 10
612.0005278601925
 20
436.5269213503848
  9
$UNITMODE
 70
     0
  9
$VISRETAIN
 70
     1
  9
$PLINEGEN
 70
     0
  9
$PSLTSCALE
 70
     1
  9
$TREEDEPTH
 70
  3020
  9
$CMLSTYLE
  2
Standard
  9
$CMLJUST
 70
     0
  9
$CMLSCALE
 40
1.0
  9
$PROXYGRAPHICS
 70
     1
  9
$MEASUREMENT
 70
     0
  9
$CELWEIGHT
370
    -1
  9
$ENDCAPS
280
     0
  9
$JOINSTYLE
280
     0
  9
$LWDISPLAY
290
     0
  9
$INSUNITS
 70
     0
  9
$HYPERLINKBASE
  1

  9
$STYLESHEET
  1

  9
$XEDIT
290
     1
  9
$CEPSNTYPE
380
     0
  9
$PSTYLEMODE
290
     1
  9
$FINGERPRINTGUID
  2
{2D2D1A2A-97AF-45FD-93E5-E6CE238C5E54}
  9
$VERSIONGUID
  2
{A38A8890-9100-46C9-850A-A6FA02A7A33C}
  9
$EXTNAMES
290
     1
  9
$PSVPSCALE
 40
0.0
  9
$OLESTARTUP
290
     0
  0
ENDSEC
  0
SECTION
  2
CLASSES
  0
CLASS
  1
ACDBDICTIONARYWDFLT
  2
AcDbDictionaryWithDefault
  3
ObjectDBX Classes
 90
        0
280
     0
281
     0
  0
CLASS
  1
DICTIONARYVAR
  2
AcDbDictionaryVar
  3
ObjectDBX Classes
 90
        0
280
     0
281
     0
  0
CLASS
  1
ACDBPLACEHOLDER
  2
AcDbPlaceHolder
  3
ObjectDBX Classes
 90
        0
280
     0
281
     0
  0
CLASS
  1
LAYOUT
  2
AcDbLayout
  3
ObjectDBX Classes
 90
        0
280
     0
281
     0
  0
ENDSEC
  0
SECTION
  2
TABLES
  0
TABLE
  2
VPORT
  5
19
330
0
100
AcDbSymbolTable
 70
     2
  0
VPORT
  5
B7
330
19
100
AcDbSymbolTableRecord
100
AcDbViewportTableRecord
  2
*Active
 70
     0
 10
0.0
 20
0.0
 11
1.0
 21
1.0
 12
-75.23555563683611
 22
531.3755549857765
 13
0.0
 23
0.0
 14
10.0
 24
10.0
 15
10.0
 25
10.0
 16
0.0
 26
0.0
 36
1.0
 17
0.0
 27
0.0
 37
0.0
 40
157.090776633708
 41
2.031903190319031
 42
50.0
 43
0.0
 44
0.0
 50
0.0
 51
0.0
 71
     0
 72
   100
 73
     1
 74
     3
 75
     0
 76
     0
 77
     0
 78
     2
281
     0
 65
     1
110
0.0
120
0.0
130
0.0
111
1.0
121
0.0
131
0.0
112
0.0
122
1.0
132
0.0
 79
     0
146
0.0
  0
ENDTAB
  0
TABLE
  2
LTYPE
  5
14
330
0
100
AcDbSymbolTable
 70
     3
  0
LTYPE
  5
15
330
14
100
AcDbSymbolTableRecord
100
AcDbLinetypeTableRecord
  2
ByBlock
 70
     0
  3

 72
    65
 73
     0
 40
0.0
  0
LTYPE
  5
16
330
14
100
AcDbSymbolTableRecord
100
AcDbLinetypeTableRecord
  2
ByLayer
 70
     0
  3

 72
    65
 73
     0
 40
0.0
  0
LTYPE
  5
8
330
14
100
AcDbSymbolTableRecord
100
AcDbLinetypeTableRecord
  2
CONTINUOUS
 70
     0
  3
Solid line
 72
    65
 73
     0
 40
0.0
  0
LTYPE
  5
68
330
14
100
AcDbSymbolTableRecord
100
AcDbLinetypeTableRecord
  2
VERDECKT
 70
     0
  3
Verdeckt __ __ __ __ __ __ __ __ __ __ __ __ __
 72
    65
 73
     2
 40
9.524999999999996
 49
6.349999999999997
 74
     0
 49
-3.174999999999998
 74
     0
  0
LTYPE
  5
57
330
14
100
AcDbSymbolTableRecord
100
AcDbLinetypeTableRecord
  2
ACAD_ISO04W100
 70
     0
  3
ISO Lang gestrichelt punktiert ____ . ____ . __
 72
    65
 73
     4
 40
30.0
 49
24.0
 74
     0
 49
-3.0
 74
     0
 49
0.0
 74
     0
 49
-3.0
 74
     0
  0
ENDTAB
  0
TABLE
  2
LAYER
  5
10
330
0
100
AcDbSymbolTable
 70
     5
  0
LAYER
  5
4
330
10
100
AcDbSymbolTableRecord
100
AcDbLayerTableRecord
  2
0
 70
     0
 62
     7
  6
CONTINUOUS
370
    -3
390
5
  0
LAYER
  5
24
330
10
100
AcDbSymbolTableRecord
100
AcDbLayerTableRecord
  2
BEM
 70
     0
 62
     3
  6
CONTINUOUS
370
    -3
390
5
  0
LAYER
  5
3B
330
10
100
AcDbSymbolTableRecord
100
AcDbLayerTableRecord
  2
DEFPOINTS
 70
     0
 62
     7
  6
CONTINUOUS
290
     0
370
    -3
390
5
  0
LAYER
  5
67
330
10
100
AcDbSymbolTableRecord
100
AcDbLayerTableRecord
  2
VER1
 70
     0
 62
     8
  6
VERDECKT
370
    -3
390
5
  0
LAYER
  5
56
330
10
100
AcDbSymbolTableRecord
100
AcDbLayerTableRecord
  2
SYM1
 70
     0
 62
     6
  6
ACAD_ISO04W100
370
    -3
390
5
  0
ENDTAB
  0
TABLE
  2
STYLE
  5
11
330
0
100
AcDbSymbolTable
 70
     2
  0
STYLE
  5
12
330
11
100
AcDbSymbolTableRecord
100
AcDbTextStyleTableRecord
  2
STANDARD
 70
     0
 40
0.0
 41
1.0
 50
0.0
 71
     0
 42
2.5
  3
txt
  4

  0
STYLE
  5
34
330
11
100
AcDbSymbolTableRecord
100
AcDbTextStyleTableRecord
  2
ROMANS
 70
     0
 40
0.0
 41
1.0
 50
0.0
 71
     0
 42
3.5
  3
C:\ACAD13\COM\FONTS\ROMANS.SHX
  4

  0
ENDTAB
  0
TABLE
  2
VIEW
  5
17
330
0
100
AcDbSymbolTable
 70
     0
  0
ENDTAB
  0
TABLE
  2
UCS
  5
18
330
0
100
AcDbSymbolTable
 70
     0
  0
ENDTAB
  0
TABLE
  2
APPID
  5
1B
330
0
100
AcDbSymbolTable
 70
     2
  0
APPID
  5
1C
330
1B
100
AcDbSymbolTableRecord
100
AcDbRegAppTableRecord
  2
ACAD
 70
     0
  0
APPID
  5
B5
330
1B
100
AcDbSymbolTableRecord
100
AcDbRegAppTableRecord
  2
DCO15
 70
     0
  0
ENDTAB
  0
TABLE
  2
DIMSTYLE
  5
1D
330
0
100
AcDbSymbolTable
 70
     2
100
AcDbDimStyleTable
 71
     1
340
26
  0
DIMSTYLE
105
2A
102
{ACAD_REACTORS
330
6A
330
59
330
44
102
}
330
1D
100
AcDbSymbolTableRecord
100
AcDbDimStyleTableRecord
  2
ISO-25
 70
     0
 41
2.5
 42
0.625
 43
3.75
 44
1.25
 73
     0
 74
     0
 77
     1
 78
     8
140
2.5
141
2.5
143
0.03937007874016
147
0.625
171
     3
172
     1
279
     2
284
     8
285
     8
286
     8
340
12
  0
DIMSTYLE
105
26
102
{ACAD_REACTORS
330
A5
102
}
330
1D
100
AcDbSymbolTableRecord
100
AcDbDimStyleTableRecord
  2
1ZU1
 70
     0
 41
3.5
 42
0.0
 43
10.0
 44
2.0
 48
0.000000001
 73
     0
 74
     0
 77
     1
 78
     8
140
3.5
141
1.5
146
0.7
147
1.5
172
     1
176
   256
177
   256
178
     7
279
     2
284
     8
285
     8
286
     8
340
12
  0
ENDTAB
  0
TABLE
  2
BLOCK_RECORD
  5
1
330
0
100
AcDbSymbolTable
 70
    12
  0
BLOCK_RECORD
  5
2
330
1
100
AcDbSymbolTableRecord
100
AcDbBlockTableRecord
  2
*Model_Space
340
A
  0
BLOCK_RECORD
  5
C
330
1
100
AcDbSymbolTableRecord
100
AcDbBlockTableRecord
  2
*Paper_Space
340
F
  0
BLOCK_RECORD
  5
82
330
1
100
AcDbSymbolTableRecord
100
AcDbBlockTableRecord
  2
*D0
340
0
  0
BLOCK_RECORD
  5
8C
330
1
100
AcDbSymbolTableRecord
100
AcDbBlockTableRecord
  2
*U1
340
0
102
{BLKREFS
331
8B
102
}
  0
BLOCK_RECORD
  5
2B
330
1
100
AcDbSymbolTableRecord
100
AcDbBlockTableRecord
  2
*D2
340
0
  0
BLOCK_RECORD
  5
31
330
1
100
AcDbSymbolTableRecord
100
AcDbBlockTableRecord
  2
*U3
340
0
102
{BLKREFS
331
30
102
}
  0
BLOCK_RECORD
  5
45
330
1
100
AcDbSymbolTableRecord
100
AcDbBlockTableRecord
  2
*D4
340
0
  0
BLOCK_RECORD
  5
4D
330
1
100
AcDbSymbolTableRecord
100
AcDbBlockTableRecord
  2
*U5
340
0
102
{BLKREFS
331
4C
102
}
  0
BLOCK_RECORD
  5
5A
330
1
100
AcDbSymbolTableRecord
100
AcDbBlockTableRecord
  2
*D6
340
0
  0
BLOCK_RECORD
  5
5E
330
1
100
AcDbSymbolTableRecord
100
AcDbBlockTableRecord
  2
*U7
340
0
102
{BLKREFS
331
5D
102
}
  0
BLOCK_RECORD
  5
6B
330
1
100
AcDbSymbolTableRecord
100
AcDbBlockTableRecord
  2
*D8
340
0
  0
BLOCK_RECORD
  5
73
330
1
100
AcDbSymbolTableRecord
100
AcDbBlockTableRecord
  2
*U9
340
0
102
{BLKREFS
331
72
102
}
  0
BLOCK_RECORD
  5
7C
330
1
100
AcDbSymbolTableRecord
100
AcDbBlockTableRecord
  2
*U10
340
0
  0
BLOCK_RECORD
  5
A6
330
1
100
AcDbSymbolTableRecord
100
AcDbBlockTableRecord
  2
*D11
340
0
  0
ENDTAB
  0
ENDSEC
  0
SECTION
  2
BLOCKS
  0
BLOCK
  5
3
330
2
100
AcDbEntity
  8
0
100
AcDbBlockBegin
  2
*Model_Space
 70
     0
 10
0.0
 20
0.0
 30
0.0
  3
*Model_Space
  1

  0
ENDBLK
  5
9
330
2
100
AcDbEntity
  8
0
100
AcDbBlockEnd
  0
BLOCK
  5
D
330
C
100
AcDbEntity
 67
     1
  8
0
100
AcDbBlockBegin
  2
*Paper_Space
 70
     0
 10
0.0
 20
0.0
 30
0.0
  3
*Paper_Space
  1

  0
ENDBLK
  5
E
330
C
100
AcDbEntity
 67
     1
  8
0
100
AcDbBlockEnd
  0
BLOCK
  5
83
330
82
100
AcDbEntity
  8
0
100
AcDbBlockBegin
  2
*D0
 70
     1
 10
0.0
 20
0.0
 30
0.0
  3
*D0
  1

  0
LINE
  5
84
330
82
100
AcDbEntity
  8
BEM
100
AcDbLine
 10
-109.9999999999999
 20
470.1404876456254
 30
0.0
 11
-109.9999999999999
 21
453.3596643831431
 31
0.0
  0
LINE
  5
85
330
82
100
AcDbEntity
  8
BEM
100
AcDbLine
 10
-109.4999999999999
 20
470.1404876456254
 30
0.0
 11
-109.4999999999999
 21
453.3596643831431
 31
0.0
  0
LINE
  5
86
330
82
100
AcDbEntity
  8
BEM
100
AcDbLine
 10
-113.4999999999999
 20
455.3596643831432
 30
0.0
 11
-116.9999999999999
 21
455.3596643831432
 31
0.0
  0
LINE
  5
87
330
82
100
AcDbEntity
  8
BEM
100
AcDbLine
 10
-105.9999999999999
 20
455.3596643831432
 30
0.0
 11
-18.99999999999991
 21
455.3596643831432
 31
0.0
  0
LINE
  5
88
330
82
100
AcDbEntity
  8
BEM
100
AcDbLine
 10
-109.9999999999999
 20
455.3596643831432
 30
0.0
 11
-109.4999999999999
 21
455.3596643831432
 31
0.0
  0
SOLID
  5
89
330
82
100
AcDbEntity
  8
BEM
100
AcDbTrace
 10
-113.4999999999999
 20
455.9429977164763
 30
0.0
 11
-113.4999999999999
 21
454.7763310498099
 31
0.0
 12
-109.9999999999999
 22
455.3596643831432
 32
0.0
 13
-109.9999999999999
 23
455.3596643831432
 33
0.0
  0
SOLID
  5
8A
330
82
100
AcDbEntity
  8
BEM
100
AcDbTrace
 10
-105.9999999999999
 20
455.9429977164763
 30
0.0
 11
-105.9999999999999
 21
454.7763310498099
 31
0.0
 12
-109.4999999999999
 22
455.3596643831432
 32
0.0
 13
-109.4999999999999
 23
455.3596643831432
 33
0.0
  0
INSERT
  5
8B
330
82
100
AcDbEntity
  8
BEM
100
AcDbBlockReference
  2
*U1
 10
0.0
 20
0.0
 30
0.0
  0
POINT
  5
91
330
82
100
AcDbEntity
  8
DEFPOINTS
 62
     0
100
AcDbPoint
 10
-109.9999999999999
 20
470.1404876456254
 30
0.0
  0
POINT
  5
92
330
82
100
AcDbEntity
  8
DEFPOINTS
 62
     0
100
AcDbPoint
 10
-109.4999999999999
 20
470.1404876456254
 30
0.0
  0
POINT
  5
93
330
82
100
AcDbEntity
  8
DEFPOINTS
 62
     0
100
AcDbPoint
 10
-109.4999999999999
 20
455.3596643831432
 30
0.0
  0
ENDBLK
  5
94
330
82
100
AcDbEntity
  8
0
100
AcDbBlockEnd
  0
BLOCK
  5
8D
330
8C
100
AcDbEntity
  8
0
100
AcDbBlockBegin
  2
*U1
 70
     1
 10
0.0
 20
0.0
 30
0.0
  3
*U1
  1

  0
TEXT
  5
8E
330
8C
100
AcDbEntity
  8
BEM
 62
     7
100
AcDbText
 10
-101.6666666666665
 20
458.3596643831431
 30
0.0
 40
3.5
  1
Fase / Chamfer 0.5
  7
ROMANS
100
AcDbText
  0
TEXT
  5
8F
330
8C
100
AcDbEntity
  8
BEM
 62
     7
100
AcDbText
 10
-45.16666666666659
 20
458.3596643831431
 30
0.0
 40
3.5
  1
x45° (4x)
  7
ROMANS
100
AcDbText
  0
ENDBLK
  5
90
330
8C
100
AcDbEntity
  8
0
100
AcDbBlockEnd
  0
BLOCK
  5
2C
330
2B
100
AcDbEntity
  8
0
100
AcDbBlockBegin
  2
*D2
 70
     1
 10
0.0
 20
0.0
 30
0.0
  3
*D2
  1

  0
LINE
  5
2D
330
2B
100
AcDbEntity
  8
BEM
100
AcDbLine
 10
-43.86919854390606
 20
558.8967736848529
 30
0.0
 11
-31.86919854390607
 21
558.8967736848529
 31
0.0
  0
LINE
  5
2E
330
2B
100
AcDbEntity
  8
BEM
100
AcDbLine
 10
-31.86919854390607
 20
558.8967736848529
 30
0.0
 11
-29.09678928501126
 21
556.7604808909701
 31
0.0
  0
LINE
  5
2F
330
2B
100
AcDbEntity
  8
BEM
100
AcDbLine
 10
-18.40321071498834
 20
548.5204944002804
 30
0.0
 11
-15.63080145609359
 21
546.3842016063978
 31
0.0
  0
INSERT
  5
30
330
2B
100
AcDbEntity
  8
BEM
100
AcDbBlockReference
  2
*U3
 10
0.0
 20
0.0
 30
0.0
  0
LINE
  5
37
330
2B
100
AcDbEntity
  8
BEM
100
AcDbLine
 10
-21.17561997388316
 20
550.6567871941629
 30
0.0
 11
-26.3243800261165
 21
554.6241880970876
 31
0.0
  0
SOLID
  5
38
330
2B
100
AcDbEntity
  8
BEM
100
AcDbTrace
 10
-18.04716191600795
 20
548.9825626100962
 30
0.0
 11
-18.75925951396873
 21
548.0584261904644
 31
0.0
 12
-21.17561997388316
 22
550.6567871941629
 32
0.0
 13
-21.17561997388316
 23
550.6567871941629
 33
0.0
  0
SOLID
  5
39
330
2B
100
AcDbEntity
  8
BEM
100
AcDbTrace
 10
-28.74074048603086
 20
557.2225491007862
 30
0.0
 11
-29.45283808399165
 21
556.2984126811544
 31
0.0
 12
-26.3243800261165
 22
554.6241880970876
 32
0.0
 13
-26.3243800261165
 23
554.6241880970876
 33
0.0
  0
POINT
  5
3A
330
2B
100
AcDbEntity
  8
DEFPOINTS
 62
     0
100
AcDbPoint
 10
-26.3243800261165
 20
554.6241880970876
 30
0.0
  0
POINT
  5
3C
330
2B
100
AcDbEntity
  8
DEFPOINTS
 62
     0
100
AcDbPoint
 10
-21.17561997388316
 20
550.6567871941629
 30
0.0
  0
ENDBLK
  5
3D
330
2B
100
AcDbEntity
  8
0
100
AcDbBlockEnd
  0
BLOCK
  5
32
330
31
100
AcDbEntity
  8
0
100
AcDbBlockBegin
  2
*U3
 70
     1
 10
0.0
 20
0.0
 30
0.0
  3
*U3
  1

  0
TEXT
  5
33
330
31
100
AcDbEntity
  8
BEM
 62
     7
100
AcDbText
 10
-44.20253187723937
 20
560.3967736848528
 30
0.0
 40
3.5
  1
\U+2205
  7
ROMANS
100
AcDbText
  0
TEXT
  5
35
330
31
100
AcDbEntity
  8
BEM
 62
     7
100
AcDbText
 10
-41.0358652105727
 20
560.3967736848528
 30
0.0
 40
3.5
  1
6.5
  7
ROMANS
100
AcDbText
  0
ENDBLK
  5
36
330
31
100
AcDbEntity
  8
0
100
AcDbBlockEnd
  0
BLOCK
  5
46
330
45
100
AcDbEntity
  8
0
100
AcDbBlockBegin
  2
*D4
 70
     1
 10
0.0
 20
0.0
 30
0.0
  3
*D4
  1

  0
LINE
  5
47
330
45
100
AcDbEntity
  8
BEM
100
AcDbLine
 10
-106.2499999999999
 20
470.1404876456254
 30
0.0
 11
-131.8656666996808
 21
470.1404876456254
 31
0.0
  0
LINE
  5
48
330
45
100
AcDbEntity
  8
BEM
100
AcDbLine
 10
-106.2499999999999
 20
552.6404876456251
 30
0.0
 11
-131.8656666996808
 21
552.6404876456251
 31
0.0
  0
LINE
  5
49
330
45
100
AcDbEntity
  8
BEM
100
AcDbLine
 10
-129.8656666996808
 20
473.6404876456254
 30
0.0
 11
-129.8656666996808
 21
549.1404876456254
 31
0.0
  0
SOLID
  5
4A
330
45
100
AcDbEntity
  8
BEM
100
AcDbTrace
 10
-130.4490000330141
 20
473.6404876456254
 30
0.0
 11
-129.2823333663474
 21
473.6404876456254
 31
0.0
 12
-129.8656666996808
 22
470.1404876456254
 32
0.0
 13
-129.8656666996808
 23
470.1404876456254
 33
0.0
  0
SOLID
  5
4B
330
45
100
AcDbEntity
  8
BEM
100
AcDbTrace
 10
-130.4490000330141
 20
549.1404876456254
 30
0.0
 11
-129.2823333663474
 21
549.1404876456254
 31
0.0
 12
-129.8656666996808
 22
552.6404876456251
 32
0.0
 13
-129.8656666996808
 23
552.6404876456251
 33
0.0
  0
INSERT
  5
4C
330
45
100
AcDbEntity
  8
BEM
100
AcDbBlockReference
  2
*U5
 10
0.0
 20
0.0
 30
0.0
  0
POINT
  5
51
330
45
100
AcDbEntity
  8
DEFPOINTS
 62
     0
100
AcDbPoint
 10
-106.2499999999999
 20
470.1404876456254
 30
0.0
  0
POINT
  5
52
330
45
100
AcDbEntity
  8
DEFPOINTS
 62
     0
100
AcDbPoint
 10
-106.2499999999999
 20
552.6404876456251
 30
0.0
  0
POINT
  5
53
330
45
100
AcDbEntity
  8
DEFPOINTS
 62
     0
100
AcDbPoint
 10
-129.8656666996808
 20
552.6404876456251
 30
0.0
  0
ENDBLK
  5
54
330
45
100
AcDbEntity
  8
0
100
AcDbBlockEnd
  0
BLOCK
  5
4E
330
4D
100
AcDbEntity
  8
0
100
AcDbBlockBegin
  2
*U5
 70
     1
 10
0.0
 20
0.0
 30
0.0
  3
*U5
  1

  0
TEXT
  5
4F
330
4D
100
AcDbEntity
  8
BEM
 62
     7
100
AcDbText
 10
-131.3656666996809
 20
505.5571543122921
 30
0.0
 40
3.5
  1
82.5
 50
90.0
  7
ROMANS
100
AcDbText
  0
ENDBLK
  5
50
330
4D
100
AcDbEntity
  8
0
100
AcDbBlockEnd
  0
BLOCK
  5
5B
330
5A
100
AcDbEntity
  8
0
100
AcDbBlockBegin
  2
*D6
 70
     1
 10
0.0
 20
0.0
 30
0.0
  3
*D6
  1

  0
LINE
  5
5C
330
5A
100
AcDbEntity
  8
BEM
100
AcDbLine
 10
-63.39274352557463
 20
512.9082657124866
 30
0.0
 11
-35.19073640836797
 21
539.5402242860383
 31
0.0
  0
INSERT
  5
5D
330
5A
100
AcDbEntity
  8
BEM
100
AcDbBlockReference
  2
*U7
 10
0.0
 20
0.0
 30
0.0
  0
SOLID
  5
62
330
5A
100
AcDbEntity
  8
BEM
100
AcDbTrace
 10
-35.59124080709267
 20
539.9643398414946
 30
0.0
 11
-34.7902320096432
 21
539.1161087305822
 31
0.0
 12
-32.64604307563087
 22
541.9432506783866
 32
0.0
 13
-32.64604307563087
 23
541.9432506783866
 33
0.0
  0
POINT
  5
63
330
5A
100
AcDbEntity
  8
DEFPOINTS
 62
     0
100
AcDbPoint
 10
-32.64604307563087
 20
541.9432506783866
 30
0.0
  0
POINT
  5
64
330
5A
100
AcDbEntity
  8
DEFPOINTS
 62
     0
100
AcDbPoint
 10
-97.35395692436894
 20
480.8377246128638
 30
0.0
  0
ENDBLK
  5
65
330
5A
100
AcDbEntity
  8
0
100
AcDbBlockEnd
  0
BLOCK
  5
5F
330
5E
100
AcDbEntity
  8
0
100
AcDbBlockBegin
  2
*U7
 70
     1
 10
0.0
 20
0.0
 30
0.0
  3
*U7
  1

  0
TEXT
  5
60
330
5E
100
AcDbEntity
  8
BEM
 62
     7
100
AcDbText
 10
-63.57438086852591
 20
514.7998573668236
 30
0.0
 40
3.5
  1
\U+220589
 50
43.35991100094658
  7
ROMANS
100
AcDbText
  0
ENDBLK
  5
61
330
5E
100
AcDbEntity
  8
0
100
AcDbBlockEnd
  0
BLOCK
  5
6C
330
6B
100
AcDbEntity
  8
0
100
AcDbBlockBegin
  2
*D8
 70
     1
 10
0.0
 20
0.0
 30
0.0
  3
*D8
  1

  0
LINE
  5
6D
330
6B
100
AcDbEntity
  8
BEM
100
AcDbLine
 10
-106.2499999999999
 20
552.6404876456251
 30
0.0
 11
-106.2499999999999
 21
581.145598674236
 31
0.0
  0
LINE
  5
6E
330
6B
100
AcDbEntity
  8
BEM
100
AcDbLine
 10
-23.74999999999989
 20
552.6404876456251
 30
0.0
 11
-23.74999999999989
 21
581.145598674236
 31
0.0
  0
LINE
  5
6F
330
6B
100
AcDbEntity
  8
BEM
100
AcDbLine
 10
-102.7499999999999
 20
579.1455986742358
 30
0.0
 11
-27.24999999999989
 21
579.1455986742358
 31
0.0
  0
SOLID
  5
70
330
6B
100
AcDbEntity
  8
BEM
100
AcDbTrace
 10
-102.7499999999999
 20
579.7289320075694
 30
0.0
 11
-102.7499999999999
 21
578.5622653409025
 31
0.0
 12
-106.2499999999999
 22
579.1455986742358
 32
0.0
 13
-106.2499999999999
 23
579.1455986742358
 33
0.0
  0
SOLID
  5
71
330
6B
100
AcDbEntity
  8
BEM
100
AcDbTrace
 10
-27.24999999999989
 20
579.7289320075694
 30
0.0
 11
-27.24999999999989
 21
578.5622653409025
 31
0.0
 12
-23.74999999999989
 22
579.1455986742358
 32
0.0
 13
-23.74999999999989
 23
579.1455986742358
 33
0.0
  0
INSERT
  5
72
330
6B
100
AcDbEntity
  8
BEM
100
AcDbBlockReference
  2
*U9
 10
0.0
 20
0.0
 30
0.0
  0
POINT
  5
77
330
6B
100
AcDbEntity
  8
DEFPOINTS
 62
     0
100
AcDbPoint
 10
-106.2499999999999
 20
552.6404876456251
 30
0.0
  0
POINT
  5
78
330
6B
100
AcDbEntity
  8
DEFPOINTS
 62
     0
100
AcDbPoint
 10
-23.74999999999989
 20
552.6404876456251
 30
0.0
  0
POINT
  5
79
330
6B
100
AcDbEntity
  8
DEFPOINTS
 62
     0
100
AcDbPoint
 10
-23.74999999999989
 20
579.1455986742358
 30
0.0
  0
ENDBLK
  5
7A
330
6B
100
AcDbEntity
  8
0
100
AcDbBlockEnd
  0
BLOCK
  5
74
330
73
100
AcDbEntity
  8
0
100
AcDbBlockBegin
  2
*U9
 70
     1
 10
0.0
 20
0.0
 30
0.0
  3
*U9
  1

  0
TEXT
  5
75
330
73
100
AcDbEntity
  8
BEM
 62
     7
100
AcDbText
 10
-70.8333333333332
 20
580.645598674236
 30
0.0
 40
3.5
  1
82.5
  7
ROMANS
100
AcDbText
  0
ENDBLK
  5
76
330
73
100
AcDbEntity
  8
0
100
AcDbBlockEnd
  0
BLOCK
  5
7D
330
7C
100
AcDbEntity
  8
0
100
AcDbBlockBegin
  2
*U10
 70
     1
 10
0.0
 20
0.0
 30
0.0
  3
*U10
  1

  0
TEXT
  5
7E
330
7C
100
AcDbEntity
  8
BEM
 62
     7
100
AcDbText
 10
-85.41666666666657
 20
604.3842903757681
 30
0.0
 40
5.0
  1
Lochbild 1
100
AcDbText
  0
TEXT
  5
7F
330
7C
100
AcDbEntity
  8
BEM
 62
     7
100
AcDbText
 10
-93.33333333333323
 20
596.0509570424343
 30
0.0
 40
5.0
  1
Hole layout 1
100
AcDbText
  0
ENDBLK
  5
80
330
7C
100
AcDbEntity
  8
0
100
AcDbBlockEnd
  0
BLOCK
  5
AF
330
A6
100
AcDbEntity
  8
0
100
AcDbBlockBegin
  2
*D11
 70
     1
 10
0.0
 20
0.0
 30
0.0
  3
*D11
  1

  0
LINE
  5
A7
330
A6
100
AcDbEntity
  8
BEM
370
    -2
100
AcDbLine
 10
-42.61759417472347
 20
565.1719037690302
 30
0.0
 11
-28.45648596411417
 21
555.7664258839138
 31
0.0
  0
LINE
  5
A8
330
A6
100
AcDbEntity
  8
BEM
370
    -2
100
AcDbLine
 10
-19.04351403588561
 20
549.5145494073365
 30
0.0
 11
-16.12799175723074
 21
547.5781274898126
 31
0.0
  0
MTEXT
  5
A9
330
A6
100
AcDbEntity
  8
BEM
 62
     7
100
AcDbMText
 10
-35.19669514247394
 20
564.1446464725563
 30
0.0
 40
3.5
 41
0.0
 71
     5
 72
     1
  1
\A1;\U+22054.3
 11
0.8330063653299578
 21
-0.553263405006849
 31
0.0
 73
     1
 44
1.0
1001
ACAD
1000
MTEXTBEGIN
1070
    73
1070
     1
1070
    44
1040
1.0
1070
    74
1070
     0
1000
MTEXTEND
  0
LINE
  5
AA
330
A6
100
AcDbEntity
  8
BEM
370
    -2
100
AcDbLine
 10
-21.95903631454047
 20
551.4509713248604
 30
0.0
 11
-25.54096368545931
 21
553.8300039663899
 31
0.0
  0
SOLID
  5
AB
330
A6
100
AcDbEntity
  8
BEM
100
AcDbTrace
 10
-18.72077704963163
 20
550.0004697871122
 30
0.0
 11
-19.36625102213961
 21
549.0286290275608
 31
0.0
 12
-21.95903631454047
 22
551.4509713248604
 32
0.0
 13
-21.95903631454047
 23
551.4509713248604
 33
0.0
  0
SOLID
  5
AC
330
A6
100
AcDbEntity
  8
BEM
100
AcDbTrace
 10
-28.13374897786017
 20
556.2523462636895
 30
0.0
 11
-28.77922295036814
 21
555.2805055041381
 31
0.0
 12
-25.54096368545931
 22
553.8300039663899
 32
0.0
 13
-25.54096368545931
 23
553.8300039663899
 33
0.0
  0
POINT
  5
AD
330
A6
100
AcDbEntity
  8
DEFPOINTS
 62
     0
100
AcDbPoint
 10
-25.54096368545931
 20
553.8300039663899
 30
0.0
  0
POINT
  5
AE
330
A6
100
AcDbEntity
  8
DEFPOINTS
 62
     0
100
AcDbPoint
 10
-21.95903631454047
 20
551.4509713248604
 30
0.0
  0
ENDBLK
  5
B0
330
A6
100
AcDbEntity
  8
0
100
AcDbBlockEnd
  0
ENDSEC
  0
SECTION
  2
ENTITIES
  0
CIRCLE
  5
27
330
2
100
AcDbEntity
  8
0
100
AcDbCircle
 10
-23.74999999999989
 20
552.6404876456251
 30
0.0
 40
2.149999999999999
  0
CIRCLE
  5
3E
330
2
100
AcDbEntity
  8
0
100
AcDbCircle
 10
-23.74999999999989
 20
470.1404876456254
 30
0.0
 40
2.149999999999999
  0
CIRCLE
  5
40
330
2
100
AcDbEntity
  8
0
100
AcDbCircle
 10
-106.2499999999999
 20
552.6404876456251
 30
0.0
 40
2.149999999999999
  0
CIRCLE
  5
42
330
2
100
AcDbEntity
  8
0
100
AcDbCircle
 10
-106.2499999999999
 20
470.1404876456254
 30
0.0
 40
2.149999999999999
  0
DIMENSION
  5
44
330
2
100
AcDbEntity
  8
BEM
100
AcDbDimension
  2
*D4
 10
-129.8656666996808
 20
552.6404876456251
 30
0.0
 11
-133.1156666996808
 21
511.3904876456254
 31
0.0
 71
     5
 42
-1.0
  3
ISO-25
100
AcDbAlignedDimension
 13
-106.2499999999999
 23
470.1404876456254
 33
0.0
 14
-106.2499999999999
 24
552.6404876456251
 34
0.0
 50
90.0
100
AcDbRotatedDimension
  0
LINE
  5
55
330
2
100
AcDbEntity
  8
SYM1
100
AcDbLine
 10
-64.9999999999999
 20
558.8904860456254
 30
0.0
 11
-64.99999999999992
 21
463.8904892456253
 31
0.0
  0
CIRCLE
  5
58
330
2
100
AcDbEntity
  8
0
100
AcDbCircle
 10
-64.9999999999999
 20
511.3904876456254
 30
0.0
 40
44.4999984
  0
DIMENSION
  5
59
330
2
100
AcDbEntity
  8
BEM
100
AcDbDimension
  2
*D6
 10
-97.35395692436894
 20
480.8377246128638
 30
0.0
 11
-59.1515879710128
 21
516.9133096997343
 31
0.0
 70
   131
 71
     5
 42
-1.0
  3
ISO-25
100
AcDbDiametricDimension
 15
-32.64604307563087
 25
541.9432506783866
 35
0.0
 40
0.0
1001
ACAD
1000
DSTYLE
1002
{
1070
   288
1070
     1
1002
}
  0
LWPOLYLINE
  5
66
330
2
100
AcDbEntity
  8
VER1
100
AcDbPolyline
 90
        8
 70
     1
 43
0.0
 10
-109.4999999999999
 20
534.1885138759812
 10
-109.4999999999999
 20
488.5924614152694
 42
0.1572507608995573
 10
-87.79802623035587
 20
466.8904876456251
 10
-42.2019737696439
 20
466.8904876456251
 42
0.1572507608995574
 10
-20.49999999999989
 20
488.5924614152694
 10
-20.49999999999989
 20
534.1885138759812
 42
0.1572507608995574
 10
-42.2019737696439
 20
555.8904876456254
 10
-87.79802623035587
 20
555.8904876456254
 42
0.1572507608995574
  0
LINE
  5
69
330
2
100
AcDbEntity
  8
SYM1
100
AcDbLine
 10
-17.5000015999999
 20
511.3904876456254
 30
0.0
 11
-112.4999983999998
 21
511.3904876456254
 31
0.0
  0
DIMENSION
  5
6A
330
2
100
AcDbEntity
  8
BEM
100
AcDbDimension
  2
*D8
 10
-23.74999999999989
 20
579.1455986742358
 30
0.0
 11
-64.9999999999999
 21
582.395598674236
 31
0.0
 71
     5
 42
-1.0
  3
ISO-25
100
AcDbAlignedDimension
 13
-106.2499999999999
 23
552.6404876456251
 33
0.0
 14
-23.74999999999989
 24
552.6404876456251
 34
0.0
100
AcDbRotatedDimension
  0
DIMENSION
  5
A5
330
2
100
AcDbEntity
  8
BEM
100
AcDbDimension
  2
*D11
 10
-21.95903631454047
 20
551.4509713248604
 30
0.0
 11
-36.9948012087462
 21
561.437375785234
 31
0.0
 70
    35
 71
     5
 42
4.299999999999954
  3
1ZU1
100
AcDbDiametricDimension
 15
-25.54096368545931
 25
553.8300039663899
 35
0.0
 40
0.0
1001
ACAD
1000
DSTYLE
1002
{
1070
   279
1070
     0
1070
   284
1070
     0
1070
   285
1070
     0
1070
   286
1070
     0
1070
   288
1070
     1
1002
}
  0
TEXT
  5
B1
330
2
100
AcDbEntity
  8
BEM
 62
     7
100
AcDbText
 10
-95.43463706502695
 20
604.3842903757681
 30
0.0
 40
5.0
  1
Lochbild SLM-92
100
AcDbText
  0
TEXT
  5
B2
330
2
100
AcDbEntity
  8
BEM
 62
     7
100
AcDbText
 10
-103.3513037316936
 20
596.0509570424343
 30
0.0
 40
5.0
  1
Hole layout SLM-92
100
AcDbText
  0
ENDSEC
  0
SECTION
  2
OBJECTS
  0
DICTIONARY
  5
7
330
0
100
AcDbDictionary
281
     1
  3
ACAD_COLOR
350
23
  3
ACAD_GROUP
350
1F
  3
ACAD_LAYOUT
350
B
  3
ACAD_MATERIAL
350
22
  3
ACAD_MLINESTYLE
350
20
  3
ACAD_PLOTSETTINGS
350
21
  3
ACAD_PLOTSTYLENAME
350
6
  3
ACDBHEADERROUNDTRIPXREC
350
B8
  3
AcDbVariableDictionary
350
95
  3
ASE_INDEX_DICTIONARY
350
B4
  0
DICTIONARY
  5
23
102
{ACAD_REACTORS
330
7
102
}
330
7
100
AcDbDictionary
281
     1
  0
DICTIONARY
  5
1F
102
{ACAD_REACTORS
330
7
102
}
330
7
100
AcDbDictionary
281
     1
  0
DICTIONARY
  5
B
102
{ACAD_REACTORS
330
7
102
}
330
7
100
AcDbDictionary
281
     1
  3
Layout1
350
F
  3
Model
350
A
  0
DICTIONARY
  5
22
102
{ACAD_REACTORS
330
7
102
}
330
7
100
AcDbDictionary
281
     1
  0
DICTIONARY
  5
20
102
{ACAD_REACTORS
330
7
102
}
330
7
100
AcDbDictionary
281
     1
  3
Standard
350
25
  0
DICTIONARY
  5
21
102
{ACAD_REACTORS
330
7
102
}
330
7
100
AcDbDictionary
281
     1
  0
ACDBDICTIONARYWDFLT
  5
6
102
{ACAD_REACTORS
330
7
102
}
330
7
100
AcDbDictionary
281
     1
  3
Normal
350
5
100
AcDbDictionaryWithDefault
340
5
  0
DICTIONARY
  5
B8
102
{ACAD_REACTORS
330
7
102
}
330
7
100
AcDbDictionary
281
     1
  3
COLORDICT
350
BA
  3
MATERIALDICT
350
B9
  0
DICTIONARY
  5
95
102
{ACAD_REACTORS
330
7
102
}
330
7
100
AcDbDictionary
281
     1
  3
DIMASSOC
350
97
  3
HIDETEXT
350
96
  3
PROJECTNAME
350
98
  0
DICTIONARY
  5
B4
102
{ACAD_REACTORS
330
7
102
}
330
7
100
AcDbDictionary
281
     1
  3
ASEBlockHierarchyIndexRecord
350
B6
1001
DCO15
1040
1828005033.148
  0
LAYOUT
  5
F
102
{ACAD_XDICTIONARY
360
BD
102
}
102
{ACAD_REACTORS
330
B
102
}
330
B
100
AcDbPlotSettings
  1

  2
HP LaserJet 5000 N PCL 6
  4

  6

 40
0.0
 41
0.0
 42
0.0
 43
0.0
 44
0.0
 45
0.0
 46
0.0
 47
0.0
 48
0.0
 49
0.0
140
0.0
141
0.0
142
1.0
143
1.0
 70
   688
 72
     0
 73
     0
 74
     5
  7
fein.ctb
 75
    16
147
1.0
148
0.0
149
0.0
100
AcDbLayout
  1
Layout1
 70
     1
 71
     1
 10
-17.99944229392567
 20
-8.982035185577514
 11
612.0005278601925
 21
436.5269213503848
 12
0.0
 22
0.0
 32
0.0
 14
0.0
 24
0.0
 34
0.0
 15
594.0
 25
420.0
 35
0.0
146
0.0
 13
0.0
 23
0.0
 33
0.0
 16
1.0
 26
0.0
 36
0.0
 17
0.0
 27
1.0
 37
0.0
 76
     0
330
C
  0
LAYOUT
  5
A
102
{ACAD_XDICTIONARY
360
BB
102
}
102
{ACAD_REACTORS
330
B
102
}
330
B
100
AcDbPlotSettings
  1

  2
HP LaserJet 5000 N PCL 6
  4

  6

 40
0.0
 41
0.0
 42
0.0
 43
0.0
 44
0.0
 45
0.0
 46
0.0
 47
0.0
 48
0.0
 49
0.0
140
0.0
141
0.0
142
1.0
143
1.0
 70
  1712
 72
     0
 73
     0
 74
     0
  7
fein.ctb
 75
     0
147
1.0
148
0.0
149
0.0
100
AcDbLayout
  1
Model
 70
     1
 71
     0
 10
0.0
 20
0.0
 11
12.0
 21
9.0
 12
0.0
 22
0.0
 32
0.0
 14
0.0
 24
0.0
 34
0.0
 15
0.0
 25
0.0
 35
0.0
146
0.0
 13
0.0
 23
0.0
 33
0.0
 16
1.0
 26
0.0
 36
0.0
 17
0.0
 27
1.0
 37
0.0
 76
     0
330
2
  0
MLINESTYLE
  5
25
102
{ACAD_REACTORS
330
20
102
}
330
20
100
AcDbMlineStyle
  2
STANDARD
 70
     0
  3

 62
   256
 51
90.0
 52
90.0
 71
     2
 49
0.5
 62
   256
  6
BYLAYER
 49
-0.5
 62
   256
  6
BYLAYER
  0
ACDBPLACEHOLDER
  5
5
102
{ACAD_REACTORS
330
6
102
}
330
6
  0
XRECORD
  5
BA
102
{ACAD_REACTORS
330
B8
102
}
330
B8
100
AcDbXrecord
280
     1
340
23
  0
XRECORD
  5
B9
102
{ACAD_REACTORS
330
B8
102
}
330
B8
100
AcDbXrecord
280
     1
340
22
  0
DICTIONARYVAR
  5
97
102
{ACAD_REACTORS
330
95
102
}
330
95
100
DictionaryVariables
280
     0
  1
1
  0
DICTIONARYVAR
  5
96
102
{ACAD_REACTORS
330
95
102
}
330
95
100
DictionaryVariables
280
     0
  1
1
  0
DICTIONARYVAR
  5
98
102
{ACAD_REACTORS
330
95
102
}
330
95
100
DictionaryVariables
280
     0
  1

  0
XRECORD
  5
B6
102
{ACAD_REACTORS
330
B4
102
}
330
B4
100
AcDbXrecord
280
     1
330
8B
330
30
330
4C
330
5D
330
72
  0
DICTIONARY
  5
BD
330
F
100
AcDbDictionary
280
     1
281
     1
  3
ACAD_XREC_ROUNDTRIP
360
BE
  0
DICTIONARY
  5
BB
330
A
100
AcDbDictionary
280
     1
281
     1
  3
ACAD_XREC_ROUNDTRIP
360
BC
  0
XRECORD
  5
BE
102
{ACAD_REACTORS
330
BD
102
}
330
BD
100
AcDbXrecord
280
     1
102
SHADEPLOT
 70
     0
102
SHADEPLOTRESLEVEL
 70
     2
102
SHADEPLOTCUSTOMDPI
 70
   300
  0
XRECORD
  5
BC
102
{ACAD_REACTORS
330
BB
102
}
330
BB
100
AcDbXrecord
280
     1
102
SHADEPLOT
 70
     0
102
SHADEPLOTRESLEVEL
 70
     2
102
SHADEPLOTCUSTOMDPI
 70
   300
  0
ENDSEC
  0
EOF
